\m/ 80's metal \m/

Информационно-аналитический форум "80 см пыли" (In Search We Trust) "У нас никто никуда не спешит"
Me For You - http://me-4u.com
It is currently 16 Dec 2018

All times are UTC + 3 hours

Spoiler
Chat - temporary registration for foreign users (please leave your application here)







Post new topic Reply to topic  [ 13 posts ] 
Author Message
 
PostPosted: 14 Oct 2009 
хард н хэвщик (support team)
User avatar
Joined: 02 Jun 2008
Posts: 16880
Lоcаtion: Н.Новгород
Age: 31
Name: Артем
Image

Rainmaker - Rainmaker (2000)

1. Rainmaker
2. Father Of Your Sins
3. Nancy Hold On
4. Kay
5. Seriously
6. The Sound Of My Heart
7. Going Insane
8. Blood Brother Run
9. Passion Again
10. Bad Call
11. King Of Fools

картинку к альбому можно забрать, щелкнув в нее и увеличив

http://www.heavyharmonies.com/cgi-bin/b ... ndNum=4141

с альбомом помог Андрей, заливка его

http://ifolder.ru/14206737


Top
 Profile  
 
 
PostPosted: 14 Oct 2009 
хард н хэвщик (support team)
User avatar
Joined: 02 Jun 2008
Posts: 16880
Lоcаtion: Н.Новгород
Age: 31
Name: Артем
Андрюх, сообщения-призраки тута :shok:


Top
 Profile  
 
 
PostPosted: 14 Oct 2009 
Хиппей (support team)
User avatar
Joined: 30 Jul 2007
Posts: 108947
Lоcаtion: Киев (Kyiv, UA)
Age: 45
Name: Andrey
Да, было моё. Переместил. Мешало :nea:

_________________


Top
 Profile E-mail  
 
 
PostPosted: 14 Oct 2009 
Небесный болтер
User avatar
Joined: 28 Apr 2008
Posts: 2614
Lоcаtion: Верхние Шипки
Age: 35
Name: К. Кастальский
Что за стиль то?


Top
 Profile  
 
 
PostPosted: 25 May 2010 
Персональный статус
User avatar
Joined: 29 Sep 2009
Posts: 271
Lоcаtion: Надым
Age: 40
Name: Виталий
Господа! Кто скачал этот альбом - подскажите, на втором треке "скачки" неслабые присутствуют?


Top
 Profile E-mail  
 
 
PostPosted: 25 May 2010 
Хиппей (support team)
User avatar
Joined: 30 Jul 2007
Posts: 108947
Lоcаtion: Киев (Kyiv, UA)
Age: 45
Name: Andrey
Не качал... :oops:

_________________


Top
 Profile E-mail  
 
 
PostPosted: 25 May 2010 
Персональный статус
User avatar
Joined: 29 Sep 2009
Posts: 271
Lоcаtion: Надым
Age: 40
Name: Виталий
McKagan wrote:
с альбомом помог Андрей, заливка его

А ссылка разве не твоя? :shok: Или Рольфа?


Top
 Profile E-mail  
 
 
PostPosted: 25 May 2010 
Хиппей (support team)
User avatar
Joined: 30 Jul 2007
Posts: 108947
Lоcаtion: Киев (Kyiv, UA)
Age: 45
Name: Andrey
Да, Андрея Рольфа.

_________________


Top
 Profile E-mail  
 
 
PostPosted: 11 Dec 2018 
DarkSage
User avatar
Joined: 24 Sep 2009
Posts: 947
Lоcаtion: Moscow
Name: Оксана
yadisk ape

_________________
Image,Image


Top
 Profile E-mail  
 
 
PostPosted: 11 Dec 2018 
Работнечег
User avatar
Joined: 28 Aug 2007
Posts: 5606
Lоcаtion: г. Москва
Age: 29
Name: Дима
:true:


Top
 Profile E-mail  
 
 
PostPosted: 12 Dec 2018 
Хиппей (support team)
User avatar
Joined: 30 Jul 2007
Posts: 108947
Lоcаtion: Киев (Kyiv, UA)
Age: 45
Name: Andrey
yadisk ape

:thanx:

RainMaker - 2000 - Rainmaker [ape]

Image Image Image

mirror: Uloz l Drop l Narod l M-Cloud

log
Exact Audio Copy V0.99 prebeta 4 from 23. January 2008

Отчёт EAC об извлечении, выполненном 29. ноября 2010, 20:24

RainMaker / Rainmaker

Дисковод: Optiarc DVD RW AD-7173S Adapter: 2 ID: 0

Режим чтения : Достоверность
Использование точного потока : Да
Отключение кэша аудио : Да
Использование указателей C2 : Нет

Коррекция смещения при чтении : 48
Способность читать области Lead-in и Lead-out : Нет
Заполнение пропущенных сэмплов тишиной : Да
Удаление блоков с тишиной в начале и конце : Нет
При вычислениях CRC использовались нулевые сэмплы : Да
Интерфейс : Встроенный Win32-интерфейс для Win NT/2000

Выходной формат : Monkey's Audio (без потерь)
Выбранный битрейт : Normal Lossless Compression
Качество : Высокий
Добавление ID3-тэга : Да
Утилита сжатия : C:\Program Files\Monkey's Audio\MAC.exe


TOC извлечённого CD

Трек | Старт | Длительность | Начальный сектор | Конечный сектор
---------------------------------------------------------------------
1 | 0:00.00 | 5:47.63 | 0 | 26087
2 | 5:47.63 | 5:06.49 | 26088 | 49086
3 | 10:54.37 | 4:40.04 | 49087 | 70090
4 | 15:34.41 | 4:24.27 | 70091 | 89917
5 | 19:58.68 | 5:32.07 | 89918 | 114824
6 | 25:31.00 | 4:33.72 | 114825 | 135371
7 | 30:04.72 | 5:04.10 | 135372 | 158181
8 | 35:09.07 | 4:49.67 | 158182 | 179923
9 | 39:58.74 | 5:02.44 | 179924 | 202617
10 | 45:01.43 | 8:11.11 | 202618 | 239453
11 | 53:12.54 | 5:00.15 | 239454 | 261968


Характеристики диапазона извлечения и сообщения об ошибках

Выбранный диапазон

Имя файла D:\Music\RainMaker - Rainmaker 2000\RainMaker - Rainmaker.wav

Пиковый уровень 100.0 %
Качество диапазона 99.9 %
CRC копии 68822CD6
Копирование... OK

Ошибок не произошло

Конец отчёта

cue
REM GENRE "Melodic Hard Rock"
REM DATE 2000
REM DISCID 7B0DA40B
REM COMMENT "ExactAudioCopy v0.99pb4"
PERFORMER "RainMaker"
TITLE "Rainmaker"
FILE "RainMaker - Rainmaker.ape" WAVE
TRACK 01 AUDIO
TITLE "Rainmaker"
PERFORMER "RainMaker"
INDEX 01 00:00:00
TRACK 02 AUDIO
TITLE "Father of your sins"
PERFORMER "RainMaker"
INDEX 01 05:47:63
TRACK 03 AUDIO
TITLE "Nancy hold on"
PERFORMER "RainMaker"
INDEX 01 10:54:37
TRACK 04 AUDIO
TITLE "Kay"
PERFORMER "RainMaker"
INDEX 01 15:34:41
TRACK 05 AUDIO
TITLE "Seriously"
PERFORMER "RainMaker"
INDEX 01 19:58:68
TRACK 06 AUDIO
TITLE "The sound of my heart"
PERFORMER "RainMaker"
INDEX 01 25:31:00
TRACK 07 AUDIO
TITLE "Going insane"
PERFORMER "RainMaker"
INDEX 01 30:04:72
TRACK 08 AUDIO
TITLE "Blood brother run"
PERFORMER "RainMaker"
INDEX 01 35:09:07
TRACK 09 AUDIO
TITLE "Passion again"
PERFORMER "RainMaker"
INDEX 01 39:58:74
TRACK 10 AUDIO
TITLE "Bad Call"
PERFORMER "RainMaker"
INDEX 01 45:01:43
TRACK 11 AUDIO
TITLE "King of fools"
PERFORMER "RainMaker"
INDEX 01 53:12:54

Image Image Image

all scans - https://yapx.ru/v/C6dLE

_________________


Top
 Profile E-mail  
 
 
PostPosted: 13 Dec 2018 
спирт 100%
User avatar
Joined: 22 Sep 2008
Posts: 4328
Age: 47
Name: Саня
ds59 wrote:
yadisk ape

:thanx:
Scatterbrain wrote:

:thanx:


Top
 Profile  
 
 
PostPosted: 13 Dec 2018 
Хиппей (support team)
User avatar
Joined: 30 Jul 2007
Posts: 108947
Lоcаtion: Киев (Kyiv, UA)
Age: 45
Name: Andrey
Scatterbrain wrote:
RainMaker - 2000 - Rainmaker

Обычный такой привычный взрослый Melodic Hard.

6+/10

_________________


Top
 Profile E-mail  
 
Display posts from previous:  Sort by  
Post new topic Reply to topic  [ 13 posts ] 

All times are UTC + 3 hours


Who is online

Users browsing this forum: No registered users and 2 guests


You cannot post new topics in this forum
You cannot reply to topics in this forum
You cannot edit your posts in this forum
You cannot delete your posts in this forum
You cannot post attachments in this forum

Search for:
Яндекс.Метрика
Powered by phpBB © 2000, 2002, 2005, 2007 phpBB Group