\m/ 80's metal \m/

Информационно-аналитический форум "80 см пыли" (In Search We Trust) "У нас никто никуда не спешит"
Железнодорожная биржа - RailAgent
It is currently 16 Dec 2017

All times are UTC + 3 hours

Spoiler
Chat - temporary registration for foreign users (please leave your application here)







Post new topic Reply to topic  [ 25 posts ]  Go to page Previous  1, 2
Author Message
 
PostPosted: 02 Apr 2013 
Хиппей (support team)
User avatar
Joined: 30 Jul 2007
Posts: 97115
Lоcаtion: Киев (Kyiv, UA)
Age: 44
Name: Andrey
О как. Группа, оказывается, возродилась и выпустила 2,5 года назад альбом. С приглашенными вокалистами, например http://rutracker.org/forum/viewtopic.php?t=3515113

_________________


Top
 Profile E-mail  
 
 
PostPosted: 02 Apr 2013 
А может смените мне статус?..
User avatar
Joined: 08 Jul 2009
Posts: 893
Lоcаtion: Харьков
Age: 44
Name: Юрий
Надо просто слушать правильный PHARAO(с добавкой одной буквы Н) с Аймаром :crazy:


Top
 Profile  
 
 
PostPosted: 02 Apr 2013 
Хиппей (support team)
User avatar
Joined: 30 Jul 2007
Posts: 97115
Lоcаtion: Киев (Kyiv, UA)
Age: 44
Name: Andrey
А, их же не тьма, "Фараонов" этих :yyy:

_________________


Top
 Profile E-mail  
 
 
PostPosted: 02 Apr 2013 
Хиппей (support team)
User avatar
Joined: 30 Jul 2007
Posts: 97115
Lоcаtion: Киев (Kyiv, UA)
Age: 44
Name: Andrey
Pharao - 2010 - Road To Nowhere [flac]

Image


Genre: Power Metal
Format: flac + cue + log + scans
Location: Germany
Size: 401 Mb


    1. On The Attack (feat. Biff Byford)
    2. Why Not! (feat. Mario Le Mole)
    3. Mother Earth
    4. Road To Nowhere
    5. The Other Site
    6. Like A Phoenix (You Will Rise)
    7. We Are (feat. The Chiliboys)
    8. Seven Seas (feat. Paul Quinn)
    9. I Believe
    10. Seconds To Minutes
    11. Before The Storm (feat. Tom Angelripper)
    12. You Ain´t Seen Nothing Yet (BTO cover)

TPT: 47:23

mirror: F-Bit l Narod

log
Exact Audio Copy V0.99 prebeta 5 from 4. May 2009

EAC extraction logfile from 5. April 2011, 21:02

Pharao / Road To Nowhere

Used drive : ASUS DRW-22B2S Adapter: 0 ID: 1

Read mode : Secure
Utilize accurate stream : Yes
Defeat audio cache : Yes
Make use of C2 pointers : No

Read offset correction : 6
Overread into Lead-In and Lead-Out : No
Fill up missing offset samples with silence : Yes
Delete leading and trailing silent blocks : No
Null samples used in CRC calculations : Yes
Used interface : Native Win32 interface for Win NT & 2000

Used output format : Internal WAV Routines
Sample format : 44.100 Hz; 16 Bit; Stereo


TOC of the extracted CD

Track | Start | Length | Start sector | End sector
---------------------------------------------------------
1 | 0:00.00 | 4:07.07 | 0 | 18531
2 | 4:07.07 | 3:48.08 | 18532 | 35639
3 | 7:55.15 | 4:25.10 | 35640 | 55524
4 | 12:20.25 | 3:18.12 | 55525 | 70386
5 | 15:38.37 | 4:53.53 | 70387 | 92414
6 | 20:32.15 | 4:02.74 | 92415 | 110638
7 | 24:35.14 | 3:35.34 | 110639 | 126797
8 | 28:10.48 | 4:12.50 | 126798 | 145747
9 | 32:23.23 | 3:58.53 | 145748 | 163650
10 | 36:22.01 | 3:15.22 | 163651 | 178297
11 | 39:37.23 | 3:57.45 | 178298 | 196117
12 | 43:34.68 | 3:52.11 | 196118 | 213528


Range status and errors

Selected range

Filename C:\Pharao - 2010 - Road To Nowhere.wav

Peak level 100.0 %
Range quality 100.0 %
Test CRC 388D0571
Copy CRC 388D0571
Copy OK

No errors occurred


AccurateRip summary

Track 1 cannot be verified as accurate (confidence 1) [EB31B3CE], AccurateRip returned [2F1C29B0]
Track 2 cannot be verified as accurate (confidence 1) [CF2A2780], AccurateRip returned [31198540]
Track 3 cannot be verified as accurate (confidence 1) [AD748F88], AccurateRip returned [3C95277C]
Track 4 cannot be verified as accurate (confidence 1) [6E410B66], AccurateRip returned [F9DAB9E8]
Track 5 cannot be verified as accurate (confidence 1) [78A4A395], AccurateRip returned [7D80FF38]
Track 6 cannot be verified as accurate (confidence 1) [35FDE687], AccurateRip returned [1AF6A54A]
Track 7 cannot be verified as accurate (confidence 1) [F9EEF76A], AccurateRip returned [CC53D961]
Track 8 cannot be verified as accurate (confidence 1) [B1EA01D3], AccurateRip returned [E71C34AA]
Track 9 cannot be verified as accurate (confidence 1) [BB2F7BC6], AccurateRip returned [BC359042]
Track 10 cannot be verified as accurate (confidence 1) [A1EEA463], AccurateRip returned [1906169F]
Track 11 cannot be verified as accurate (confidence 1) [8FE7FF57], AccurateRip returned [936DB433]
Track 12 cannot be verified as accurate (confidence 1) [FBB52734], AccurateRip returned [6293321C]

No tracks could be verified as accurate
You may have a different pressing from the one(s) in the database

End of status report

cue
REM GENRE "Heavy Metal"
REM DATE 2010
REM DISCID B20B1F0C
REM COMMENT "ExactAudioCopy v0.99pb5"
PERFORMER "Pharao"
TITLE "Road To Nowhere"
FILE "Pharao - 2010 - Road To Nowhere.wav" WAVE
TRACK 01 AUDIO
TITLE "On the attack (feat.Biff Byford)"
PERFORMER "Pharao"
INDEX 01 00:00:00
TRACK 02 AUDIO
TITLE "Why not! (feat.Mario Le Mole)"
PERFORMER "Pharao"
INDEX 01 04:07:07
TRACK 03 AUDIO
TITLE "Mother earth"
PERFORMER "Pharao"
INDEX 01 07:55:15
TRACK 04 AUDIO
TITLE "Road to nowhere"
PERFORMER "Pharao"
INDEX 01 12:20:25
TRACK 05 AUDIO
TITLE "The other site"
PERFORMER "Pharao"
INDEX 01 15:38:37
TRACK 06 AUDIO
TITLE "Like a phoenix"
PERFORMER "Pharao"
INDEX 01 20:32:15
TRACK 07 AUDIO
TITLE "We are (feat.The Chiliboys)"
PERFORMER "Pharao"
INDEX 01 24:35:14
TRACK 08 AUDIO
TITLE "Seven seas (feat.Paul Quinn)"
PERFORMER "Pharao"
INDEX 01 28:10:48
TRACK 09 AUDIO
TITLE "I believe"
PERFORMER "Pharao"
INDEX 01 32:23:23
TRACK 10 AUDIO
TITLE "Seconds to minutes"
PERFORMER "Pharao"
INDEX 01 36:22:01
TRACK 11 AUDIO
TITLE "Before the storm (feat.Tom Angelripper)"
PERFORMER "Pharao"
INDEX 01 39:37:23
TRACK 12 AUDIO
TITLE "You ainґt see nothing yet"
PERFORMER "Pharao"
INDEX 01 43:34:68



Начал было слушать, но.. Футбол начался :pardon:
Ночью и утром послушаю нормально уже.

_________________


Top
 Profile E-mail  
 
 
PostPosted: 04 Apr 2013 
Хиппей (support team)
User avatar
Joined: 30 Jul 2007
Posts: 97115
Lоcаtion: Киев (Kyiv, UA)
Age: 44
Name: Andrey
Слушал и слушал, пока слушался не устала... :yyy:
Как говорится, пытался понять всю глубину глубин данного альбома, но... скорее всего мне просто это не дано сделать :pardon:
Да, группа хорошо звучит, хорошо играет Power Metal с современном его понимании, местами даже хитовые песни попадаются. Но всё эти нивелируется полным отсутствием какого-либо собственного лица группы.
Вроде и не проходняк и музыканты собрались профессиональные, а совершенно музыка не цепляет.
Боюсь вызвать гнев любителей подобной музыки и снова быть обвинен в невежестве, но ничего цепляющего в двух релизах от неё не обнаружил. Пауэр такой себе пауэр с привычным звуком, вокальными партиями и прочим и другим остальным :vic:

Без оценки, ибо сложно оценивать то, что в два уха влетает, а вылетает оттуда же, не прочистив их даже от cerumen :fingal:

Парочка известных вокалистов в нескольких трэках альбом немного скрашивают, но и дают дальше понять, что без них вообще нечего было бы здесь слушать (ой, ну заглавная песня таки хит, угу). Кавер на известную песню некой известной группы вызвал еще больше уныние и желание окончательно зарыть лося под еще не растаявший весенний грязный снег. Пусть отмокает.

_________________


Top
 Profile E-mail  
 
Display posts from previous:  Sort by  
Post new topic Reply to topic  [ 25 posts ]  Go to page Previous  1, 2

All times are UTC + 3 hours


Who is online

Users browsing this forum: No registered users and 2 guests


You cannot post new topics in this forum
You cannot reply to topics in this forum
You cannot edit your posts in this forum
You cannot delete your posts in this forum
You cannot post attachments in this forum

Search for:
Яндекс.Метрика
Powered by phpBB © 2000, 2002, 2005, 2007 phpBB Group