\m/ 80's metal \m/

Информационно-аналитический форум "80 см пыли" (In Search We Trust) "У нас никто никуда не спешит"
Me For You - http://me-4u.com
It is currently 15 Dec 2019

All times are UTC + 3 hours

Spoiler
Chat - temporary registration for foreign users (please leave your application here)







Post new topic Reply to topic  [ 15 posts ] 
Author Message
 
PostPosted: 21 Dec 2014 
адын фелософъ прокметолу
User avatar
Joined: 22 Oct 2009
Posts: 2790
Lоcаtion: Сочи
Age: 42
Name: Сергей
предыдущий альбом
Selah(1992)

_________________
Я ненавижу гранж и альтернативную музыку


Top
 Profile E-mail  
 
 
PostPosted: 04 Jan 2015 
Работнечег
User avatar
Joined: 28 Aug 2007
Posts: 6086
Lоcаtion: г. Москва
Age: 30
Name: Дима
:true: :thanx: я так понимаю реап можно и снять..


Top
 Profile E-mail  
 
 
PostPosted: 24 Aug 2017 
Rara avis
User avatar
Joined: 27 Jan 2009
Posts: 5316
Name: .
Одна и та же тема. Нужно объединить.
viewtopic.php?f=13&t=3893


Top
 Profile E-mail  
 
 
PostPosted: 24 Aug 2017 
Хиппей (support team)
User avatar
Joined: 30 Jul 2007
Posts: 116142
Lоcаtion: Киев (Kyiv, UA)
Age: 46
Name: Andrey
:thanx:
Сейчас слеплю.

_________________


Top
 Profile E-mail  
 
 
PostPosted: 24 Aug 2017 
Хиппей (support team)
User avatar
Joined: 30 Jul 2007
Posts: 116142
Lоcаtion: Киев (Kyiv, UA)
Age: 46
Name: Andrey
предыдущий альбом
Selah(1992)

:thanx:

mirror: Depos l Narod l Drop l M-Cloud

_________________


Top
 Profile E-mail  
 
 
PostPosted: 29 Aug 2017 
Хиппей (support team)
User avatar
Joined: 30 Jul 2007
Posts: 116142
Lоcаtion: Киев (Kyiv, UA)
Age: 46
Name: Andrey
предыдущий альбом
Selah(1992)

Какой трушный US Power с элементами прога :lob: :lob: :lob:

7/10

_________________


Top
 Profile E-mail  
 
 
PostPosted: 29 Aug 2017 
А может смените мне статус?..
Joined: 03 Jul 2009
Posts: 892
Lоcаtion: Serbia
Name: Laki
Oracle who released album Selah is not the same band as Oracle/Prodigy As Darkness Reigns. First one is from N. Carolina and the second one is from Florida.


Top
 Profile E-mail  
 
 
PostPosted: 29 Aug 2017 
Прокъмитолист
User avatar
Joined: 12 Aug 2007
Posts: 6653
Lоcаtion: Санктъ-Петербуркъ
Age: 52
Name: Олекъ
Лаки дело говорит. разные группы ;)

_________________
прокъметол - это музыко, от которово есть прок (ы)


Top
 Profile  
 
 
PostPosted: 29 Aug 2017 
Хиппей (support team)
User avatar
Joined: 30 Jul 2007
Posts: 116142
Lоcаtion: Киев (Kyiv, UA)
Age: 46
Name: Andrey
Oracle who released album Selah is not the same band as Oracle/Prodigy As Darkness Reigns. First one is from N. Carolina and the second one is from Florida.

Thank you for more accurate information :thanx:
Separate the topic :tro:

_________________


Top
 Profile E-mail  
 
 
PostPosted: 29 Aug 2017 
А может смените мне статус?..
Joined: 03 Jul 2009
Posts: 892
Lоcаtion: Serbia
Name: Laki
:ok:


Top
 Profile E-mail  
 
 
PostPosted: 02 Sep 2017 
А может смените мне статус?..
User avatar
Joined: 17 Jan 2008
Posts: 901
Lоcаtion: Пенза
Age: 42
Name: Денис
Image
Image
| +
https://cloud.mail.ru/public/6uEh/EtpMC2dff
Lossless


Top
 Profile  
 
 
PostPosted: 03 Sep 2017 
Хиппей (support team)
User avatar
Joined: 30 Jul 2007
Posts: 116142
Lоcаtion: Киев (Kyiv, UA)
Age: 46
Name: Andrey
Денис, спасибо :thanx:

Занятный ты выбрал файлообменник для картинок..

Image

mirror: Depos l Narod l M-Cloud l Drop

Image
Image

log
Exact Audio Copy V0.99 prebeta 5 from 4. May 2009

EAC extraction logfile from 19. June 2010, 14:52

Oracle / Desolate Kings

Used drive : Optiarc DVD RW AD-7203S Adapter: 0 ID: 0

Read mode : Secure
Utilize accurate stream : Yes
Defeat audio cache : Yes
Make use of C2 pointers : No

Combined read/write offset correction : 66
Overread into Lead-In and Lead-Out : No
Fill up missing offset samples with silence : Yes
Delete leading and trailing silent blocks : No
Null samples used in CRC calculations : Yes
Used interface : Installed external ASPI interface

Used output format : Monkey's Audio Lossless Encoder
Selected bitrate : Extra High Lossless Compression
Quality : High
Add ID3 tag : No
Command line compressor : C:\Program Files\Monkey's Audio\MAC.exe


TOC of the extracted CD

Track | Start | Length | Start sector | End sector
---------------------------------------------------------
1 | 0:00.00 | 5:39.12 | 0 | 25436
2 | 5:39.12 | 4:25.10 | 25437 | 45321
3 | 10:04.22 | 6:03.64 | 45322 | 72610
4 | 16:08.11 | 3:47.61 | 72611 | 89696
5 | 19:55.72 | 3:14.27 | 89697 | 104273
6 | 23:10.24 | 6:48.43 | 104274 | 134916
7 | 29:58.67 | 1:37.02 | 134917 | 142193
8 | 31:35.69 | 5:42.52 | 142194 | 167895
9 | 37:18.46 | 4:00.52 | 167896 | 185947
10 | 41:19.23 | 3:22.03 | 185948 | 201100
11 | 44:41.26 | 5:04.61 | 201101 | 223961
12 | 49:46.12 | 5:25.62 | 223962 | 248398
13 | 55:11.74 | 3:39.74 | 248399 | 264897
14 | 58:51.73 | 5:37.11 | 264898 | 290183
15 | 64:29.09 | 3:58.05 | 290184 | 308038
16 | 68:27.14 | 3:20.18 | 308039 | 323056
17 | 71:47.32 | 5:00.52 | 323057 | 345608


Range status and errors

Selected range

Filename D:\0\ORACLE - 2010 - Desolate Kings\Oracle - Desolate Kings.wav

Peak level 98.8 %
Range quality 100.0 %
Copy CRC 0B69F3EB
Copy OK

No errors occurred

End of status report

cue
REM GENRE "Heavy Metal"
REM DATE 2010
REM DISCID F7120011
REM COMMENT "ExactAudioCopy v0.99pb5"
PERFORMER "Oracle"
TITLE "Desolate Kings"
FILE "Oracle - Desolate Kings.ape" WAVE
TRACK 01 AUDIO
TITLE "Passage Denied (1993 'Selah' LP)"
PERFORMER "Oracle"
FLAGS DCP
INDEX 01 00:00:00
TRACK 02 AUDIO
TITLE "Harlot's Destiny (1993 'Selah' LP)"
PERFORMER "Oracle"
FLAGS DCP
INDEX 01 05:39:12
TRACK 03 AUDIO
TITLE "Witches & Warlocks (1993 'Selah' LP)"
PERFORMER "Oracle"
FLAGS DCP
INDEX 01 10:04:22
TRACK 04 AUDIO
TITLE "The Purging Fire (1993 'Selah' LP)"
PERFORMER "Oracle"
FLAGS DCP
INDEX 01 16:08:11
TRACK 05 AUDIO
TITLE "Desolate Kings (1993 'Selah' LP)"
PERFORMER "Oracle"
FLAGS DCP
INDEX 01 19:55:72
TRACK 06 AUDIO
TITLE "Legion (1993 'Selah' LP)"
PERFORMER "Oracle"
FLAGS DCP
INDEX 01 23:10:24
TRACK 07 AUDIO
TITLE "Rebecca (1993 'Selah' LP)"
PERFORMER "Oracle"
FLAGS DCP
INDEX 01 29:58:67
TRACK 08 AUDIO
TITLE "Look Away (1990 Demo)"
PERFORMER "Oracle"
FLAGS DCP
INDEX 01 31:35:69
TRACK 09 AUDIO
TITLE "Willful Death (1990 Demo)"
PERFORMER "Oracle"
FLAGS DCP
INDEX 01 37:18:46
TRACK 10 AUDIO
TITLE "Desolate Kings (1990 Demo)"
PERFORMER "Oracle"
FLAGS DCP
INDEX 01 41:19:23
TRACK 11 AUDIO
TITLE "The Spirit Of Egypt (1990 Demo)"
PERFORMER "Oracle"
FLAGS DCP
INDEX 01 44:41:26
TRACK 12 AUDIO
TITLE "Wolves Of The Cloth (1992 Demo)"
PERFORMER "Oracle"
FLAGS DCP
INDEX 01 49:46:12
TRACK 13 AUDIO
TITLE "Apathy's Slumber (1992 Demo)"
PERFORMER "Oracle"
FLAGS DCP
INDEX 00 55:09:74
INDEX 01 55:11:74
TRACK 14 AUDIO
TITLE "Look Away (1990 Demo Alt. Mix)"
PERFORMER "Oracle"
FLAGS DCP
INDEX 00 58:49:73
INDEX 01 58:51:73
TRACK 15 AUDIO
TITLE "Willful Death (1990 Demo Alt. Mix)"
PERFORMER "Oracle"
FLAGS DCP
INDEX 01 64:29:09
TRACK 16 AUDIO
TITLE "Desolate Kings (1990 Demo Alt. Mix)"
PERFORMER "Oracle"
FLAGS DCP
INDEX 01 68:27:14
TRACK 17 AUDIO
TITLE "The Spirit Of Egypt (1990 Demo Alt. Mix)"
PERFORMER "Oracle"
FLAGS DCP
INDEX 01 71:47:32

_________________


Top
 Profile E-mail  
 
 
PostPosted: 04 Sep 2017 
Рарник и трушник
User avatar
Joined: 25 Dec 2009
Posts: 8839
Lоcаtion: Москва
Age: 54
Name: Виталий
Спасибо!!! :lob: Тож качну, ато не помню, есть что-то из Оракла этого. :pardon:


Top
 Profile  
 
 
PostPosted: 04 Sep 2017 
Хиппей (support team)
User avatar
Joined: 30 Jul 2007
Posts: 116142
Lоcаtion: Киев (Kyiv, UA)
Age: 46
Name: Andrey
Будь это не Оракле, а какой-то Вишес Руморс, например, сейчас бы его хвалил весь тырнет. А так.. отличный альбом почти незамеченной группы.

_________________


Top
 Profile E-mail  
 
 
PostPosted: 04 Sep 2017 
адын фелософъ прокметолу
User avatar
Joined: 22 Oct 2009
Posts: 2790
Lоcаtion: Сочи
Age: 42
Name: Сергей
:thanx:

_________________
Я ненавижу гранж и альтернативную музыку


Top
 Profile E-mail  
 
Display posts from previous:  Sort by  
Post new topic Reply to topic  [ 15 posts ] 

All times are UTC + 3 hours


Who is online

Users browsing this forum: No registered users and 1 guest


You cannot post new topics in this forum
You cannot reply to topics in this forum
You cannot edit your posts in this forum
You cannot delete your posts in this forum
You cannot post attachments in this forum

Search for:
Яндекс.Метрика
Powered by phpBB © 2000, 2002, 2005, 2007 phpBB Group