\m/ 80's metal \m/

Информационно-аналитический форум "80 см пыли" (In Search We Trust) "У нас никто никуда не спешит"
Железнодорожная биржа - RailAgent
It is currently 22 May 2018

All times are UTC + 3 hours

Spoiler
Chat - temporary registration for foreign users (please leave your application here)







Post new topic Reply to topic  [ 26 posts ]  Go to page 1, 2  Next
Author Message
 
PostPosted: 27 Apr 2014 
Хиппей (support team)
User avatar
Joined: 30 Jul 2007
Posts: 103511
Lоcаtion: Киев (Kyiv, UA)
Age: 44
Name: Andrey
Everhard wrote:
Killer (BE) - 1984 - Shock Waves #704118.2
(c) viewtopic.php?f=207&t=11873


Killer.[1984].[CD].Shock.Waves.[EAC-APE].by.ferroman.[MeTaLMaDNeSS.TeaM].rar :thanx:

Image Image
Image Image
Image Image

mirror: M-Cloud l Narod

log
EAC extraction logfile from 6. December 2006, 15:47 for CD
Killer / Shock Waves

Used drive : SONY DVD RW DW-D56A Adapter: 1 ID: 0
Read mode : Secure with NO C2, accurate stream, disable cache
Read offset correction : 12
Overread into Lead-In and Lead-Out : No

Used output format : C:\Archivos de programa\Exact Audio Copy\MAC.EXE (Monkey's Audio Lossless Encoder)
High Lossless Compression

Other options :
Fill up missing offset samples with silence : Yes
Delete leading and trailing silent blocks : No
Installed external ASPI interface


Range status and errors
Selected range
Filename C:\EAC APE Share\Killer (1984) (Shock Waves) APE\Killer - 1984.wav

Peak level 100.0 %
Range quality 100.0 %
CRC EDB15BBF
Copy OK

No errors occured

End of status report

cue
PERFORMER "Killer"
TITLE "Shock Waves"
FILE "Killer - 1984.ape" WAVE
TRACK 01 AUDIO
TITLE "Shock Waves"
PERFORMER "Killer"
INDEX 01 00:00:00
TRACK 02 AUDIO
TITLE "Scarecrow"
PERFORMER "Killer"
INDEX 01 04:03:12
TRACK 03 AUDIO
TITLE "In The Name of The Law"
PERFORMER "Killer"
INDEX 01 09:44:39
TRACK 04 AUDIO
TITLE "King Kong (Instrumental)"
PERFORMER "Killer"
INDEX 01 15:48:02
TRACK 05 AUDIO
TITLE "Blood On The Chains"
PERFORMER "Killer"
INDEX 01 22:22:39
TRACK 06 AUDIO
TITLE "RichTer Scale 12"
PERFORMER "Killer"
INDEX 01 27:08:13
TRACK 07 AUDIO
TITLE "In The Eye Of My Gun"
PERFORMER "Killer"
INDEX 01 31:06:61
TRACK 08 AUDIO
TITLE "Time Bomb"
PERFORMER "Killer"
INDEX 01 37:24:20
TRACK 09 AUDIO
TITLE "Shock Waves / Scarecrow"
PERFORMER "Killer"
INDEX 01 44:35:46
TRACK 10 AUDIO
TITLE "In The Name of The Law"
PERFORMER "Killer"
INDEX 01 54:36:34
TRACK 11 AUDIO
TITLE "Kleptomania"
PERFORMER "Killer"
INDEX 01 60:58:70


ps. Или перенести пост в букву Бухты? :oops:

_________________


Top
 Profile E-mail  
 
 
PostPosted: 28 Apr 2014 
\m/ 80 см сала \m/
User avatar
Joined: 12 Mar 2012
Posts: 2577
Age: 25
Name: Nick
Однозначно в бухту - здесь только коллектор форумных ссылок + судя по сканам, этот рип вообще с юбилейной серии, выпущенной в нулевых.

_________________
1990 AUROPHON BRAINSTORM (Germany) - lossless
1994 MAUSOLEUM CLASSIX (Belgium-Germany) - lossless
1998 VA - GRIM HARVEST - Complete Metal Massacre Volumes I-XII


Top
 Profile  
 
 
PostPosted: 29 Apr 2014 
Хиппей (support team)
User avatar
Joined: 30 Jul 2007
Posts: 103511
Lоcаtion: Киев (Kyiv, UA)
Age: 44
Name: Andrey
Everhard wrote:
с юбилейной серии, выпущенной в нулевых.

То есть, никак не подходит сюда? :vic:

_________________


Top
 Profile E-mail  
 
 
PostPosted: 29 Apr 2014 
Прокъмитолист
User avatar
Joined: 12 Aug 2007
Posts: 6383
Lоcаtion: Санктъ-Петербуркъ
Age: 50
Name: Олекъ
Андрюх, ну ты опять в своем репертуаре, ога? уж сколько раз перетирали на этом форуме тему Mausoleum Classix, а ты снова как невинная дева :crazy:

Scatterbrain wrote:
То есть, никак не подходит сюда?

то есть, совершенно не подходит :losik:

_________________
прокъметол - это музыко, от которово есть прок (ы)


Top
 Profile  
 
 
PostPosted: 30 Apr 2014 
Хиппей (support team)
User avatar
Joined: 30 Jul 2007
Posts: 103511
Lоcаtion: Киев (Kyiv, UA)
Age: 44
Name: Andrey
Пасибо, вроде понял то, что нужно издание только от... 1984 года :vic:
Именно вот это
Killer (BE) - 1984 - Shock Waves #704118.2 (metrock.ru by Snaggletooth)

Или всё же нужно смотреть на название топика и искать диски от переизданий "1994 Mausoleum Classix".

Ок, тогда не знаю, зачем я качал данный лосик. Переносю его в букву Бухты и сюда ничо не добавляю. Спасибки за прояснение :pardon:

_________________


Top
 Profile E-mail  
 
 
PostPosted: 30 Apr 2014 
\m/ 80 см сала \m/
User avatar
Joined: 12 Mar 2012
Posts: 2577
Age: 25
Name: Nick
Scatterbrain wrote:
Пасибо, вроде понял то, что нужно издание только от... 1984 1994 года :vic:

Scatterbrain wrote:
и искать диски от переизданий "1994 Mausoleum Classix".

О, веrной доrогой идете, товаrищ :lloo:

_________________
1990 AUROPHON BRAINSTORM (Germany) - lossless
1994 MAUSOLEUM CLASSIX (Belgium-Germany) - lossless
1998 VA - GRIM HARVEST - Complete Metal Massacre Volumes I-XII


Top
 Profile  
 
 
PostPosted: 30 Apr 2014 
Хиппей (support team)
User avatar
Joined: 30 Jul 2007
Posts: 103511
Lоcаtion: Киев (Kyiv, UA)
Age: 44
Name: Andrey
Ну так можно ж было пояснить для особенных, таких как я, в самом начале топика (а не только в его имени), что именно ищем только серию от 94 года (глянь на что ты дал ссылку от Снаглетута). Вот этот Килер точно там издавался на диске?

Кста, с аплоадером с МетРока связывался кто-то? Там точно торчал рип от 1994 года издания-переиздания?

_________________


Top
 Profile E-mail  
 
 
PostPosted: 30 Apr 2014 
\m/ 80 см сала \m/
User avatar
Joined: 12 Mar 2012
Posts: 2577
Age: 25
Name: Nick
Scatterbrain wrote:
(глянь на что ты дал ссылку от Снаглетута). Вот этот Килер точно там издавался на диске?

Глянул - Киллер, переиздание 94 года, как и надо. Не тупи, Ондрюш.

_________________
1990 AUROPHON BRAINSTORM (Germany) - lossless
1994 MAUSOLEUM CLASSIX (Belgium-Germany) - lossless
1998 VA - GRIM HARVEST - Complete Metal Massacre Volumes I-XII


Top
 Profile  
 
 
PostPosted: 30 Apr 2014 
Хиппей (support team)
User avatar
Joined: 30 Jul 2007
Posts: 103511
Lоcаtion: Киев (Kyiv, UA)
Age: 44
Name: Andrey
Ссылка там на рип от 94 года? А точно?
А инфа тогда по году чего указана иная? :fingal: Или ты смотришь лишь на фото и указанный "серийник"?

_________________


Top
 Profile E-mail  
 
 
PostPosted: 30 Apr 2014 
\m/ 80 см сала \m/
User avatar
Joined: 12 Mar 2012
Posts: 2577
Age: 25
Name: Nick
Саныч, ну ёлки-палки.
Киллер, бельгийцы. Альбом записан в 1983. Издавался на виниле в 1984 и 1985. Переиздан на CD в 1994, 2002 и 2012.
По информации с метрока, Snaggletooth выложил переиздание 1994 года (см. каталожный номер). Рипы по возможности он снимает с оригинальных дисков. Не вижу причин ему не доверять - довольно часто качал его релизы, косяков не обнаружил.
По звуку сравнивать не имеет смысла - именно в этом случае переиздание звучит практически идентично версии 1994 года.

_________________
1990 AUROPHON BRAINSTORM (Germany) - lossless
1994 MAUSOLEUM CLASSIX (Belgium-Germany) - lossless
1998 VA - GRIM HARVEST - Complete Metal Massacre Volumes I-XII


Top
 Profile  
 
 
PostPosted: 30 Apr 2014 
Хиппей (support team)
User avatar
Joined: 30 Jul 2007
Posts: 103511
Lоcаtion: Киев (Kyiv, UA)
Age: 44
Name: Andrey
Everhard wrote:
По звуку сравнивать не имеет смысла - именно в этом случае переиздание звучит практически идентично версии 1994 года.

Вввоооооот, ну вот я к этому и веду. Почему вдруг переиздание этого альбома от 2002 года сюда не подходит? :lloo:
Вернее, в тот топик про серию "Классикс" :pardon:

_________________


Top
 Profile E-mail  
 
 
PostPosted: 30 Apr 2014 
\m/ 80 см сала \m/
User avatar
Joined: 12 Mar 2012
Posts: 2577
Age: 25
Name: Nick
Scatterbrain wrote:
Вввоооооот, ну вот я к этому и веду.

Не "заливай", а :benya:
Scatterbrain wrote:
Почему вдруг переиздание этого альбома от 2002 года сюда не подходит?

Потому что там только ссылки на форумные темы, Саныч. Только ссылки на рипы с переизданий 94 года из серии Classix. Только ссылки. Только Classix.

_________________
1990 AUROPHON BRAINSTORM (Germany) - lossless
1994 MAUSOLEUM CLASSIX (Belgium-Germany) - lossless
1998 VA - GRIM HARVEST - Complete Metal Massacre Volumes I-XII


Top
 Profile  
 
 
PostPosted: 30 Apr 2014 
Хиппей (support team)
User avatar
Joined: 30 Jul 2007
Posts: 103511
Lоcаtion: Киев (Kyiv, UA)
Age: 44
Name: Andrey
Николай, Николай, Ник, про ссылки понятно. Но если звук ничем не отличается, то на хрена те понты, на хрена они то? :vic:
Чисто то мечта собрать чисто все ватета трушные выпуски той далеко не идеальной по звуку серии, ага?
Тогда ок, тогда понимаю :thanx:

Сорри, шо уточнял тута несколько раз некоторые детали. Мне нужно было собрать еще больше инфы. Ну, как обычно.
Теперь осталась мелочь - найти тот рип :dance:

_________________


Top
 Profile E-mail  
 
 
PostPosted: 30 Apr 2014 
Прокъмитолист
User avatar
Joined: 12 Aug 2007
Posts: 6383
Lоcаtion: Санктъ-Петербуркъ
Age: 50
Name: Олекъ
Everhard wrote:
Только ссылки. Только Classix.

только хардкор (с) :true:

_________________
прокъметол - это музыко, от которово есть прок (ы)


Top
 Profile  
 
 
PostPosted: 30 Apr 2014 
Хиппей (support team)
User avatar
Joined: 30 Jul 2007
Posts: 103511
Lоcаtion: Киев (Kyiv, UA)
Age: 44
Name: Andrey
Scatterbrain wrote:
(глянь на что ты дал ссылку от Снаглетута). Вот этот Килер точно там издавался на диске?

Глянул - Киллер, переиздание 94 года, как и надо. Не тупи, Ондрюш.

Там какой-то василий ссылку забрал и вот вот сюда её перебросил :shok:

_________________


Top
 Profile E-mail  
 
 
PostPosted: 30 Apr 2014 
Хиппей (support team)
User avatar
Joined: 30 Jul 2007
Posts: 103511
Lоcаtion: Киев (Kyiv, UA)
Age: 44
Name: Andrey
Killer - 1984 - Shock Waves (reissued 1994???) [flac]

Image

mirror: M-Cloud l Narod

Взято с: http://metrock.ru/heavypowermetal/50451 ... -1984.html :thanx:

log
Exact Audio Copy V1.0 beta 3 from 29. August 2011

Отчёт EAC об извлечении, выполненном 14. октября 2013, 9:46

Killer / Shock Waves (704118-2)

Дисковод: ASUS DRW-24B5ST Adapter: 2 ID: 1

Режим чтения : Достоверность
Использование точного потока : Да
Отключение кэша аудио : Да
Использование указателей C2 : Нет

Коррекция смещения при чтении : 6
Способность читать области Lead-in и Lead-out : Нет
Заполнение пропущенных сэмплов тишиной : Да
Удаление блоков с тишиной в начале и конце : Нет
При вычислениях CRC использовались нулевые сэмплы : Да
Интерфейс : Встроенный Win32-интерфейс для Win NT/2000

Выходной формат : Пользовательский кодировщик
Выбранный битрейт : 1024 kBit/s
Качество : Высокий
Добавление ID3-тега : Нет
Утилита сжатия : C:\Program Files\Exact Audio Copy\Flac\flac.exe
Дополнительные параметры : -V -8 -T "Date=%year%" -T "Genre=%genre%" -T "Comment=Ripped By Snaggletooth" %source%


TOC извлечённого CD

Трек | Старт | Длительность | Начальный сектор | Конечный сектор
---------------------------------------------------------------------
1 | 0:00.00 | 4:03.12 | 0 | 18236
2 | 4:03.12 | 5:41.27 | 18237 | 43838
3 | 9:44.39 | 6:03.38 | 43839 | 71101
4 | 15:48.02 | 6:34.37 | 71102 | 100688
5 | 22:22.39 | 4:45.49 | 100689 | 122112
6 | 27:08.13 | 3:58.48 | 122113 | 140010
7 | 31:06.61 | 6:17.34 | 140011 | 168319
8 | 37:24.20 | 7:11.26 | 168320 | 200670


Характеристики диапазона извлечения и сообщения об ошибках

Выбранный диапазон

Имя файла C:\Snaggletooth Lossless\Killer - Shock Waves (704118-2).wav

Пиковый уровень 96.5 %
Скорость извлечения 6.8 X
Качество диапазона 99.9 %
CRC теста B19F5B9F
CRC копии B19F5B9F
Копирование... OK

Ошибок не произошло


AccurateRip: сводка

Трек 1 отсутствует в базе данных
Трек 2 отсутствует в базе данных
Трек 3 отсутствует в базе данных
Трек 4 отсутствует в базе данных
Трек 5 отсутствует в базе данных
Трек 6 отсутствует в базе данных
Трек 7 отсутствует в базе данных
Трек 8 отсутствует в базе данных

Ни одного трека нет в базе AccurateRip

Конец отчёта

---- CUETools DB Plugin V2.1.5

[CTDB TOCID: g0nk_E9aZvbHV34g_fh4ZXSktRY-] disk not present in database
Submit result: g0nk_E9aZvbHV34g_fh4ZXSktRY- has been uploaded


==== Контрольная сумма отчёта 29906AF344FE144381DA49C50D69334C8D775A553A16208E1E7464A6A31B0684 ====

cue
REM GENRE "Heavy Metal"
REM DATE 1984
REM DISCID 690A7308
REM COMMENT "ExactAudioCopy v1.0b3"
PERFORMER "Killer"
TITLE "Shock Waves (704118-2)"
FILE "Killer - Shock Waves (704118-2).flac" WAVE
TRACK 01 AUDIO
TITLE "Shock Waves"
PERFORMER "Killer"
INDEX 01 00:00:00
TRACK 02 AUDIO
TITLE "Scarecrow"
PERFORMER "Killer"
INDEX 01 04:03:12
TRACK 03 AUDIO
TITLE "In The Name Of The Law"
PERFORMER "Killer"
INDEX 01 09:44:39
TRACK 04 AUDIO
TITLE "King Kong"
PERFORMER "Killer"
INDEX 01 15:48:02
TRACK 05 AUDIO
TITLE "Blood On The Chains"
PERFORMER "Killer"
INDEX 01 22:22:39
TRACK 06 AUDIO
TITLE "Richter Scale 12"
PERFORMER "Killer"
INDEX 01 27:08:13
TRACK 07 AUDIO
TITLE "In The Eye Of My Gun"
PERFORMER "Killer"
INDEX 01 31:06:61
TRACK 08 AUDIO
TITLE "Time Bomb"
PERFORMER "Killer"
INDEX 01 37:24:20

_________________


Top
 Profile E-mail  
 
 
PostPosted: 03 May 2014 
5-speed satisfactor
User avatar
Joined: 16 Feb 2009
Posts: 3503
Lоcаtion: New York, USA
Age: 40
Name: Leonid
Спасибо за первопресс.

_________________
Death rules! Metal to all who oppose!


Top
 Profile  
 
 
PostPosted: 05 May 2014 
Хиппей (support team)
User avatar
Joined: 30 Jul 2007
Posts: 103511
Lоcаtion: Киев (Kyiv, UA)
Age: 44
Name: Andrey
Лёнь, тута еще большой вопрос, откель на самом деле рип сделан :oops:

Ты по качеству звука как оценишь оба рипа?

_________________


Top
 Profile E-mail  
 
 
PostPosted: 06 May 2014 
5-speed satisfactor
User avatar
Joined: 16 Feb 2009
Posts: 3503
Lоcаtion: New York, USA
Age: 40
Name: Leonid
Я еще не слухал. Но погоди. Ты хочешь сказать что это может быть и не первопресс?

_________________
Death rules! Metal to all who oppose!


Top
 Profile  
 
 
PostPosted: 06 May 2014 
Хиппей (support team)
User avatar
Joined: 30 Jul 2007
Posts: 103511
Lоcаtion: Киев (Kyiv, UA)
Age: 44
Name: Andrey
Да, это может быть не издание от 94 года с диска и серии "Классикс".
Думаю, не зря Ник замолчал в этой теме :pardon:

_________________


Top
 Profile E-mail  
 
Display posts from previous:  Sort by  
Post new topic Reply to topic  [ 26 posts ]  Go to page 1, 2  Next

All times are UTC + 3 hours


Who is online

Users browsing this forum: No registered users and 1 guest


You cannot post new topics in this forum
You cannot reply to topics in this forum
You cannot edit your posts in this forum
You cannot delete your posts in this forum
You cannot post attachments in this forum

Search for:
Яндекс.Метрика
Powered by phpBB © 2000, 2002, 2005, 2007 phpBB Group