\m/ 80's metal \m/

Информационно-аналитический форум "80 см пыли" (In Search We Trust) "У нас никто никуда не спешит"
Me For You - http://me-4u.com
It is currently 21 Nov 2018

All times are UTC + 3 hours

Spoiler
Chat - temporary registration for foreign users (please leave your application here)







Post new topic Reply to topic  [ 49 posts ]  Go to page 1, 2, 3  Next
Author Message
 
PostPosted: 13 Sep 2007 
труъ антисионист
User avatar
Joined: 01 Aug 2007
Posts: 4541
Lоcаtion: Откуда и большинство из нас
Age: 37
Name: Дядя Вова
Надо кому нибудь? Есть оба альбома!
http://www.metal-archives.com/band.php?id=3450
САБЖ

Band:Hydra Vein - Rather Death Than False Of Faith
Rapida
Ifolder

Hydra Vein - After The Dream (1989)
Ifolder
Rapida

_________________
Image
Image


Last edited by Glot on 13 Sep 2007, edited 1 time in total.

Top
 Profile  
 
 
PostPosted: 13 Sep 2007 
Хиппей (support team)
User avatar
Joined: 30 Jul 2007
Posts: 108243
Lоcаtion: Киев (Kyiv, UA)
Age: 45
Name: Andrey
Британский Креатор рулит :true:
А у тебя они с переизданий или старые, с винила?


Top
 Profile E-mail  
 
 
PostPosted: 13 Sep 2007 
труъ антисионист
User avatar
Joined: 01 Aug 2007
Posts: 4541
Lоcаtion: Откуда и большинство из нас
Age: 37
Name: Дядя Вова
Да х.. его знает, вроде поскрипований нет.

_________________
Image
Image


Top
 Profile  
 
 
PostPosted: 13 Sep 2007 
Хиппей (support team)
User avatar
Joined: 30 Jul 2007
Posts: 108243
Lоcаtion: Киев (Kyiv, UA)
Age: 45
Name: Andrey
Glot wrote:
вроде поскрипований нет.

Хм, спасибо! :true: На досуге проверю. У меня вроде оба варианта были :umnik:


Top
 Profile E-mail  
 
 
PostPosted: 11 Oct 2007 
Навечно изгнанный
User avatar
Joined: 01 Aug 2007
Posts: 210
Lоcаtion: Загорск
Age: 46
Hydra Vein - Rather Death Than False Of Faith, у меня в 224kbit, 44100Hz Stereo

_________________
А мне повезло, я недобрый! И слава Богу, не гуру.
И героический образ, не сожрал мою злую натуру.


Top
 Profile E-mail  
 
 
PostPosted: 14 Sep 2009 
мелосмертхстер
User avatar
Joined: 11 Jul 2008
Posts: 1058
Lоcаtion: (Әлмәт/Самара)
Age: 42
Name: Rus†Ⓐm
а Blackend Records'кого переиздания в 320 нет ни у кого?
просто вспомнилось по моему на этом форуме кто-то упоминал, кажись Денис klod77.........Денис если не трудно залей пожалуйста , заранее спасибо ,жму 5

_________________
Everytime I Die

Image


Top
 Profile E-mail  
 
 
PostPosted: 26 Oct 2009 
дядя Миша
User avatar
Joined: 17 Oct 2008
Posts: 3074
Lоcаtion: USSR
Age: 56
Name: Khy
На первом альбоме ,5 телега , как звучит? В смысле равномерный звук с остальными треками?
Лось с винила есть???


Top
 Profile  
 
 
PostPosted: 06 Mar 2010 
А может смените мне статус?..
User avatar
Joined: 17 Jan 2008
Posts: 869
Lоcаtion: Пенза
Age: 41
Name: Денис
Потрековый лось с переиздания...552 mb...Но он даже безкуюшный,тока с логом..
log
Exact Audio Copy V0.99 prebeta 3 from 28. July 2007

EAC extraction logfile from 4. March 2010, 16:45

Hydra Vein / Rather Death Than False of Faith/After the Dream

Used drive : HL-DT-STDVD-RW GSA-H60L Adapter: 3 ID: 0

Read mode : Secure
Utilize accurate stream : Yes
Defeat audio cache : No
Make use of C2 pointers : No

Read offset correction : 667
Overread into Lead-In and Lead-Out : No
Fill up missing offset samples with silence : Yes
Delete leading and trailing silent blocks : No
Null samples used in CRC calculations : No
Used interface : Native Win32 interface for Win NT & 2000
Gap handling : Not detected, thus appended to previous track

Used output format : Internal WAV Routines
Sample format : 44.100 Hz; 16 Bit; Stereo


TOC of the extracted CD

Track | Start | Length | Start sector | End sector
---------------------------------------------------------
1 | 0:00.00 | 4:39.39 | 0 | 20963
2 | 4:39.39 | 4:56.29 | 20964 | 43192
3 | 9:35.68 | 3:43.37 | 43193 | 59954
4 | 13:19.30 | 7:22.22 | 59955 | 93126
5 | 20:41.52 | 4:50.18 | 93127 | 114894
6 | 25:31.70 | 3:19.54 | 114895 | 129873
7 | 28:51.49 | 7:24.29 | 129874 | 163202
8 | 36:16.03 | 3:31.55 | 163203 | 179082
9 | 39:47.58 | 4:35.13 | 179083 | 199720
10 | 44:22.71 | 5:56.29 | 199721 | 226449
11 | 50:19.25 | 4:40.53 | 226450 | 247502
12 | 55:00.03 | 6:30.34 | 247503 | 276786
13 | 61:30.37 | 4:54.06 | 276787 | 298842
14 | 66:24.43 | 5:37.73 | 298843 | 324190


Track 1

Filename C:\Users\Diana Abate\Hydra Vein - Rather Death Than False of Faith-After the Dream [FLAC]\01 Rabid (Rather Death Than False of Faith).wav

Peak level 100.0 %
Track quality 100.0 %
Copy CRC 8BC41224
Accurately ripped (confidence 2) [7C101B71]
Copy OK

Track 2

Filename C:\Users\Diana Abate\Hydra Vein - Rather Death Than False of Faith-After the Dream [FLAC]\02 Crucifier (Rather Death Than False of Faith).wav

Peak level 100.0 %
Track quality 100.0 %
Copy CRC E8EF3E6F
Accurately ripped (confidence 2) [71F89771]
Copy OK

Track 3

Filename C:\Users\Diana Abate\Hydra Vein - Rather Death Than False of Faith-After the Dream [FLAC]\03 The House (Rather Death Than False of Faith).wav

Peak level 100.0 %
Track quality 99.9 %
Copy CRC E3E1DEA5
Accurately ripped (confidence 2) [2884E7CA]
Copy OK

Track 4

Filename C:\Users\Diana Abate\Hydra Vein - Rather Death Than False of Faith-After the Dream [FLAC]\04 Right to Die (Rather Death Than False of Faith).wav

Peak level 100.0 %
Track quality 99.9 %
Copy CRC 1E1992A4
Accurately ripped (confidence 2) [FB0F5AE4]
Copy OK

Track 5

Filename C:\Users\Diana Abate\Hydra Vein - Rather Death Than False of Faith-After the Dream [FLAC]\05 Rather Death Than False of Faith (Rather Death Than False of Faith).wav

Peak level 100.0 %
Track quality 99.9 %
Copy CRC 8B68C75A
Accurately ripped (confidence 2) [7BA02CDD]
Copy OK

Track 6

Filename C:\Users\Diana Abate\Hydra Vein - Rather Death Than False of Faith-After the Dream [FLAC]\06 Misanthropic (Rather Death Than False of Faith).wav

Peak level 100.0 %
Track quality 100.0 %
Copy CRC 4CE51C3F
Accurately ripped (confidence 2) [33AA6E43]
Copy OK

Track 7

Filename C:\Users\Diana Abate\Hydra Vein - Rather Death Than False of Faith-After the Dream [FLAC]\07 Harlequin (Rather Death Than False of Faith).wav

Peak level 100.0 %
Track quality 100.0 %
Copy CRC 4957CB8A
Accurately ripped (confidence 2) [E0F62F70]
Copy OK

Track 8

Filename C:\Users\Diana Abate\Hydra Vein - Rather Death Than False of Faith-After the Dream [FLAC]\08 Guillotine (Rather Death Than False of Faith).wav

Peak level 100.0 %
Track quality 100.0 %
Copy CRC D1351F15
Accurately ripped (confidence 2) [5BE6D576]
Copy OK

Track 9

Filename C:\Users\Diana Abate\Hydra Vein - Rather Death Than False of Faith-After the Dream [FLAC]\09 7 U.S.C. (After the Dream).wav

Peak level 100.0 %
Track quality 100.0 %
Copy CRC 6652E04B
Accurately ripped (confidence 2) [108645CA]
Copy OK

Track 10

Filename C:\Users\Diana Abate\Hydra Vein - Rather Death Than False of Faith-After the Dream [FLAC]\10 Pro Patria (After the Dream).wav

Peak level 100.0 %
Track quality 100.0 %
Copy CRC E1C59530
Accurately ripped (confidence 2) [01D6E73A]
Copy OK

Track 11

Filename C:\Users\Diana Abate\Hydra Vein - Rather Death Than False of Faith-After the Dream [FLAC]\11 Born Through Ignorance (After the Dream).wav

Peak level 100.0 %
Track quality 100.0 %
Copy CRC C4D79682
Accurately ripped (confidence 2) [9D459876]
Copy OK

Track 12

Filename C:\Users\Diana Abate\Hydra Vein - Rather Death Than False of Faith-After the Dream [FLAC]\12 Passed Present,No Future (After the Dream).wav

Peak level 100.0 %
Track quality 100.0 %
Copy CRC 54834E2B
Accurately ripped (confidence 2) [5106EB95]
Copy OK

Track 13

Filename C:\Users\Diana Abate\Hydra Vein - Rather Death Than False of Faith-After the Dream [FLAC]\13 Turning Point (After the Dream).wav

Peak level 100.0 %
Track quality 100.0 %
Copy CRC CACFC76B
Accurately ripped (confidence 2) [3DBFE3B6]
Copy OK

Track 14

Filename C:\Users\Diana Abate\Hydra Vein - Rather Death Than False of Faith-After the Dream [FLAC]\14 After the Dream,Requiem (After the Dream).wav

Peak level 100.0 %
Track quality 100.0 %
Copy CRC 9C342C20
Accurately ripped (confidence 2) [BA607CEF]
Copy OK


All tracks accurately ripped

No errors occurred

End of status report


http://www.megaupload.com/?d=10HW9MK2


Top
 Profile  
 
 
PostPosted: 06 Mar 2010 
труъ антисионист
User avatar
Joined: 01 Aug 2007
Posts: 4541
Lоcаtion: Откуда и большинство из нас
Age: 37
Name: Дядя Вова
Ага, я с демонойда тоже скачал, хотел выложить ))) :true:

_________________
Image
Image


Top
 Profile  
 
 
PostPosted: 13 Mar 2010 
metallpaparazzy
User avatar
Joined: 20 Dec 2009
Posts: 674
Lоcаtion: Днепропетровск
Age: 43
Name: Геннадий
отличный трэшак, спасибки :true:
:thanx:


Top
 Profile E-mail  
 
 
PostPosted: 25 Sep 2013 
Power Metal Maniac
User avatar
Joined: 09 Aug 2008
Posts: 6371
Lоcаtion: Москва
Age: 40
Name: Егор
Hydra Vein - Rather Death than False of Faith (1988)

Image

Label: Metalother Records
Release Date: March 8th, 1988
Lineup:
Band members :
Damon Maddison - Bass
Nathan Maddison - Drums
Mike Keen (R.I.P. 2002) - Vocals
Danny Ranger - Guitars
Stephen Davis - Guitars

Miscellaneous staff :
Mark Waterman - Producer, Engineering
Charlie Mclean - Producer, Engineering

Additional Notes:
Catalog number: OTH 12.

Recorded and Mixed at: Blue Fox Studios, Hove, February 27-March 8, 1988.

All songs by Danny Maddison, except "Right to Die," by Maddison and Ranger.

Remixed, remastered, and reissued on January 21, 2008 by Blackend Records with After the Dream on one disc.

TrackList:
1. Rabid 04:32
2. Crucifier 04:48
3. The House 03:34
4. Right to Die 07:14
5. Rather Death than False of Faith 04:43
6. Misanthropic 03:13
7. Harlequin 07:15
8. Guillotine 03:27
Total playing time: 38:46

Первый альбом английской группы. Сырой олдовый, но отнюдь не примитивный и достаточно техничный Thrash Metal, во многом схожий с земляками Sabbat (включая близкий к Валкиеру по тембру суровый вокал), а также напоминающий временами Deathwish, Slayer и Destruction. Сыграно почти все в достаточно бодром темпе, но не на сверхскоростях. Звучание старенькое, неотшлифованное, немного лучше по качеству, чем гаражное.
Первая половина альбома (сторона А) явно лучше, песни интереснее, несмотря на мрачность и агрессию, соляки вполне себе мелодичные. Выделю тут открывашку Rabid и The House. Очень даже достойный материал.
Сторона B впечатляет меньше, более скучный материал, а 7-минутная медленная и зануднейшая Harlequin вообще ни к месту, остальные песни же не самые плохие, но и не слишком цепляют.
В общем, музыка хорошая, но, конечно же группа не высшего дивизиона. Любителям неотшлифованного честного старого Thrash должна понравиться. 4.7/6.0.
25.09.2013.
[youtube]wkIGIv0aIyU‎[/youtube]

_________________
Long Live Metal!


Top
 Profile  
 
 
PostPosted: 27 Sep 2013 
Power Metal Maniac
User avatar
Joined: 09 Aug 2008
Posts: 6371
Lоcаtion: Москва
Age: 40
Name: Егор
Hydra Vein - After the Dream (1989)

Image

Label: R.K.T. Records
Lineup:
Band members :
Damon Maddison - Bass
Nathan Maddison - Drums
Paul Bate - Guitars
Jon Balfour (R.I.P. 1992) - Guitars
Mike Keen (R.I.P. 2002) - Vocals

Miscellaneous staff :
Dan Seagrave - Cover art

Additional Notes:
Remixed, remastered, and reissued on January 21, 2008 by Blackend Records with Rather Death than False of Faith on one disc.

TrackList:
1. 7-U-S-C 04:30
2. Pro Patria 05:49
3. Born Through Ignorance 04:34
4. Passed Present / No Future 06:23
5. Turning Point 04:46
6. After the Dream 05:35
Total playing time: 31:37

Второй и последний альбом англичан. Музыка тут стала более зрелой, злобной, менее мелодичной, но более техничной, часто приближаясь к Technical Thrash, с частыми ритмическими сбивками. Тут гораздо меньше ассоциаций с Sabbat, а больше с Celtic Frost и американской школой Thrash, вокалист в ряде мест по манере напоминает Арайю. А в с самой забойной Born Through Ignorance явно слышится фрагмент из Fight Fire with Fire от Metallica. И запись лучше, не такая сырая и гаражная, да и обложка серьезная и трушная.
Сильный и ровный материал, снова не достигая шедеврального уровня, но зато абсолютно без слабых моментов (разве что Passed Present / No Future впечатлила меньше, пусть совсем и чуть-чуть).
Альбом короткий, но зато без лишних и неинтересных моментов, хотя концовка After the Dream с использованием синтезаторных оркестровок при на фоне Thrash звучит необычно и оригинально, пусть и слегка не к месту.
Обычно первый альбом ставят выше, но по моему мнению “After the Dream“ превосходит практически по всем статьям, кроме меньшего числа мелодичных соло. 4.9/6.0.
27.09.2013.
phpBB [youtube]

_________________
Long Live Metal!


Top
 Profile  
 
 
PostPosted: 09 May 2015 
\m/ 80 см сала \m/
User avatar
Joined: 12 Mar 2012
Posts: 2589
Age: 25
Name: Nick
Image

Hydra Vein - Rather Death Than False Of Faith / After The Dream (2007)
rutracker
http://www.musik-sammler.de/media/454053
Издатель (лейбл): Blackend
Номер по каталогу: BLACK115CD

01. Rabid
02. Crucifier
03. The House
04. Right To Die
05. Rather Death Than False Of Faith
06. Misanthropic
07. Harlequin
08. Guillotine
09. 7*U*S*C
10. Pro Patria
11. Born Through Ignorance
12. Passed Present / No Future
13. Turning Point
14. After The Dream / Requiem

dynamic range
Code:
foobar2000 1.3.5 / Dynamic Range Meter 1.1.1
log date: 2015-05-09 18:54:17

--------------------------------------------------------------------------------
Analyzed: Hydra Vein / Rather Death Than False Of Faith / After The Dream
--------------------------------------------------------------------------------

DR         Peak         RMS     Duration Track
--------------------------------------------------------------------------------
DR8        0.00 dB    -9.23 dB      4:40 01-Rabid
DR7        0.00 dB    -8.27 dB      4:56 02-Crucifier
DR9        0.00 dB    -9.41 dB      3:43 03-The House
DR8        0.00 dB    -8.88 dB      7:22 04-Right To Die
DR8        0.00 dB    -9.47 dB      4:50 05-Rather Death Than False Of Faith
DR7        0.00 dB    -8.37 dB      3:20 06-Misanthropic
DR8        0.00 dB    -9.05 dB      7:24 07-Harlequin
DR7        0.00 dB    -7.81 dB      3:32 08-Guillotine
DR8        0.00 dB    -8.30 dB      4:35 09-7*U*S*C
DR7        0.00 dB    -8.05 dB      5:56 10-Pro Patria
DR7        0.00 dB    -8.47 dB      4:41 11-Born Through Ignorance
DR7        0.00 dB    -8.10 dB      6:30 12-Passed Present / No Future
DR6        0.00 dB    -6.83 dB      4:54 13-Turning Point
DR8        0.00 dB    -8.56 dB      5:38 14-After The Dream / Requiem
--------------------------------------------------------------------------------

Number of tracks:  14
Official DR value: DR7

Samplerate:        44100 Hz
Channels:          2
Bits per sample:   16
Bitrate:           1066 kbps
Codec:             FLAC
================================================================================


log
Code:
Exact Audio Copy V1.0 beta 1 from 15. November 2010

EAC extraction logfile from 22. March 2011, 21:40

Hydra Vein / Rather Death Than False Of Faith / After The Dream

Used drive  : Optiarc DVD-ROM DDU1675S   Adapter: 4  ID: 0

Read mode               : Secure
Utilize accurate stream : Yes
Defeat audio cache      : Yes
Make use of C2 pointers : No

Read offset correction                      : 6
Overread into Lead-In and Lead-Out          : No
Fill up missing offset samples with silence : Yes
Delete leading and trailing silent blocks   : No
Null samples used in CRC calculations       : Yes
Used interface                              : Installed external ASPI interface

Used output format              : User Defined Encoder
Selected bitrate                : 1024 kBit/s
Quality                         : High
Add ID3 tag                     : No
Command line compressor         : D:\Rec Install\lossless\lossless\Exact Audio Copy 0.9b4 + APE WV & FLAC Encoders\FLAC.EXE
Additional command line options : -8 -V %s


TOC of the extracted CD

     Track |   Start  |  Length  | Start sector | End sector
    ---------------------------------------------------------
        1  |  0:00.00 |  4:39.39 |         0    |    20963   
        2  |  4:39.39 |  4:56.29 |     20964    |    43192   
        3  |  9:35.68 |  3:43.37 |     43193    |    59954   
        4  | 13:19.30 |  7:22.22 |     59955    |    93126   
        5  | 20:41.52 |  4:50.18 |     93127    |   114894   
        6  | 25:31.70 |  3:19.54 |    114895    |   129873   
        7  | 28:51.49 |  7:24.29 |    129874    |   163202   
        8  | 36:16.03 |  3:31.55 |    163203    |   179082   
        9  | 39:47.58 |  4:35.13 |    179083    |   199720   
       10  | 44:22.71 |  5:56.29 |    199721    |   226449   
       11  | 50:19.25 |  4:40.53 |    226450    |   247502   
       12  | 55:00.03 |  6:30.34 |    247503    |   276786   
       13  | 61:30.37 |  4:54.06 |    276787    |   298842   
       14  | 66:24.43 |  5:37.73 |    298843    |   324190   


Range status and errors

Selected range

     Filename G:\# MY\Hydra Vein - Rather Death Than False Of Faith (1988) & After The Dream (1989)\Hydra Vein - Rather Death Than False Of Faith - After The Dream.wav

     Peak level 100.0 %
     Extraction speed 0.5 X
     Range quality 100.0 %
     Test CRC 33F1EAF7
     Copy CRC 33F1EAF7
     Copy OK

No errors occurred


AccurateRip summary

Track  1  accurately ripped (confidence 2)  [7C101B71]
Track  2  accurately ripped (confidence 2)  [71F89771]
Track  3  accurately ripped (confidence 2)  [2884E7CA]
Track  4  accurately ripped (confidence 2)  [FB0F5AE4]
Track  5  accurately ripped (confidence 2)  [7BA02CDD]
Track  6  accurately ripped (confidence 2)  [33AA6E43]
Track  7  accurately ripped (confidence 2)  [E0F62F70]
Track  8  accurately ripped (confidence 2)  [5BE6D576]
Track  9  accurately ripped (confidence 2)  [108645CA]
Track 10  accurately ripped (confidence 2)  [01D6E73A]
Track 11  accurately ripped (confidence 2)  [9D459876]
Track 12  accurately ripped (confidence 2)  [5106EB95]
Track 13  accurately ripped (confidence 2)  [3DBFE3B6]
Track 14  accurately ripped (confidence 2)  [BA607CEF]

All tracks accurately ripped

End of status report

waveform
Image

spectrum
Image


Image
Hydra Vein - Rather Death Than False Of Faith / The Reptilliad (2015)
DARK SYMPHONIES / THE CRYPT (buy)
http://www.musik-sammler.de/media/1102465
Издатель (лейбл): DARK SYMPHONIES / THE CRYPT
Номер по каталогу: DARK30CD

01. Rabid
02. Crucifier
03. The House
04. Right to Die
05. Rather Death Than False of Faith
06. Misanthropic
07. Harlequin
08. Guillotine
09. The Reptilliad
10. Rabid
11. Misanthropic
12. The House

dynamic range
Code:
foobar2000 1.3.5 / Dynamic Range Meter 1.1.1
log date: 2015-05-09 18:49:20

--------------------------------------------------------------------------------
Analyzed: Hydra Vein / Rather Death Than False of Faith
--------------------------------------------------------------------------------

DR         Peak         RMS     Duration Track
--------------------------------------------------------------------------------
DR9        0.00 dB    -9.90 dB      4:30 01-Rabid
DR9        0.00 dB    -9.76 dB      4:46 02-Crucifier
DR9        0.00 dB   -10.20 dB      3:34 03-The House
DR9        0.00 dB    -9.60 dB      7:12 04-Right to Die
DR8        0.00 dB    -9.19 dB      4:42 05-Rather Death Than False of Faith
DR9        0.00 dB   -10.61 dB      3:13 06-Misanthropic
DR8        0.00 dB    -9.30 dB      7:14 07-Harlequin
DR9        0.00 dB    -9.36 dB      3:31 08-Guillotine
DR9       -1.01 dB   -11.77 dB      0:53 09-The Reptilliad
DR9        0.00 dB    -9.33 dB      3:39 10-Rabid
DR9        0.00 dB   -10.08 dB      3:30 11-Misanthropic
DR9        0.00 dB    -9.64 dB      3:28 12-The House
--------------------------------------------------------------------------------

Number of tracks:  12
Official DR value: DR9

Samplerate:        44100 Hz
Channels:          2
Bits per sample:   16
Bitrate:           924 kbps
Codec:             FLAC
================================================================================


log
Code:
Exact Audio Copy V1.0 beta 4 from 7. December 2014

EAC extraction logfile from 30. March 2015, 19:13

Hydra Vein / Rather Death Than False of Faith

Used drive  : PIONEER BD-RW   BDR-XD05   Adapter: 1  ID: 0

Read mode               : Secure
Utilize accurate stream : Yes
Defeat audio cache      : Yes
Make use of C2 pointers : No

Read offset correction                      : 667
Overread into Lead-In and Lead-Out          : No
Fill up missing offset samples with silence : Yes
Delete leading and trailing silent blocks   : No
Null samples used in CRC calculations       : Yes
Used interface                              : Native Win32 interface for Win NT & 2000
Gap handling                                : Appended to previous track

Used output format              : User Defined Encoder
Selected bitrate                : 1024 kBit/s
Quality                         : High
Add ID3 tag                     : No
Command line compressor         : C:\eacrips\flac-1.3.1-win\win64\flac.exe
Additional command line options : -8 -V -T "ARTIST=%artist%" -T "TITLE=%title%" -T "ALBUM=%albumtitle%" -T "DATE=%year%" -T "TRACKNUMBER=%tracknr%" -T "GENRE=%genre%" -T "PERFORMER=%albuminterpret%" -T "COMPOSER=%composer%" %haslyrics%--tag-from-file=LYRICS="%lyricsfile%"%haslyrics% -T "ALBUMARTIST=%albumartist%" -T "DISCNUMBER=%cdnumber%" -T "TOTALDISCS=%totalcds%" -T "TOTALTRACKS=%numtracks%" -T "COMMENT=%comment%" %source% -o %dest%


TOC of the extracted CD

     Track |   Start  |  Length  | Start sector | End sector
    ---------------------------------------------------------
        1  |  0:00.00 |  4:29.49 |         0    |    20223   
        2  |  4:29.49 |  4:46.04 |     20224    |    41677   
        3  |  9:15.53 |  3:34.09 |     41678    |    57736   
        4  | 12:49.62 |  7:11.38 |     57737    |    90099   
        5  | 20:01.25 |  4:42.06 |     90100    |   111255   
        6  | 24:43.31 |  3:12.71 |    111256    |   125726   
        7  | 27:56.27 |  7:13.41 |    125727    |   158242   
        8  | 35:09.68 |  3:30.60 |    158243    |   174052   
        9  | 38:40.53 |  0:52.60 |    174053    |   178012   
       10  | 39:33.38 |  3:39.17 |    178013    |   194454   
       11  | 43:12.55 |  3:29.44 |    194455    |   210173   
       12  | 46:42.24 |  3:27.69 |    210174    |   225767   


Track  1

     Filename C:\eacrips\Hydra Vein - Rather Death Than False of Faith (1988) [DARK 30]\01 - Rabid.wav

     Pre-gap length  0:00:02.00

     Peak level 100.0 %
     Extraction speed 2.9 X
     Track quality 100.0 %
     Test CRC FB426A7B
     Copy CRC FB426A7B
     Track not present in AccurateRip database
     Copy OK

Track  2

     Filename C:\eacrips\Hydra Vein - Rather Death Than False of Faith (1988) [DARK 30]\02 - Crucifier.wav

     Peak level 100.0 %
     Extraction speed 3.2 X
     Track quality 100.0 %
     Test CRC 51529F22
     Copy CRC 51529F22
     Track not present in AccurateRip database
     Copy OK

Track  3

     Filename C:\eacrips\Hydra Vein - Rather Death Than False of Faith (1988) [DARK 30]\03 - The House.wav

     Peak level 100.0 %
     Extraction speed 3.0 X
     Track quality 99.9 %
     Test CRC 063409BC
     Copy CRC 063409BC
     Track not present in AccurateRip database
     Copy OK

Track  4

     Filename C:\eacrips\Hydra Vein - Rather Death Than False of Faith (1988) [DARK 30]\04 - Right to Die.wav

     Peak level 100.0 %
     Extraction speed 4.0 X
     Track quality 100.0 %
     Test CRC 83B67E4A
     Copy CRC 83B67E4A
     Track not present in AccurateRip database
     Copy OK

Track  5

     Filename C:\eacrips\Hydra Vein - Rather Death Than False of Faith (1988) [DARK 30]\05 - Rather Death Than False of Faith.wav

     Pre-gap length  0:00:03.00

     Peak level 100.0 %
     Extraction speed 4.1 X
     Track quality 100.0 %
     Test CRC D11F2566
     Copy CRC D11F2566
     Track not present in AccurateRip database
     Copy OK

Track  6

     Filename C:\eacrips\Hydra Vein - Rather Death Than False of Faith (1988) [DARK 30]\06 - Misanthropic.wav

     Peak level 100.0 %
     Extraction speed 4.0 X
     Track quality 100.0 %
     Test CRC A3859551
     Copy CRC A3859551
     Track not present in AccurateRip database
     Copy OK

Track  7

     Filename C:\eacrips\Hydra Vein - Rather Death Than False of Faith (1988) [DARK 30]\07 - Harlequin.wav

     Peak level 100.0 %
     Extraction speed 4.4 X
     Track quality 99.9 %
     Test CRC 20DC066A
     Copy CRC 20DC066A
     Track not present in AccurateRip database
     Copy OK

Track  8

     Filename C:\eacrips\Hydra Vein - Rather Death Than False of Faith (1988) [DARK 30]\08 - Guillotine.wav

     Peak level 100.0 %
     Extraction speed 4.0 X
     Track quality 99.9 %
     Test CRC 52B45F73
     Copy CRC 52B45F73
     Track not present in AccurateRip database
     Copy OK

Track  9

     Filename C:\eacrips\Hydra Vein - Rather Death Than False of Faith (1988) [DARK 30]\09 - The Reptilliad.wav

     Pre-gap length  0:00:05.00

     Peak level 89.0 %
     Extraction speed 2.3 X
     Track quality 99.7 %
     Test CRC 7BC4BE00
     Copy CRC 7BC4BE00
     Track not present in AccurateRip database
     Copy OK

Track 10

     Filename C:\eacrips\Hydra Vein - Rather Death Than False of Faith (1988) [DARK 30]\10 - Rabid.wav

     Peak level 100.0 %
     Extraction speed 4.8 X
     Track quality 100.0 %
     Test CRC 01DB5BBF
     Copy CRC 01DB5BBF
     Track not present in AccurateRip database
     Copy OK

Track 11

     Filename C:\eacrips\Hydra Vein - Rather Death Than False of Faith (1988) [DARK 30]\11 - Misanthropic.wav

     Peak level 100.0 %
     Extraction speed 4.8 X
     Track quality 100.0 %
     Test CRC 6AB7A01F
     Copy CRC 6AB7A01F
     Track not present in AccurateRip database
     Copy OK

Track 12

     Filename C:\eacrips\Hydra Vein - Rather Death Than False of Faith (1988) [DARK 30]\12 - The House.wav

     Peak level 100.0 %
     Extraction speed 5.0 X
     Track quality 100.0 %
     Test CRC 7487F6A6
     Copy CRC 7487F6A6
     Track not present in AccurateRip database
     Copy OK


None of the tracks are present in the AccurateRip database

No errors occurred

End of status report

---- CUETools DB Plugin V2.1.4

[CTDB TOCID: uGuk8kO42fgCnFvQUT.7tHVUP68-] disk not present in database
Submit result: uGuk8kO42fgCnFvQUT.7tHVUP68- has been uploaded


==== Log checksum 3EA35D322F02EA90CDC627747A79278B54F392BF8037978B68FCF80D3ABB33FE ====

waveform
Image

spectrum
Image


Hydra Vein - Rather Death Than False Of Faith / After The Dream (2007) (flac + cue + log + scans)
Hydra Vein - Rather Death Than False Of Faith / The Reptilliad (2015) (flac tracks + cue + log)

_________________
1990 AUROPHON BRAINSTORM (Germany) - lossless
1994 MAUSOLEUM CLASSIX (Belgium-Germany) - lossless
1998 VA - GRIM HARVEST - Complete Metal Massacre Volumes I-XII


Top
 Profile  
 
 
PostPosted: 11 Nov 2016 
\m/ 80 см сала \m/
User avatar
Joined: 12 Mar 2012
Posts: 2589
Age: 25
Name: Nick
Всем привет, приехал домой на побывку :true:
Решил тут обновить содержимое плеера (служба службой, а митол форева), просьба поделиться для создания полной полноты картины: http://thrash.su/net/relise/2466-hydra-vein
Заранее благодарю!

_________________
1990 AUROPHON BRAINSTORM (Germany) - lossless
1994 MAUSOLEUM CLASSIX (Belgium-Germany) - lossless
1998 VA - GRIM HARVEST - Complete Metal Massacre Volumes I-XII


Top
 Profile  
 
 
PostPosted: 11 Nov 2016 
Прокъмитолист
User avatar
Joined: 12 Aug 2007
Posts: 6504
Lоcаtion: Санктъ-Петербуркъ
Age: 51
Name: Олекъ
здор0во, служивый :true:

_________________
прокъметол - это музыко, от которово есть прок (ы)


Top
 Profile  
 
 
PostPosted: 11 Nov 2016 
Хиппей (support team)
User avatar
Joined: 30 Jul 2007
Posts: 108243
Lоcаtion: Киев (Kyiv, UA)
Age: 45
Name: Andrey
Everhard wrote:
Всем привет, приехал домой на побывку :true:

:lob: :lob: :lob: Оставайся. Дома теплее :kro:

_________________


Top
 Profile E-mail  
 
 
PostPosted: 11 Nov 2016 
Хиппей (support team)
User avatar
Joined: 30 Jul 2007
Posts: 108243
Lоcаtion: Киев (Kyiv, UA)
Age: 45
Name: Andrey
Everhard wrote:
Hydra Vein - Rather Death Than False Of Faith / After The Dream (2007)

:thanx:

mirror: iFolder l Narod l M-Cloud

_________________


Top
 Profile E-mail  
 
 
PostPosted: 11 Nov 2016 
Хиппей (support team)
User avatar
Joined: 30 Jul 2007
Posts: 108243
Lоcаtion: Киев (Kyiv, UA)
Age: 45
Name: Andrey
Everhard wrote:
Hydra Vein - Rather Death Than False Of Faith / The Reptilliad (2015)

:thanx:

mirror: iFolder l Narod l M-Cloud

_________________


Top
 Profile E-mail  
 
 
PostPosted: 11 Nov 2016 
Хиппей (support team)
User avatar
Joined: 30 Jul 2007
Posts: 108243
Lоcаtion: Киев (Kyiv, UA)
Age: 45
Name: Andrey
Everhard wrote:
Hydra Vein - Rather Death Than False Of Faith / After The Dream (2007)
rutracker
http://www.musik-sammler.de/media/454053
Издатель (лейбл): Blackend
Номер по каталогу: BLACK115CD

Ха. Сразу же начал слушать рип и .. был завален сибилянтами :tro:
Но, даже если и не сибилянты, то искажения на вокальных партиях с шипящими звуками и собственно самим же шипением и присутствует и более чем.
И, по ходу, это рип с винила.
Отслушал пока 1-ю композицию.

_________________


Top
 Profile E-mail  
 
 
PostPosted: 11 Nov 2016 
Хиппей (support team)
User avatar
Joined: 30 Jul 2007
Posts: 108243
Lоcаtion: Киев (Kyiv, UA)
Age: 45
Name: Andrey
Quote:
Издатель (лейбл): Blackend

Этл ж не не Металлики лэйбл? =)

_________________


Top
 Profile E-mail  
 
Display posts from previous:  Sort by  
Post new topic Reply to topic  [ 49 posts ]  Go to page 1, 2, 3  Next

All times are UTC + 3 hours


Who is online

Users browsing this forum: No registered users and 3 guests


You cannot post new topics in this forum
You cannot reply to topics in this forum
You cannot edit your posts in this forum
You cannot delete your posts in this forum
You cannot post attachments in this forum

Search for:
Яндекс.Метрика
Powered by phpBB © 2000, 2002, 2005, 2007 phpBB Group