\m/ 80's metal \m/

Информационно-аналитический форум "80 см пыли" (In Search We Trust) "У нас никто никуда не спешит"
Me For You - http://me-4u.com
It is currently 17 Nov 2018

All times are UTC + 3 hours

Spoiler
Chat - temporary registration for foreign users (please leave your application here)







Post new topic Reply to topic  [ 14 posts ] 
Author Message
 
PostPosted: 14 Dec 2009 
Генеральный thrasher
User avatar
Joined: 03 Oct 2008
Posts: 3504
Lоcаtion: Ханты-Мансийский АО
Age: 43
Name: Сергей
Gladiator - Designation (1992) [Death/Thrash Metal]

Image

Исполнитель: Gladiator
Название: Designation
Стиль: Death/Thrash Metal
Страна: Slovakia
Формат: mp3
Качество: VBR
Продолжительность: 44:21
Размер: 61Mb

Трек-лист:
1. Over the Oversight (Intro) 00:37
2. Profitable Losses 04:03
3. Bastard Death 05:00
4. Mortal Glare 05:19
5. Designation 04:15
6. Sorrow 04:21
7. Morbid Murdering 06:19
8. Bloody Property 04:41
9. Stinking Masses 05:09
10. Useless Child 04:37

Ifolder


Gladiator - Made of Pain (1993) [Death/Thrash Metal]

Image

Исполнитель: Gladiator
Название: Made of Pain
Стиль: Death/Thrash Metal
Страна: Slovakia
Формат: mp3
Качество: 192kbps
Продолжительность: 37:06
Размер: 51Mb

Трек-лист:
1. Made of Pain 03:06
2. Blood 02:42
3. Sound of Deep Silence 04:47
4. Warsouls 04:48
5. Creator of Hell 02:31
6. No Fate 03:48
7. Debtor of Rest 03:20
8. My World 04:48
9. Your World 01:11
10. For All Gods 06:05

Ifolder


Мощный атакующий Death/Thrash в духе Sepultura - "Beneath The Remains" и "Arise".Мне очень понравилась эта капелла!


Top
 Profile  
 
 
PostPosted: 14 Dec 2009 
"ну типа, хэви-метал это круто и все такое..." ©
User avatar
Joined: 31 Aug 2008
Posts: 902
Lоcаtion: Запорожье
Name: Саня
Неплохая банда, но дальше пошло совсем не то.
Вся дискография , по ходу даже с сольником лидера и еще каким-то изданием 2007 года,которое на МА не значится.
Gladiator - Predohra smrti
Gladiator - Designation
Gladiator - Made Of Pain
Gladiator - Third Eye
Gladiator - dogstime
Gladiator - LEGAL DRUG
Gladiator - … viem kde Boh spн
Gladiator - Babylon Hotel
Gladiator - SINGLE 1994-2002
miko hladkэ - Dynamax
Gladiator - Cesta do neba
Gladiator - mesto
Gladiator - … ako predtэm

Все ссылки не проверял...


Top
 Profile  
 
 
PostPosted: 14 Dec 2009 
Хиппей (support team)
User avatar
Joined: 30 Jul 2007
Posts: 108071
Lоcаtion: Киев (Kyiv, UA)
Age: 45
Name: Andrey
Сань, откуда ссылки то взял?

_________________


Top
 Profile E-mail  
 
 
PostPosted: 14 Dec 2009 
"ну типа, хэви-метал это круто и все такое..." ©
User avatar
Joined: 31 Aug 2008
Posts: 902
Lоcаtion: Запорожье
Name: Саня
Scatterbrain
Как-то поднимался вопрос об этой банде, на другом форуме. Пришлось искать, нашел на одном словацком (а может и не словацком..не разбираюсь я в них :pardon: ) форуме.
Сейчас же просто скопировал мой старый пост.


Top
 Profile  
 
 
PostPosted: 14 Dec 2009 
Хиппей (support team)
User avatar
Joined: 30 Jul 2007
Posts: 108071
Lоcаtion: Киев (Kyiv, UA)
Age: 45
Name: Andrey
Ок, попробуй в следующий раз все же найти первоисточник.

_________________


Top
 Profile E-mail  
 
 
PostPosted: 16 Dec 2009 
Генеральный thrasher
User avatar
Joined: 03 Oct 2008
Posts: 3504
Lоcаtion: Ханты-Мансийский АО
Age: 43
Name: Сергей
Yyz wrote:
Неплохая банда, но дальше пошло совсем не то.


Это точно...


Top
 Profile  
 
 
PostPosted: 15 Sep 2013 
DarkSage
User avatar
Joined: 24 Sep 2009
Posts: 925
Lоcаtion: Moscow
Name: Оксана
Просьбо к Сергею перезалить, у меня на форуме ссылки померли (лосиные) :esel:
___________________
Огроменное спасибо за оперативность !

_________________
Image,Image


Top
 Profile E-mail  
 
 
PostPosted: 13 Mar 2015 
Хиппей (support team)
User avatar
Joined: 30 Jul 2007
Posts: 108071
Lоcаtion: Киев (Kyiv, UA)
Age: 45
Name: Andrey
Yyz wrote:
Gladiator - LEGAL DRUG

:shok: Какая же хрень альтернатив-роковая :esel: :esel: :esel:

Gladiator - 1997 - Legal Drug [flacs]

Image Image Image Image

    1. Free House - 03:21
    2. ...And What About a Friend? - 03:28
    3. Our Way - 04:23
    4. Society - 03:17
    5. You Don't Mind - 04:28
    6. Break the Wall - 03:46
    7. Free Me - 04:48
    8. You (Secret Flower's in My Soul) - 03:22
    9. Enemy in Me - 03:30
    10. Body Candle Lights - 04:36
    11. Price of You - 02:17
    12. Shine for People - 04:31
    13. Touch Me - 02:48
    14. Slovenská - 04:21

    TPT: 52:56

mirror: iFolder l Narod l M-Cloud

log
Exact Audio Copy V0.99 prebeta 5 from 4. May 2009

EAC extraction logfile from 16. October 2010, 22:00

Gladiator / Legal Drug

Used drive : TSSTcorpCDDVDW SH-S222A Adapter: 0 ID: 1

Read mode : Secure
Utilize accurate stream : Yes
Defeat audio cache : No
Make use of C2 pointers : No

Read offset correction : 6
Overread into Lead-In and Lead-Out : No
Fill up missing offset samples with silence : Yes
Delete leading and trailing silent blocks : No
Null samples used in CRC calculations : No
Used interface : Native Win32 interface for Win NT & 2000
Gap handling : Not detected, thus appended to previous track

Used output format : Internal WAV Routines
Sample format : 44.100 Hz; 16 Bit; Stereo


TOC of the extracted CD

Track | Start | Length | Start sector | End sector
---------------------------------------------------------
1 | 0:00.00 | 3:20.60 | 0 | 15059
2 | 3:20.60 | 3:28.22 | 15060 | 30681
3 | 6:49.07 | 4:23.53 | 30682 | 50459
4 | 11:12.60 | 3:17.12 | 50460 | 65246
5 | 14:29.72 | 4:28.25 | 65247 | 85371
6 | 18:58.22 | 3:44.00 | 85372 | 102171
7 | 22:42.22 | 4:51.20 | 102172 | 124016
8 | 27:33.42 | 3:22.58 | 124017 | 139224
9 | 30:56.25 | 3:30.22 | 139225 | 154996
10 | 34:26.47 | 4:36.50 | 154997 | 175746
11 | 39:03.22 | 2:17.10 | 175747 | 186031
12 | 41:20.32 | 4:30.73 | 186032 | 206354
13 | 45:51.30 | 2:48.32 | 206355 | 218986
14 | 48:39.62 | 4:20.38 | 218987 | 238524


Track 1

Filename C:\flac\Free House.wav

Peak level 99.6 %
Track quality 100.0 %
Copy CRC 329E8554
Track not present in AccurateRip database
Copy OK

Track 2

Filename C:\flac\...And What About A Friend .wav

Peak level 99.6 %
Track quality 100.0 %
Copy CRC 7D388BBC
Track not present in AccurateRip database
Copy OK

Track 3

Filename C:\flac\Our Way.wav

Peak level 99.6 %
Track quality 100.0 %
Copy CRC 72DBC81F
Track not present in AccurateRip database
Copy OK

Track 4

Filename C:\flac\Society.wav

Peak level 99.6 %
Track quality 100.0 %
Copy CRC 688A2541
Track not present in AccurateRip database
Copy OK

Track 5

Filename C:\flac\You Don't Mind.wav

Peak level 99.6 %
Track quality 100.0 %
Copy CRC AC477646
Track not present in AccurateRip database
Copy OK

Track 6

Filename C:\flac\Braeak The Wall.wav

Peak level 99.6 %
Track quality 100.0 %
Copy CRC 811F4C08
Track not present in AccurateRip database
Copy OK

Track 7

Filename C:\flac\Free Me.wav

Peak level 99.6 %
Track quality 100.0 %
Copy CRC C0D7316B
Track not present in AccurateRip database
Copy OK

Track 8

Filename C:\flac\You (Secret Flowers In My Soul).wav

Peak level 100.0 %
Track quality 100.0 %
Copy CRC D076AB69
Track not present in AccurateRip database
Copy OK

Track 9

Filename C:\flac\Enemy In Me.wav

Peak level 99.6 %
Track quality 100.0 %
Copy CRC 770E842E
Track not present in AccurateRip database
Copy OK

Track 10

Filename C:\flac\Body Candle Lights.wav

Peak level 99.6 %
Track quality 100.0 %
Copy CRC 889CB527
Track not present in AccurateRip database
Copy OK

Track 11

Filename C:\flac\Price Of You.wav

Peak level 99.6 %
Track quality 99.9 %
Copy CRC BB781734
Track not present in AccurateRip database
Copy OK

Track 12

Filename C:\flac\Shine For People.wav

Peak level 99.6 %
Track quality 99.9 %
Copy CRC C064F2BB
Track not present in AccurateRip database
Copy OK

Track 13

Filename C:\flac\Touch Me.wav

Peak level 99.6 %
Track quality 100.0 %
Copy CRC 04EEF913
Track not present in AccurateRip database
Copy OK

Track 14

Filename C:\flac\Slovenska.wav

Peak level 99.6 %
Track quality 100.0 %
Copy CRC 9118444D
Track not present in AccurateRip database
Copy OK


None of the tracks are present in the AccurateRip database

No errors occurred

End of status report



По ходу, у нас есть топик и с лосями. Щас темы слеплю, как найду...

Image Image ImageImage Image

Image Image Image Image

_________________


Top
 Profile E-mail  
 
 
PostPosted: 13 Mar 2015 
Хиппей (support team)
User avatar
Joined: 30 Jul 2007
Posts: 108071
Lоcаtion: Киев (Kyiv, UA)
Age: 45
Name: Andrey
Упс. Тему с лосями не нашёл :fingal:

_________________


Top
 Profile E-mail  
 
 
PostPosted: 13 Mar 2015 
Генеральный thrasher
User avatar
Joined: 03 Oct 2008
Posts: 3504
Lоcаtion: Ханты-Мансийский АО
Age: 43
Name: Сергей
Упс. Тему с лосями не нашёл :fingal:


Если надо,первые два сделаем... :true:


Top
 Profile  
 
 
PostPosted: 13 Mar 2015 
Хиппей (support team)
User avatar
Joined: 30 Jul 2007
Posts: 108071
Lоcаtion: Киев (Kyiv, UA)
Age: 45
Name: Andrey
Упс. Тему с лосями не нашёл :fingal:


Если надо,первые два сделаем... :true:

Вроде есть :thanx: На днях точно скажу...

_________________


Top
 Profile E-mail  
 
 
PostPosted: 14 Mar 2015 
Хиппей (support team)
User avatar
Joined: 30 Jul 2007
Posts: 108071
Lоcаtion: Киев (Kyiv, UA)
Age: 45
Name: Andrey
Gladiator - 2008 - Gladiator Live [flac]

Image Image

mirror: iFolder l Narod l M-Cloud

Image Image Image

log
EAC extraction logfile from 18. April 2011, 18:03

Gladiator / Gladiator-Live

Used drive : TSSTcorp CDDVDW SE-S224Q Adapter: 1 ID: 0

Read mode : Secure
Utilize accurate stream : Yes
Defeat audio cache : Yes
Make use of C2 pointers : No

Read offset correction : 6
Overread into Lead-In and Lead-Out : No
Fill up missing offset samples with silence : Yes
Delete leading and trailing silent blocks : No
Null samples used in CRC calculations : Yes
Used interface : Native Win32 interface for Win NT & 2000

Used output format : Internal WAV Routines
Sample format : 44.100 Hz; 16 Bit; Stereo


TOC of the extracted CD

Track | Start | Length | Start sector | End sector
---------------------------------------------------------
1 | 0:00.00 | 4:10.18 | 0 | 18767
2 | 4:10.18 | 3:41.14 | 18768 | 35356
3 | 7:51.32 | 5:11.17 | 35357 | 58698
4 | 13:02.49 | 4:33.01 | 58699 | 79174
5 | 17:35.50 | 3:46.72 | 79175 | 96196
6 | 21:22.47 | 3:17.19 | 96197 | 110990
7 | 24:39.66 | 3:04.45 | 110991 | 124835
8 | 27:44.36 | 3:34.22 | 124836 | 140907
9 | 31:18.58 | 3:48.71 | 140908 | 158078
10 | 35:07.54 | 4:26.01 | 158079 | 178029
11 | 39:33.55 | 4:23.16 | 178030 | 197770
12 | 43:56.71 | 4:53.49 | 197771 | 219794
13 | 48:50.45 | 5:14.00 | 219795 | 243344
14 | 54:04.45 | 3:16.71 | 243345 | 258115


Range status and errors

Selected range

Filename C:\Users\oldrock\Music\Gladiator\2008 - Gladiator-Live\Gladiator - Gladiator-Live.wav

Peak level 100.0 %
Range quality 100.0 %
Test CRC 3407D654
Copy CRC 3407D654
Copy OK

No errors occurred


AccurateRip summary

Track 1 not present in database
Track 2 not present in database
Track 3 not present in database
Track 4 not present in database
Track 5 not present in database
Track 6 not present in database
Track 7 not present in database
Track 8 not present in database
Track 9 not present in database
Track 10 not present in database
Track 11 not present in database
Track 12 not present in database
Track 13 not present in database
Track 14 not present in database

None of the tracks are present in the AccurateRip database

End of status report

сue
REM ACCURATERIPID 001d4c43-0137f18f-c90d710e
REM DISCID C90D710E
REM COMMENT "ExactAudioCopy v0.99pb4"
REM TOTALDISCS 1
REM DISCNUMBER 1
REM DATE 2008
REM GENRE "Hard Rock"
PERFORMER "Gladiator"
TITLE "Gladiator-Live"
FILE "Gladiator - Gladiator-Live.wav" WAVE
TRACK 01 AUDIO
TITLE "A.M.E.N."
PERFORMER "Gladiator"
ISRC CZA210801183
FLAGS DCP
INDEX 01 00:00:00
TRACK 02 AUDIO
TITLE "Raz Tam V Ulickach"
PERFORMER "Gladiator"
ISRC CZA210801184
FLAGS DCP
INDEX 01 04:10:18
TRACK 03 AUDIO
TITLE "Kupim Si Pekny Den"
PERFORMER "Gladiator"
ISRC CZA210801185
FLAGS DCP
INDEX 01 07:51:32
TRACK 04 AUDIO
TITLE "Zivot Pred Sebou"
PERFORMER "Gladiator"
ISRC CZA210801186
FLAGS DCP
INDEX 01 13:02:49
TRACK 05 AUDIO
TITLE "Vzdy Sa niekto Diva Na Nebesa"
PERFORMER "Gladiator"
ISRC CZA210801187
FLAGS DCP
INDEX 01 17:35:50
TRACK 06 AUDIO
TITLE "Anjel"
PERFORMER "Gladiator"
ISRC CZA210801188
FLAGS DCP
INDEX 01 21:22:47
TRACK 07 AUDIO
TITLE "Ako Predtym"
PERFORMER "Gladiator"
ISRC CZA210801189
FLAGS DCP
INDEX 01 24:39:66
TRACK 08 AUDIO
TITLE "Ked Sa Laska Podari"
PERFORMER "Gladiator"
ISRC CZA210801190
FLAGS DCP
INDEX 01 27:44:36
TRACK 09 AUDIO
TITLE "Nemozem Dychat"
PERFORMER "Gladiator"
ISRC CZA210801191
FLAGS DCP
INDEX 01 31:18:58
TRACK 10 AUDIO
TITLE "Bonboniera"
PERFORMER "Gladiator"
ISRC CZA210801192
FLAGS DCP
INDEX 01 35:07:54
TRACK 11 AUDIO
TITLE "Obycajny Chalan"
PERFORMER "Gladiator"
ISRC CZA210801193
FLAGS DCP
INDEX 01 39:33:55
TRACK 12 AUDIO
TITLE "Laska"
PERFORMER "Gladiator"
ISRC CZA210801194
FLAGS DCP
INDEX 01 43:56:71
TRACK 13 AUDIO
TITLE "Piesen O Medulienke"
PERFORMER "Gladiator"
ISRC CZA210801195
FLAGS DCP
INDEX 01 48:50:45
TRACK 14 AUDIO
TITLE "Ak Sa Bez Teba Zblaznim (bonus)"
PERFORMER "Gladiator"
ISRC CZA210801196
FLAGS DCP
INDEX 01 54:04:45


Обычная такая качественная запись обычного такого рок-концерта :dance:

_________________


Top
 Profile E-mail  
 
 
PostPosted: 16 Mar 2015 
Хиппей (support team)
User avatar
Joined: 30 Jul 2007
Posts: 108071
Lоcаtion: Киев (Kyiv, UA)
Age: 45
Name: Andrey
Gladiator - 1993 - Made Of Pain [flac]

Image Image Image Image

mirror: iFolder l Narod l M-Cloud

Норм-норм :lob: :lob: :lob: Достаточно качественная копия (не без своих фишек) Sepultura + Kreator :meloman:

6+/10

log
EAC extraction logfile from 4. April 2009, 11:52 for CD
GLADIATOR / Made Of Pain

Used drive : HL-DT-STDVDRAM GSA-4163B Adapter: 1 ID: 0
Read mode : Secure with NO C2, accurate stream, disable cache
Read offset correction : 667
Overread into Lead-In and Lead-Out : No

Used output format : Internal WAV Routines
44.100 Hz; 16 Bit; Stereo

Other options :
Fill up missing offset samples with silence : Yes
Delete leading and trailing silent blocks : No
Native Win32 interface for Win NT & 2000


Range status and errors
Selected range
Filename D:\Roxor's Audio Rip\GLADIATOR - Made Of Pain.wav

Peak level 97.7 %
Range quality 100.0 %
CRC 60CE71CA
Copy OK

No errors occured

End of status report

cue
REM GENRE "Thrash Metal"
REM DATE 1993
REM DISCID 8C08B50A
REM COMMENT "ExactAudioCopy v0.95b4"
PERFORMER "GLADIATOR"
TITLE "Made Of Pain"
FILE "GLADIATOR - Made Of Pain.ape" WAVE
TRACK 01 AUDIO
TITLE "Made Of Pain"
PERFORMER "GLADIATOR"
INDEX 00 00:00:00
INDEX 01 00:00:32
TRACK 02 AUDIO
TITLE "Blood"
PERFORMER "GLADIATOR"
INDEX 01 03:06:35
TRACK 03 AUDIO
TITLE "Sound Of Deep Silence"
PERFORMER "GLADIATOR"
INDEX 01 05:49:17
TRACK 04 AUDIO
TITLE "Warsouls"
PERFORMER "GLADIATOR"
INDEX 00 10:34:67
INDEX 01 10:36:57
TRACK 05 AUDIO
TITLE "Creator Of Hell"
PERFORMER "GLADIATOR"
INDEX 01 15:24:50
TRACK 06 AUDIO
TITLE "No Fate"
PERFORMER "GLADIATOR"
INDEX 00 17:53:65
INDEX 01 17:55:57
TRACK 07 AUDIO
TITLE "Debtor Of Rest"
PERFORMER "GLADIATOR"
INDEX 00 21:41:15
INDEX 01 21:43:57
TRACK 08 AUDIO
TITLE "My World"
PERFORMER "GLADIATOR"
INDEX 01 25:04:40
TRACK 09 AUDIO
TITLE "Your World"
PERFORMER "GLADIATOR"
INDEX 00 29:52:35
INDEX 01 29:52:57
TRACK 10 AUDIO
TITLE "For All Gods"
PERFORMER "GLADIATOR"
INDEX 00 31:02:62
INDEX 01 31:04:25

_________________


Top
 Profile E-mail  
 
 
PostPosted: 16 Mar 2015 
Хиппей (support team)
User avatar
Joined: 30 Jul 2007
Posts: 108071
Lоcаtion: Киев (Kyiv, UA)
Age: 45
Name: Andrey
Gladiator - 1992 - Designation [ape]

Image Image Image

mirror: iFolder l Narod l M-Cloud

Скоростной и не очень злобный, но и не мелодичный и простецкий Thrash/Death, а в духе той же Sepultura + Pestilence, например :meloman:

6+/10

Странное дело, но дебютник намного лучше записан. Я о качестве звука, саунда :pardon: Здесь всё звучит сочно и к месту. А второй альбом (1993 года) уже какой-то глухой и подвальный, что ли...

log
EAC extraction logfile from 21. February 2009, 12:14 for CD
GLADIATOR / Designation

Used drive : HL-DT-STDVDRAM GSA-4163B Adapter: 1 ID: 0
Read mode : Secure with NO C2, accurate stream, disable cache
Read offset correction : 667
Overread into Lead-In and Lead-Out : No

Used output format : Internal WAV Routines
44.100 Hz; 16 Bit; Stereo

Other options :
Fill up missing offset samples with silence : Yes
Delete leading and trailing silent blocks : No
Native Win32 interface for Win NT & 2000


Range status and errors
Selected range
Filename D:\Roxor's Audio Rip\GLADIATOR - Designation.wav

Peak level 100.0 %
Range quality 100.0 %
CRC 90D19F56
Copy OK

No errors occured

End of status report

cue
REM GENRE "Thrash Metal"
REM DATE 1992
REM DISCID 880A690A
REM COMMENT "ExactAudioCopy v0.95b4"
PERFORMER "Gladiator"
TITLE "Designation"
FILE "Gladiator - Designation.ape" WAVE
TRACK 01 AUDIO
TITLE "Over The Oversight (Intro)"
PERFORMER "Gladiator"
INDEX 00 00:00:00
INDEX 01 00:00:33
TRACK 02 AUDIO
TITLE "Profitable Losses"
PERFORMER "Gladiator"
INDEX 01 00:37:45
TRACK 03 AUDIO
TITLE "Bastard Death"
PERFORMER "Gladiator"
INDEX 01 04:41:40
TRACK 04 AUDIO
TITLE "Mortal Glare"
PERFORMER "Gladiator"
INDEX 00 09:39:33
INDEX 01 09:42:18
TRACK 05 AUDIO
TITLE "Designation"
PERFORMER "Gladiator"
INDEX 00 14:59:55
INDEX 01 15:01:28
TRACK 06 AUDIO
TITLE "Sorrow"
PERFORMER "Gladiator"
INDEX 00 19:14:60
INDEX 01 19:16:28
TRACK 07 AUDIO
TITLE "Morbid Murdering"
PERFORMER "Gladiator"
INDEX 01 23:38:08
TRACK 08 AUDIO
TITLE "Bloody Property"
PERFORMER "Gladiator"
INDEX 00 29:53:58
INDEX 01 29:57:50
TRACK 09 AUDIO
TITLE "Stinking Masses"
PERFORMER "Gladiator"
INDEX 00 34:37:10
INDEX 01 34:38:48
TRACK 10 AUDIO
TITLE "Useless Child"
PERFORMER "Gladiator"
INDEX 00 39:45:30
INDEX 01 39:47:68

_________________


Top
 Profile E-mail  
 
Display posts from previous:  Sort by  
Post new topic Reply to topic  [ 14 posts ] 

All times are UTC + 3 hours


Who is online

Users browsing this forum: No registered users and 1 guest


You cannot post new topics in this forum
You cannot reply to topics in this forum
You cannot edit your posts in this forum
You cannot delete your posts in this forum
You cannot post attachments in this forum

Search for:
Яндекс.Метрика
Powered by phpBB © 2000, 2002, 2005, 2007 phpBB Group