\m/ 80's metal \m/

Информационно-аналитический форум "80 см пыли" (In Search We Trust) "У нас никто никуда не спешит"
Me For You - http://me-4u.com
It is currently 13 Dec 2018

All times are UTC + 3 hours

Spoiler
Chat - temporary registration for foreign users (please leave your application here)







Post new topic Reply to topic  [ 138 posts ]  Go to page Previous  1 ... 3, 4, 5, 6, 7
Author Message
 
PostPosted: 13 May 2010 
хард н хэвщик (support team)
User avatar
Joined: 02 Jun 2008
Posts: 16880
Lоcаtion: Н.Новгород
Age: 31
Name: Артем
ай, сколько опечаток, Егор :oops:


Top
 Profile  
 
 
PostPosted: 13 May 2010 
Power Metal Maniac
User avatar
Joined: 09 Aug 2008
Posts: 6434
Lоcаtion: Москва
Age: 40
Name: Егор
McKagan
На самом деле немного, потому что писал частично не в Ворде.
Обзоры могу удается писать только на работе, дома вообще нереально, ибо за раз 10 придется отвлекаться.

_________________
Long Live Metal!


Top
 Profile  
 
 
PostPosted: 24 May 2010 
Power Metal Maniac
User avatar
Joined: 09 Aug 2008
Posts: 6434
Lоcаtion: Москва
Age: 40
Name: Егор
Wild Pussy – Mechanarchy [EP] (1989)

Image

1. Ready To Strike 04:49
2. Hatred 05:05
3. The Vigil 06:43
4. Evil Speaks 06:13
Total playing time: 22:50

Англичане с единственным официальным релизом. Speed/Heavy Metal. Смесь ранних Running Wild, Helloween и бельгийцев Killer. Вокал не слишком по мне хорош, хриплый, грубый, но напоминает Рок-н-Рольфа и Шорти ВанКампа (Killer). Первая вещь – привет Раннингам в лучшем виде, все фишки RW сохранены, особенно припев, а вот шикарный соляк чуть ближе к Хэлловину. Hatred – тяжелая и более медленная вещь, но отмечу только неплохой соляк. The Vigil – Эпик, снова слышны Раннинги (недаром в названии группы есть Wild ;-) ) . Заключительная вещь – агрессивный и грубый Speed, но снова поражают соляки – пусть это чистейший закос под Киперов (реально – отдельно поставь – не отличишь!) – но они здесь офигительно сделаны! Еще раз убеждаюсь, что качественно сделанный закос под лучшее, будет также хорош, как и оригинал.
В целом, материал отменный, для поклонников старого доброго Спида, RW и Хэлловина должен пойти на ура. Правда, для 1989 года такой материал уже несколько старомоден, на 2-3 года музыканты опоздали, видимо, поэтому он и прошел совершенно незамеченным, а зря. 5.0/6.0.
24.05.2010.

_________________
Long Live Metal!


Top
 Profile  
 
 
PostPosted: 21 Apr 2013 
адын фелософъ прокметолу
User avatar
Joined: 22 Oct 2009
Posts: 2717
Lоcаtion: Сочи
Age: 41
Name: Сергей
начал скачивать с торрента (хорошо что тему не закрыли на трекере) мож и получится а то ссылки уже тут того

_________________
А теперь ... клоунов и стриптизёрш!


Top
 Profile E-mail  
 
 
PostPosted: 21 Apr 2013 
Хиппей (support team)
User avatar
Joined: 30 Jul 2007
Posts: 108895
Lоcаtion: Киев (Kyiv, UA)
Age: 45
Name: Andrey
Но-но, ссылки на этот миник более чем живые :pardon:

_________________


Top
 Profile E-mail  
 
 
PostPosted: 21 Apr 2013 
адын фелософъ прокметолу
User avatar
Joined: 22 Oct 2009
Posts: 2717
Lоcаtion: Сочи
Age: 41
Name: Сергей
всё норм закачка идёт хоть и медленно

_________________
А теперь ... клоунов и стриптизёрш!


Top
 Profile E-mail  
 
 
PostPosted: 01 May 2013 
Работнечег
User avatar
Joined: 28 Aug 2007
Posts: 5606
Lоcаtion: г. Москва
Age: 29
Name: Дима
Glot wrote:
PALASS - Убойная вещь! Просто Маст Хев!

Согласен!!!

Palass - Queen Of The World (1989)
Прекрасный образец Melodic Metal конца 80-х. Достаточно бодрая музыка (хоть и по-настоящему скоростных вещей нет), с потрясающими мелодиями. Ничего вроде особенного, но вот на удивление приятно. Охарактеризую как переходное звено от первых альбомов Europe к ранним же альбомов Nocturnal Rites. Что-то шведское есть в этом всем, несмотря на то, что это группа бельгийская. Все композиции достойны внимания, выделить лучший затруднительно. 5.1/6.0.

Вот тоже недавно отслушал, правда альбом не отсюда качал) Действиетльно отличный материал, забойные мелодии и приятный голос вокалиста, гоняю уже третий день подряд :true:


Top
 Profile E-mail  
 
 
PostPosted: 01 Mar 2017 
Хиппей (support team)
User avatar
Joined: 30 Jul 2007
Posts: 108895
Lоcаtion: Киев (Kyiv, UA)
Age: 45
Name: Andrey
VA - Exodo+Inherent Sin+Iron Hawk [ape].rar

Image

Image

mirror: Depos l Narod l M-Cloud

зы. Хз, мож я не в ту тему ссылки тыкаю.. :vic: Времени нет сейчас разбирать всю ветку.

_________________


Top
 Profile E-mail  
 
 
PostPosted: 12 Aug 2018 
А может смените мне статус?..
Joined: 12 Dec 2008
Posts: 999
Lоcаtion: BULGARIA
Age: 40
Name: DIMITЪR
VA - Exodo+Inherent Sin+Iron Hawk [ape].rar


Звучек хорош, имею предвид что изначално плохо записан, но лучьше наверно неможет найти :blum: :blum: :blum:

Exodo - The New Babylon - 1988 - 2016, FLAC (image+.cue)
https://rutracker.org/forum/viewtopic.php?t=5599752


Top
 Profile  
 
 
PostPosted: 15 Aug 2018 
Хиппей (support team)
User avatar
Joined: 30 Jul 2007
Posts: 108895
Lоcаtion: Киев (Kyiv, UA)
Age: 45
Name: Andrey
cryptors wrote:

Качну. Вдруг у нас такого не было :thanx:

_________________


Top
 Profile E-mail  
 
 
PostPosted: 15 Aug 2018 
Хиппей (support team)
User avatar
Joined: 30 Jul 2007
Posts: 108895
Lоcаtion: Киев (Kyiv, UA)
Age: 45
Name: Andrey
Ага, раздачу и автора заблокировали
Димитар, можешь перезалить тот файл?

_________________


Top
 Profile E-mail  
 
 
PostPosted: 15 Aug 2018 
Хиппей (support team)
User avatar
Joined: 30 Jul 2007
Posts: 108895
Lоcаtion: Киев (Kyiv, UA)
Age: 45
Name: Andrey
Или это ты его там и раздавать начал? :crazy:

_________________


Top
 Profile E-mail  
 
 
PostPosted: 16 Aug 2018 
А может смените мне статус?..
Joined: 12 Dec 2008
Posts: 999
Lоcаtion: BULGARIA
Age: 40
Name: DIMITЪR
https://rutracker.org/forum/viewtopic.php?t=5600913 :dance: :dance: :dance:


Top
 Profile  
 
 
PostPosted: 17 Aug 2018 
Хиппей (support team)
User avatar
Joined: 30 Jul 2007
Posts: 108895
Lоcаtion: Киев (Kyiv, UA)
Age: 45
Name: Andrey
:thanx:

_________________


Top
 Profile E-mail  
 
 
PostPosted: 17 Aug 2018 
Хиппей (support team)
User avatar
Joined: 30 Jul 2007
Posts: 108895
Lоcаtion: Киев (Kyiv, UA)
Age: 45
Name: Andrey
Димитар, это ты на трекере раздаёшь этот альбом? :tro: http://prntscr.com/kjnbvg

_________________


Top
 Profile E-mail  
 
 
PostPosted: 17 Aug 2018 
Хиппей (support team)
User avatar
Joined: 30 Jul 2007
Posts: 108895
Lоcаtion: Киев (Kyiv, UA)
Age: 45
Name: Andrey
Image

https://rutracker.org/forum/search.php? ... rch_author

_________________


Top
 Profile E-mail  
 
 
PostPosted: 18 Aug 2018 
Хиппей (support team)
User avatar
Joined: 30 Jul 2007
Posts: 108895
Lоcаtion: Киев (Kyiv, UA)
Age: 45
Name: Andrey
Exodo - 1988 - The New Babylon [flac] https://www.metal-archives.com/albums/% ... lon/572612

mirror: Uloz l Drop l Narod l M-Cloud


Хороший альбом :meloman: Хоть и вокал очень слабоват и примитивен.

7/10

log
Exact Audio Copy V1.3 from 2. September 2016

EAC extraction logfile from 15. August 2018, 18:10

Exodo / The New Babylon

Used drive : PLDS DVD-RW DA8AESH Adapter: 1 ID: 0

Read mode : Secure
Utilize accurate stream : Yes
Defeat audio cache : Yes
Make use of C2 pointers : No

Read offset correction : 6
Overread into Lead-In and Lead-Out : No
Fill up missing offset samples with silence : Yes
Delete leading and trailing silent blocks : No
Null samples used in CRC calculations : Yes
Used interface : Native Win32 interface for Win NT & 2000

Used output format : User Defined Encoder
Selected bitrate : 768 kBit/s
Quality : High
Add ID3 tag : No
Command line compressor : C:\Program Files (x86)\Exact Audio Copy\FLAC.EXE
Additional command line options : -6 -V -T "ARTIST=%artist%" -T "TITLE=%title%" -T "ALBUM=%albumtitle%" -T "DATE=%year%" -T "TRACKNUMBER=%tracknr%" -T "GENRE=%genre%" -T "COMMENT=%comment%" -T "BAND=%albuminterpret%" -T "ALBUMARTIST=%albuminterpret%" -T "COMPOSER=%composer%" %haslyrics%--tag-from-file=LYRICS="%lyricsfile%"%haslyrics% -T "DISCNUMBER=%cdnumber%" -T "TOTALDISCS=%totalcds%" -T "TOTALTRACKS=%numtracks%" %hascover%--picture="%coverfile%"%hascover% %source% -o %dest%


TOC of the extracted CD

Track | Start | Length | Start sector | End sector
---------------------------------------------------------
1 | 0:00.00 | 4:58.06 | 0 | 22355
2 | 4:58.06 | 3:58.06 | 22356 | 40211
3 | 8:56.12 | 3:47.31 | 40212 | 57267
4 | 12:43.43 | 2:56.56 | 57268 | 70523
5 | 15:40.24 | 3:59.31 | 70524 | 88479
6 | 19:39.55 | 4:18.06 | 88480 | 107835
7 | 23:57.61 | 3:35.31 | 107836 | 123991
8 | 27:33.17 | 5:34.06 | 123992 | 149047
9 | 33:07.23 | 4:07.31 | 149048 | 167603
10 | 37:14.54 | 4:30.72 | 167604 | 187925


Range status and errors

Selected range

Filename C:\Users\xabi\Desktop\Exodo - The New Babylon.wav

Peak level 100.0 %
Extraction speed 3.4 X
Range quality 100.0 %
Test CRC F68D5B2E
Copy CRC F68D5B2E
Copy OK

No errors occurred


AccurateRip summary

Track 1 not present in database
Track 2 not present in database
Track 3 not present in database
Track 4 not present in database
Track 5 not present in database
Track 6 not present in database
Track 7 not present in database
Track 8 not present in database
Track 9 not present in database
Track 10 not present in database

None of the tracks are present in the AccurateRip database

End of status report

---- CUETools DB Plugin V2.1.6

[CTDB TOCID: 3nHk3ZyZ33zwEeTwUdBEe1iJKHc-] found
Submit result: already submitted
Track | CTDB Status
1 | (4/4) Accurately ripped
2 | (4/4) Accurately ripped
3 | (4/4) Accurately ripped
4 | (4/4) Accurately ripped
5 | (4/4) Accurately ripped
6 | (4/4) Accurately ripped
7 | (4/4) Accurately ripped
8 | (4/4) Accurately ripped
9 | (4/4) Accurately ripped
10 | (4/4) Accurately ripped


==== Log checksum 011A2533338FEDF40A344E7F06CD842CD36450AB863E5D2A933371865612DBAD ====

------------------------------------------------------------

Exact Audio Copy V1.3 from 2. September 2016

EAC extraction logfile from 15. August 2018, 18:10

Exodo / The New Babylon

Used drive : PLDS DVD-RW DA8AESH Adapter: 1 ID: 0

Read mode : Secure
Utilize accurate stream : Yes
Defeat audio cache : Yes
Make use of C2 pointers : No

Read offset correction : 6
Overread into Lead-In and Lead-Out : No
Fill up missing offset samples with silence : Yes
Delete leading and trailing silent blocks : No
Null samples used in CRC calculations : Yes
Used interface : Native Win32 interface for Win NT & 2000

Used output format : User Defined Encoder
Selected bitrate : 768 kBit/s
Quality : High
Add ID3 tag : No
Command line compressor : C:\Program Files (x86)\Exact Audio Copy\FLAC.EXE
Additional command line options : -6 -V -T "ARTIST=%artist%" -T "TITLE=%title%" -T "ALBUM=%albumtitle%" -T "DATE=%year%" -T "TRACKNUMBER=%tracknr%" -T "GENRE=%genre%" -T "COMMENT=%comment%" -T "BAND=%albuminterpret%" -T "ALBUMARTIST=%albuminterpret%" -T "COMPOSER=%composer%" %haslyrics%--tag-from-file=LYRICS="%lyricsfile%"%haslyrics% -T "DISCNUMBER=%cdnumber%" -T "TOTALDISCS=%totalcds%" -T "TOTALTRACKS=%numtracks%" %hascover%--picture="%coverfile%"%hascover% %source% -o %dest%


TOC of the extracted CD

Track | Start | Length | Start sector | End sector
---------------------------------------------------------
1 | 0:00.00 | 4:58.06 | 0 | 22355
2 | 4:58.06 | 3:58.06 | 22356 | 40211
3 | 8:56.12 | 3:47.31 | 40212 | 57267
4 | 12:43.43 | 2:56.56 | 57268 | 70523
5 | 15:40.24 | 3:59.31 | 70524 | 88479
6 | 19:39.55 | 4:18.06 | 88480 | 107835
7 | 23:57.61 | 3:35.31 | 107836 | 123991
8 | 27:33.17 | 5:34.06 | 123992 | 149047
9 | 33:07.23 | 4:07.31 | 149048 | 167603
10 | 37:14.54 | 4:30.72 | 167604 | 187925


Range status and errors

Selected range

Filename C:\Users\xabi\Desktop\Exodo - The New Babylon.wav

Peak level 100.0 %
Extraction speed 3.4 X
Range quality 100.0 %
Test CRC F68D5B2E
Copy CRC F68D5B2E
Copy OK

No errors occurred


AccurateRip summary

Track 1 not present in database
Track 2 not present in database
Track 3 not present in database
Track 4 not present in database
Track 5 not present in database
Track 6 not present in database
Track 7 not present in database
Track 8 not present in database
Track 9 not present in database
Track 10 not present in database

None of the tracks are present in the AccurateRip database

End of status report

---- CUETools DB Plugin V2.1.6

[CTDB TOCID: 3nHk3ZyZ33zwEeTwUdBEe1iJKHc-] found
Submit result: already submitted
Track | CTDB Status
1 | (4/4) Accurately ripped
2 | (4/4) Accurately ripped
3 | (4/4) Accurately ripped
4 | (4/4) Accurately ripped
5 | (4/4) Accurately ripped
6 | (4/4) Accurately ripped
7 | (4/4) Accurately ripped
8 | (4/4) Accurately ripped
9 | (4/4) Accurately ripped
10 | (4/4) Accurately ripped


==== Log checksum 011A2533338FEDF40A344E7F06CD842CD36450AB863E5D2A933371865612DBAD ====

cue
REM DATE 1988
REM DISCID 8B09C90A
REM COMMENT "ExactAudioCopy v1.3"
PERFORMER "Exodo "
TITLE "The New Babylon"
REM COMPOSER ""
FILE "Exodo - The New Babylon.flac" WAVE
TRACK 01 AUDIO
TITLE "Groups Of Defense"
PERFORMER "Exodo "
REM COMPOSER ""
INDEX 01 00:00:00
TRACK 02 AUDIO
TITLE "The New Babylon"
PERFORMER "Exodo "
REM COMPOSER ""
INDEX 00 04:56:06
INDEX 01 04:58:06
TRACK 03 AUDIO
TITLE "Sex"
PERFORMER "Exodo "
REM COMPOSER ""
INDEX 00 08:54:12
INDEX 01 08:56:12
TRACK 04 AUDIO
TITLE "Born To Be Wild"
PERFORMER "Exodo "
REM COMPOSER ""
INDEX 00 12:41:43
INDEX 01 12:43:43
TRACK 05 AUDIO
TITLE "Just One Day"
PERFORMER "Exodo "
REM COMPOSER ""
INDEX 00 15:38:24
INDEX 01 15:40:24
TRACK 06 AUDIO
TITLE "Thunders In The City"
PERFORMER "Exodo "
REM COMPOSER ""
INDEX 00 19:37:55
INDEX 01 19:39:55
TRACK 07 AUDIO
TITLE "Sons Of The Night"
PERFORMER "Exodo "
REM COMPOSER ""
INDEX 00 23:55:61
INDEX 01 23:57:61
TRACK 08 AUDIO
TITLE "Heart In Flames"
PERFORMER "Exodo "
REM COMPOSER ""
INDEX 00 27:31:17
INDEX 01 27:33:17
TRACK 09 AUDIO
TITLE "Mercenaria De La Noche"
PERFORMER "Exodo "
REM COMPOSER ""
INDEX 00 33:05:23
INDEX 01 33:07:23
TRACK 10 AUDIO
TITLE "The New Babylon"
PERFORMER "Exodo "
REM COMPOSER ""
INDEX 00 37:12:54
INDEX 01 37:14:54

_________________


Top
 Profile E-mail  
 
 
PostPosted: 19 Aug 2018 
Рарник и трушник
User avatar
Joined: 25 Dec 2009
Posts: 8481
Lоcаtion: Москва
Age: 53
Name: Виталий
:thanx:


Top
 Profile  
 
Display posts from previous:  Sort by  
Post new topic Reply to topic  [ 138 posts ]  Go to page Previous  1 ... 3, 4, 5, 6, 7

All times are UTC + 3 hours


Who is online

Users browsing this forum: No registered users and 4 guests


You cannot post new topics in this forum
You cannot reply to topics in this forum
You cannot edit your posts in this forum
You cannot delete your posts in this forum
You cannot post attachments in this forum

Search for:
Яндекс.Метрика
Powered by phpBB © 2000, 2002, 2005, 2007 phpBB Group