\m/ 80's metal \m/

Информационно-аналитический форум "80 см пыли" (In Search We Trust) "У нас никто никуда не спешит"
Железнодорожная биржа - RailAgent
It is currently 22 Jul 2018

All times are UTC + 3 hours

Spoiler
Chat - temporary registration for foreign users (please leave your application here)





Forum rules


Наглядный пример, как нужно правильно искать песню по лирике :arrow: http://www.metal-archives.com/search/ad ... nre=#songs



Post new topic Reply to topic  [ 23 posts ]  Go to page 1, 2  Next
Author Message
 
PostPosted: 02 Dec 2013 
Дежурный по КУПу
User avatar
Joined: 17 Aug 2007
Posts: 5869
Age: 50
Name: Ге
Помогите плиз второй день бьюсь с этим куем, ну ни как он не хочет флак на треки разбивать

это куй от альбома Masacre - Colombia... Imperio Del Terror + Cancer De Nuestros Dias
REM GENRE "Death Metal"
REM DATE 2004
REM DISCID E10F9910
REM COMMENT "ExactAudioCopy v0.99pb5"
PERFORMER "Masacre"
TITLE "Colombia... Imperio Del Terror / Cancer De Nuestros Dias"
FILE "Masacre - Colombia... Imperio Del Terror + Cancer De Nuestros Dias.flac" WAVE
TRACK 01 AUDIO
TITLE "Prólogo / Tiempos de guerra"
PERFORMER "Masacre"
FLAGS DCP
INDEX 01 00:00:00
TRACK 02 AUDIO
TITLE "Imperio del terror"
PERFORMER "Masacre"
FLAGS DCP
INDEX 01 06:09:49
TRACK 03 AUDIO
TITLE "Sepulcros en ruinas"
PERFORMER "Masacre"
FLAGS DCP
INDEX 00 11:03:13
INDEX 01 11:05:13
TRACK 04 AUDIO
TITLE "Escoria"
PERFORMER "Masacre"
FLAGS DCP
INDEX 00 15:57:16
INDEX 01 15:59:16
TRACK 05 AUDIO
TITLE "Los pecados de dios"
PERFORMER "Masacre"
FLAGS DCP
INDEX 00 20:08:73
INDEX 01 20:10:73
TRACK 06 AUDIO
TITLE "Sangrienta muerte"
PERFORMER "Masacre"
FLAGS DCP
INDEX 00 22:02:30
INDEX 01 22:04:30
TRACK 07 AUDIO
TITLE "Epilogo"
PERFORMER "Masacre"
FLAGS DCP
INDEX 00 29:04:38
INDEX 01 29:06:38
TRACK 08 AUDIO
TITLE "Intro / Temor / Justicia ramera"
PERFORMER "Masacre"
FLAGS DCP
INDEX 00 30:03:01
INDEX 01 30:05:01
TRACK 09 AUDIO
TITLE "Brutales masacres"
PERFORMER "Masacre"
FLAGS DCP
INDEX 00 35:36:16
INDEX 01 35:38:16
TRACK 10 AUDIO
TITLE "Conflicto de paz"
PERFORMER "Masacre"
FLAGS DCP
INDEX 00 41:01:28
INDEX 01 41:03:28
TRACK 11 AUDIO
TITLE "Termonuclear"
PERFORMER "Masacre"
FLAGS DCP
INDEX 00 46:27:05
INDEX 01 46:29:05
TRACK 12 AUDIO
TITLE "Imperio del terror"
PERFORMER "Masacre"
FLAGS DCP
INDEX 00 47:35:53
INDEX 01 47:37:53
TRACK 13 AUDIO
TITLE "Ritos de muerte"
PERFORMER "Masacre"
FLAGS DCP
INDEX 00 51:54:06
INDEX 01 51:56:06
TRACK 14 AUDIO
TITLE "Ola de violencia"
PERFORMER "Masacre"
FLAGS DCP
INDEX 01 55:17:56
TRACK 15 AUDIO
TITLE "Intro / Vida"
PERFORMER "Masacre"
FLAGS DCP
INDEX 00 59:26:19
INDEX 01 59:28:19
TRACK 16 AUDIO
TITLE "Nightmare [Sarcofago cover]"
PERFORMER "Masacre"
FLAGS DCP
INDEX 00 61:47:70
INDEX 01 61:49:70


это название флака "Masacre - Colombia... Imperio Del Terror + Cancer De Nuestros Dias.flac"

_________________
http://jp-mania.ru/
http://jp-tourdates.ucoz.ru/


Top
 Profile  
 
 
PostPosted: 02 Dec 2013 
Хиппей (support team)
User avatar
Joined: 30 Jul 2007
Posts: 105206
Lоcаtion: Киев (Kyiv, UA)
Age: 45
Name: Andrey
German wrote:
Prólogo

...и т.д.
Меняй на без апострофов-умляутов буквы :pardon:

_________________


Top
 Profile E-mail  
 
 
PostPosted: 02 Dec 2013 
Дежурный по КУПу
User avatar
Joined: 17 Aug 2007
Posts: 5869
Age: 50
Name: Ге
Это я всё уже менял - не помогло :(

_________________
http://jp-mania.ru/
http://jp-tourdates.ucoz.ru/


Top
 Profile  
 
 
PostPosted: 02 Dec 2013 
Труъ
Joined: 29 May 2012
Posts: 178
Age: 45
Name: Mихаил
вот это лишнее - FLAGS DCP, в правильном куе нет такого


Top
 Profile  
 
 
PostPosted: 02 Dec 2013 
Хиппей (support team)
User avatar
Joined: 30 Jul 2007
Posts: 105206
Lоcаtion: Киев (Kyiv, UA)
Age: 45
Name: Andrey
Ща Олег, явно хихикать будет, но я не пойму, зачем разбивать флак на трэки - чтоб послушать или записать на болванку?
Если первое, то дело действительно в куе (в непривычных символах для русскоязычной винды), а если второй, то... тем более :shok:
Или ты лося на сами песни разбить хочешь? Пофлаково? :vic:

_________________


Top
 Profile E-mail  
 
 
PostPosted: 02 Dec 2013 
Хиппей (support team)
User avatar
Joined: 30 Jul 2007
Posts: 105206
Lоcаtion: Киев (Kyiv, UA)
Age: 45
Name: Andrey
Wunderman wrote:
FLAGS DCP

Quote:
DCP = Digital Copy Permitted.
Один из пруфов: http://www.dcsoft.com/cue_mastering_progs.htm
К дупликаторам не имеет ни малейшего отношения и встречается на оригинальных дисках, пример: альбом "12 Düet" группы "Nilüfer", лейбл DMC.

http://otvety.google.ru/otvety/thread?t ... 48de2c3065
:scratch:

_________________


Top
 Profile E-mail  
 
 
PostPosted: 02 Dec 2013 
Partisanen - nicht kapitulieren!!
User avatar
Joined: 25 Dec 2011
Posts: 6594
Lоcаtion: партизанские леса
Age: 45
Name: Владимир
хз... а чем ты режешь? CUETools 2.1.4 спокойно расфигачила на треки...

зы
есле фубар ругаетса на первую строчку - пересохрани куй в кодировке UTF-8

_________________
One more beer and Heavy Metal and I'm just fine!
старовер, куле... слово "блин" - до сих пор через Ъ говорю


Top
 Profile E-mail  
 
 
PostPosted: 02 Dec 2013 
Труъ
Joined: 29 May 2012
Posts: 178
Age: 45
Name: Mихаил
сплит разбитый на треки http://yadi.sk/d/KKmRdzo3Dh6rF


Top
 Profile  
 
 
PostPosted: 02 Dec 2013 
Хиппей (support team)
User avatar
Joined: 30 Jul 2007
Posts: 105206
Lоcаtion: Киев (Kyiv, UA)
Age: 45
Name: Andrey
:thanx:

Masacre - 2004 - Colombia... Imperio Del Terror + Cancer De Nuestros Dias [flacs]

ImageImage
ImageImage


mirror: Narod l M-Cloud

_________________


Top
 Profile E-mail  
 
 
PostPosted: 02 Dec 2013 
Хиппей (support team)
User avatar
Joined: 30 Jul 2007
Posts: 105206
Lоcаtion: Киев (Kyiv, UA)
Age: 45
Name: Andrey
вот это лишнее - FLAGS DCP, в правильном куе нет такого

Хм, а зачем же эти строчки в твоём куе нужны?

Или он тоже неправильный? :vic:
cue
REM GENRE "Death Metal"
REM DATE 2004
REM DISCID E10F9910
REM COMMENT "ExactAudioCopy v0.99pb5"
PERFORMER "Masacre"
TITLE "Colombia... Imperio Del Terror / Cancer De Nuestros Dias"
FILE "01. Prologo _ Tiempos de guerra.flac" WAVE
TRACK 01 AUDIO
TITLE "Prólogo / Tiempos de guerra"
PERFORMER "Masacre"
FLAGS DCP
INDEX 01 00:00:00
FILE "02. Imperio del terror.flac" WAVE
TRACK 02 AUDIO
TITLE "Imperio del terror"
PERFORMER "Masacre"
FLAGS DCP
INDEX 01 00:00:00
TRACK 03 AUDIO
TITLE "Sepulcros en ruinas"
PERFORMER "Masacre"
FLAGS DCP
INDEX 00 04:53:39
FILE "03. Sepulcros en ruinas.flac" WAVE
INDEX 01 00:00:00
TRACK 04 AUDIO
TITLE "Escoria"
PERFORMER "Masacre"
FLAGS DCP
INDEX 00 04:52:03
FILE "04. Escoria.flac" WAVE
INDEX 01 00:00:00
TRACK 05 AUDIO
TITLE "Los pecados de dios"
PERFORMER "Masacre"
FLAGS DCP
INDEX 00 04:09:57
FILE "05. Los pecados de dios.flac" WAVE
INDEX 01 00:00:00
TRACK 06 AUDIO
TITLE "Sangrienta muerte"
PERFORMER "Masacre"
FLAGS DCP
INDEX 00 01:51:32
FILE "06. Sangrienta muerte.flac" WAVE
INDEX 01 00:00:00
TRACK 07 AUDIO
TITLE "Epilogo"
PERFORMER "Masacre"
FLAGS DCP
INDEX 00 07:00:08
FILE "07. Epilogo.flac" WAVE
INDEX 01 00:00:00
TRACK 08 AUDIO
TITLE "Intro / Temor / Justicia ramera"
PERFORMER "Masacre"
FLAGS DCP
INDEX 00 00:56:38
FILE "08. Intro _ Temor _ Justicia ramera.flac" WAVE
INDEX 01 00:00:00
TRACK 09 AUDIO
TITLE "Brutales masacres"
PERFORMER "Masacre"
FLAGS DCP
INDEX 00 05:31:15
FILE "09. Brutales masacres.flac" WAVE
INDEX 01 00:00:00
TRACK 10 AUDIO
TITLE "Conflicto de paz"
PERFORMER "Masacre"
FLAGS DCP
INDEX 00 05:23:12
FILE "10. Conflicto de paz.flac" WAVE
INDEX 01 00:00:00
TRACK 11 AUDIO
TITLE "Termonuclear"
PERFORMER "Masacre"
FLAGS DCP
INDEX 00 05:23:52
FILE "11. Termonuclear.flac" WAVE
INDEX 01 00:00:00
TRACK 12 AUDIO
TITLE "Imperio del terror"
PERFORMER "Masacre"
FLAGS DCP
INDEX 00 01:06:48
FILE "12. Imperio del terror.flac" WAVE
INDEX 01 00:00:00
TRACK 13 AUDIO
TITLE "Ritos de muerte"
PERFORMER "Masacre"
FLAGS DCP
INDEX 00 04:16:28
FILE "13. Ritos de muerte.flac" WAVE
INDEX 01 00:00:00
FILE "14. Ola de violencia.flac" WAVE
TRACK 14 AUDIO
TITLE "Ola de violencia"
PERFORMER "Masacre"
FLAGS DCP
INDEX 01 00:00:00
TRACK 15 AUDIO
TITLE "Intro / Vida"
PERFORMER "Masacre"
FLAGS DCP
INDEX 00 04:08:38
FILE "15. Intro _ Vida.flac" WAVE
INDEX 01 00:00:00
TRACK 16 AUDIO
TITLE "Nightmare [Sarcofago cover]"
PERFORMER "Masacre"
FLAGS DCP
INDEX 00 02:19:51
FILE "16. Nightmare [Sarcofago cover].flac" WAVE
INDEX 01 00:00:00

И лог занятный =) Фильмографический.
Я про путь от лося к диску Дэ :crazy:
log
Exact Audio Copy V0.99 prebeta 5 from 4. May 2009

EAC extraction logfile from 9. August 2010, 1:59

Masacre / Colombia... Imperio Del Terror / Cancer De Nuestros Dias

Used drive : _NEC DVD_RW ND-4571A Adapter: 1 ID: 0

Read mode : Secure
Utilize accurate stream : Yes
Defeat audio cache : Yes
Make use of C2 pointers : No

Read offset correction : 48
Overread into Lead-In and Lead-Out : No
Fill up missing offset samples with silence : Yes
Delete leading and trailing silent blocks : No
Null samples used in CRC calculations : Yes
Used interface : Installed external ASPI interface

Used output format : User Defined Encoder
Selected bitrate : 1024 kBit/s
Quality : High
Add ID3 tag : Yes
Command line compressor : C:\Program Files\Exact Audio Copy\Flac\flac.exe
Additional command line options : -8 -V -T "ARTIST=%a" -T "TITLE=%t" -T "ALBUM=%g" -T "DATE=%y" -T "TRACKNUMBER=%n" -T "GENRE=%m" -T "COMMENT=EAC FLAC -8" %s


TOC of the extracted CD

Track | Start | Length | Start sector | End sector
---------------------------------------------------------
1 | 0:00.00 | 6:09.49 | 0 | 27723
2 | 6:09.49 | 4:55.39 | 27724 | 49887
3 | 11:05.13 | 4:54.03 | 49888 | 71940
4 | 15:59.16 | 4:11.57 | 71941 | 90822
5 | 20:10.73 | 1:53.32 | 90823 | 99329
6 | 22:04.30 | 7:02.08 | 99330 | 130987
7 | 29:06.38 | 0:58.38 | 130988 | 135375
8 | 30:05.01 | 5:33.15 | 135376 | 160365
9 | 35:38.16 | 5:25.12 | 160366 | 184752
10 | 41:03.28 | 5:25.52 | 184753 | 209179
11 | 46:29.05 | 1:08.48 | 209180 | 214327
12 | 47:37.53 | 4:18.28 | 214328 | 233705
13 | 51:56.06 | 3:21.50 | 233706 | 248830
14 | 55:17.56 | 4:10.38 | 248831 | 267618
15 | 59:28.19 | 2:21.51 | 267619 | 278244
16 | 61:49.70 | 4:43.48 | 278245 | 299517


Range status and errors

Selected range

Filename D:\POPULAR\My Magical Pants\THE LAST KING OF SCATLAND\I'm SARGE\Masacre - (2004) Colombia... Imperio Del Terror + Cancer De Nuestros Dias\Masacre - Colombia... Imperio Del Terror + Cancer De Nuestros Dias.wav

Peak level 99.3 %
Range quality 100.0 %
Test CRC AB649A74
Copy CRC AB649A74
Copy OK

No errors occurred

End of status report

_________________


Top
 Profile E-mail  
 
 
PostPosted: 03 Dec 2013 
мiзантропъ
User avatar
Joined: 01 Aug 2007
Posts: 2248
Lоcаtion: UA
Age: 48
Name: Вася Пупкін
я эти "FLAGS DCP" тоже выбрасываю по возможности. хуже точно не становится :pardon:

_________________
Image
Image
Too Little Much Too Late...


Top
 Profile  
 
 
PostPosted: 03 Dec 2013 
Дежурный по КУПу
User avatar
Joined: 17 Aug 2007
Posts: 5869
Age: 50
Name: Ге
32warlord1 wrote:
пересохрани куй в кодировке UTF-8

Спасибо помогло :true:
А то я все умляуты обычно вручную удаляю :pardon:

Спасибо всем за помощь :true:

_________________
http://jp-mania.ru/
http://jp-tourdates.ucoz.ru/


Top
 Profile  
 
 
PostPosted: 03 Dec 2013 
Хиппей (support team)
User avatar
Joined: 30 Jul 2007
Posts: 105206
Lоcаtion: Киев (Kyiv, UA)
Age: 45
Name: Andrey
Ну так в чём ошибка то была? :lloo: Вернее, где, в кодировках, не подходящей под ОСь или все же конкретной строке или слове-букве в куе?
А то явно ж еще не раз с подобными неудобствами будем сталкиваться, а причина так и не ясна :pardon: Или это только, как обычно, глупый и ничо не понял? :crazy:

_________________


Top
 Profile E-mail  
 
 
PostPosted: 03 Dec 2013 
Персональный статус
User avatar
Joined: 11 May 2011
Posts: 412
Lоcаtion: Omsk
Age: 28
Name: Alexander
Куи сохранённые в юникоде не поддерживаются, видимо в этом была проблема.

_________________
Enigma, unholy, ungodly, commander of the regeneration
Insidious and caught, implored by disgrace
Inhumation... The burial of man
Confession... Unify all evil


Top
 Profile E-mail  
 
 
PostPosted: 03 Dec 2013 
Хиппей (support team)
User avatar
Joined: 30 Jul 2007
Posts: 105206
Lоcаtion: Киев (Kyiv, UA)
Age: 45
Name: Andrey
А если юникод включить на своём компе в винде? :lloo:

_________________


Top
 Profile E-mail  
 
 
PostPosted: 03 Dec 2013 
Дежурный по КУПу
User avatar
Joined: 17 Aug 2007
Posts: 5869
Age: 50
Name: Ге
Scatterbrain wrote:
Ну так в чём ошибка то была? Вернее, где, в кодировках, не подходящей под ОСь или все же конкретной строке или слове-букве в куе?


Скорей всего в какой то букве, которая внешне выглядит как обычно, но внутри явно засланный казачок.
В какой строке не знаю... не, но не буду же я их все перебирать :shok:
До этого через мой фубар куев прошло до куя и проблем почти не было, заменишь вручную умлятную буковку на обычную и нормалёк

_________________
http://jp-mania.ru/
http://jp-tourdates.ucoz.ru/


Top
 Profile  
 
 
PostPosted: 03 Dec 2013 
мiзантропъ
User avatar
Joined: 01 Aug 2007
Posts: 2248
Lоcаtion: UA
Age: 48
Name: Вася Пупкін
Schmelzer wrote:
Куи сохранённые в юникоде не поддерживаются, видимо в этом была проблема.

UTF-8 это и есть юникод

_________________
Image
Image
Too Little Much Too Late...


Top
 Profile  
 
 
PostPosted: 03 Dec 2013 
Хиппей (support team)
User avatar
Joined: 30 Jul 2007
Posts: 105206
Lоcаtion: Киев (Kyiv, UA)
Age: 45
Name: Andrey
German wrote:
Скорей всего в какой то букве, которая внешне выглядит как обычно, но внутри явно засланный казачок.

Ну мож быть, но тоже не факт. Если ты фубаром разбивал, то он сам кодировки подбирает.
И вообще, Ге, так для чего тебе надо было разбивать этот альбом на трэки и вот рип, который выложил Михаил, это ж другой рип, просто с твоим переделанным куем?


Как раз вчера с Серёгой (Невермором) вспоминали тему про замену символов. То есть, как найти в латинице заныканный кириллический или другой нетипичный для английского языка символ. Понятно, что можно открыть сам куй и каждое слово по поиску пробить (ctrl + f) но это муторно и долго. А вот может есть какие программки для подобных целей или там сайты-сервисы?

_________________


Top
 Profile E-mail  
 
 
PostPosted: 03 Dec 2013 
Дежурный по КУПу
User avatar
Joined: 17 Aug 2007
Posts: 5869
Age: 50
Name: Ге
Scatterbrain wrote:
для чего тебе надо было разбивать этот альбом на трэки

Дык, я их в мпз слушаю и на винте храню (люблю когда всё под рукой), а лосика или на болванку или на помойку :oops:

_________________
http://jp-mania.ru/
http://jp-tourdates.ucoz.ru/


Top
 Profile  
 
 
PostPosted: 03 Dec 2013 
Хиппей (support team)
User avatar
Joined: 30 Jul 2007
Posts: 105206
Lоcаtion: Киев (Kyiv, UA)
Age: 45
Name: Andrey
Scatterbrain wrote:
для чего тебе надо было разбивать этот альбом на трэки

Дык, я их в мпз слушаю и на винте храню (люблю когда всё под рукой), а лосика или на болванку или на помойку :oops:

:shok:
Жесть...
А не легче ли скачать в мп3? :vic:

_________________


Top
 Profile E-mail  
 
Display posts from previous:  Sort by  
Post new topic Reply to topic  [ 23 posts ]  Go to page 1, 2  Next

All times are UTC + 3 hours


Who is online

Users browsing this forum: No registered users and 1 guest


You cannot post new topics in this forum
You cannot reply to topics in this forum
You cannot edit your posts in this forum
You cannot delete your posts in this forum
You cannot post attachments in this forum

Search for:
Яндекс.Метрика
Powered by phpBB © 2000, 2002, 2005, 2007 phpBB Group