\m/ 80's metal \m/

Информационно-аналитический форум "80 см пыли" (In Search We Trust) "У нас никто никуда не спешит"
Me For You - http://me-4u.com
It is currently 15 Dec 2018

All times are UTC + 3 hours

Spoiler
Chat - temporary registration for foreign users (please leave your application here)







Post new topic Reply to topic  [ 28 posts ]  Go to page 1, 2  Next
Author Message
 
PostPosted: 09 Aug 2013 
А может смените мне статус?..
User avatar
Joined: 28 Jul 2008
Posts: 907
Lоcаtion: Украина---Днепропетровск
Age: 44
Name: Александр
Image

http://www.metal-archives.com/bands/Wolfram/12210

1995 Sál času

Image

1. Hra s ďáblem 05:05
2. Odmítám 04:33
3. VZ 271193 04:26 instrumental
4. Sál času 04:53
5. Jáne 05:29 instrumental
6. Oheň a meč 05:27
7. Vzpoura 04:04 instrumental
8. Kouzelná noc 06:32 instrumental


1998 Misanthrope

Image

1. Let them be 03:42
2. Mercator 06:54
3. Step over your shades 05:24
4. Misanthrope 04:20
5. Planet R.K.K. 04:15
6. Nobody trusts me 06:02
7. Presto 02:59 instrumental
8. Let's go on 04:57
9. Silence 01:47 instrumental
10. Instrumetal jam I. 06:37 instrumental


2000 Liars in a Second Skin

Image

1. Cold Hearted 05:57
2. Balls To Live 06:32
3. Liars In A Second Skin 04:41
4. Fighting Man 06:57
5. Kaspar 05:11
6. The Hero 05:43
7. Nobody 03:59
8. By The Way 06:06
9. Jumperlace 02:40 instrumental
10. Well Of Pain 06:59
11. Walls Of Concrete 04:35
12. Body And Soul 03:23
13. Bluesmetal Jam II. 05:25 instrumental


2003 No Redemption

Image

1. Kama 00:30 instrumental
2. Sutra 03:42
3. No Redemption 04:08
4. Flight 05:40
5. Waiting 05:57
6. Flood 05:37
7. King 04:10
8. Bitter Life 01:02 instrumental
9. Better Life 05:22
10. Give Me Meat 05:29
11. Turn To The Shadows 06:59

Интересно, что не нашел я что то в сети ни одного полного альбома (разве что в семплах на официалке)
Разыскивается желательно в 320

_________________
Музыка в которой я растворяюсь многих угнетает......


Last edited by acusser on 10 Aug 2013, edited 1 time in total.

Top
 Profile  
 
 
PostPosted: 09 Aug 2013 
Генеральный thrasher
User avatar
Joined: 03 Oct 2008
Posts: 3536
Lоcаtion: Ханты-Мансийский АО
Age: 43
Name: Сергей
Есть 2000 и 2003 в лосях.Могу залить лосей или в 320.Но только после 24 августа.Нахожусь на море... :blum:


Top
 Profile  
 
 
PostPosted: 09 Aug 2013 
А может смените мне статус?..
User avatar
Joined: 28 Jul 2008
Posts: 907
Lоcаtion: Украина---Днепропетровск
Age: 44
Name: Александр
Подождем хоть в 320 хоть в лосях :true:

_________________
Музыка в которой я растворяюсь многих угнетает......


Top
 Profile  
 
 
PostPosted: 10 Aug 2013 
Хиппей (support team)
User avatar
Joined: 30 Jul 2007
Posts: 108917
Lоcаtion: Киев (Kyiv, UA)
Age: 45
Name: Andrey
acusser

Лёш, ну и шо это за запрос??? :esel:
Снова возврат в 07-й год? :cow:

Добавь, плиз, картинки и трэклисты.

_________________


Top
 Profile E-mail  
 
 
PostPosted: 30 Aug 2013 
А может смените мне статус?..
User avatar
Joined: 28 Jul 2008
Posts: 907
Lоcаtion: Украина---Днепропетровск
Age: 44
Name: Александр
Курортник с морей не вернулся видать пока :benya:

_________________
Музыка в которой я растворяюсь многих угнетает......


Top
 Profile  
 
 
PostPosted: 30 Aug 2013 
Генеральный thrasher
User avatar
Joined: 03 Oct 2008
Posts: 3536
Lоcаtion: Ханты-Мансийский АО
Age: 43
Name: Сергей
Вернулся...вернулся.Завтра сделаю,раз обещал.


Top
 Profile  
 
 
PostPosted: 31 Aug 2013 
Генеральный thrasher
User avatar
Joined: 03 Oct 2008
Posts: 3536
Lоcаtion: Ханты-Мансийский АО
Age: 43
Name: Сергей
Image

Liars in a Second Skin
Year:2000
Format:Ape+Cue+Log+Scans
Size:526Mb

"Cue"
REM ACCURATERIPID 0022a2aa-01558da0-cc10140d
REM DISCID CC10140D
REM COMMENT "ExactAudioCopy v0.99pb4"
REM DATE 2000
REM GENRE "heavy speed metal"
PERFORMER "WOLFRAM"
TITLE "Liars in a second skin"
FILE "WOLFRAM - Liars in a second skin.ape" WAVE
TRACK 01 AUDIO
TITLE "Cold hearted"
PERFORMER "WOLFRAM"
INDEX 01 00:00:00
TRACK 02 AUDIO
TITLE "Balls to live"
PERFORMER "WOLFRAM"
INDEX 00 05:57:09
INDEX 01 05:59:00
TRACK 03 AUDIO
TITLE "Liars in a second skin"
PERFORMER "WOLFRAM"
INDEX 00 12:31:45
INDEX 01 12:33:35
TRACK 04 AUDIO
TITLE "FIghting man"
PERFORMER "WOLFRAM"
INDEX 00 17:15:42
INDEX 01 17:17:27
TRACK 05 AUDIO
TITLE "Kaspar"
PERFORMER "WOLFRAM"
INDEX 00 24:14:55
INDEX 01 24:16:67
TRACK 06 AUDIO
TITLE "THe Hero"
PERFORMER "WOLFRAM"
INDEX 00 29:28:29
INDEX 01 29:30:25
TRACK 07 AUDIO
TITLE "Nobody"
PERFORMER "WOLFRAM"
INDEX 00 35:14:33
INDEX 01 35:14:55
TRACK 08 AUDIO
TITLE "By the way"
PERFORMER "WOLFRAM"
INDEX 00 39:13:72
INDEX 01 39:16:26
TRACK 09 AUDIO
TITLE "Jumperlace"
PERFORMER "WOLFRAM"
INDEX 00 45:24:49
INDEX 01 45:25:01
TRACK 10 AUDIO
TITLE "Well of pain"
PERFORMER "WOLFRAM"
INDEX 00 48:05:37
INDEX 01 48:07:21
TRACK 11 AUDIO
TITLE "Walls of concrete"
PERFORMER "WOLFRAM"
INDEX 00 55:07:20
INDEX 01 55:09:52
TRACK 12 AUDIO
TITLE "Boda and soul"
PERFORMER "WOLFRAM"
INDEX 00 59:46:37
INDEX 01 59:47:27
TRACK 13 AUDIO
TITLE "Bluesmetal jam II."
PERFORMER "WOLFRAM"
INDEX 01 63:10:70

"Log"
CUERipper v2.1.0 Copyright (C) 2008-10 Gregory S. Chudov

EAC extraction logfile from 22. September 2012, 12:30

WOLFRAM / Liars in a second skin

Used drive : TSSTcorp CDDVDW SE-S224Q Adapter: 1 ID: 0

Read mode : Secure
Utilize accurate stream : Yes
Defeat audio cache : Yes
Make use of C2 pointers : No

Read offset correction : 6
Overread into Lead-In and Lead-Out : No
Fill up missing offset samples with silence : Yes
Delete leading and trailing silent blocks : No
Null samples used in CRC calculations : Yes
Used interface : Native Win32 interface for Win NT & 2000

Used output format : Internal WAV Routines
Sample format : 44.100 Hz; 16 Bit; Stereo


TOC of the extracted CD

Track | Start | Length | Start sector | End sector
---------------------------------------------------------
1 | 0:00.00 | 5:59.00 | 0 | 26924
2 | 5:59.00 | 6:34.35 | 26925 | 56509
3 | 12:33.35 | 4:43.67 | 56510 | 77801
4 | 17:17.27 | 6:59.40 | 77802 | 109266
5 | 24:16.67 | 5:13.33 | 109267 | 132774
6 | 29:30.25 | 5:44.30 | 132775 | 158604
7 | 35:14.55 | 4:01.46 | 158605 | 176725
8 | 39:16.26 | 6:08.50 | 176726 | 204375
9 | 45:25.01 | 2:42.20 | 204376 | 216545
10 | 48:07.21 | 7:02.31 | 216546 | 248226
11 | 55:09.52 | 4:37.50 | 248227 | 269051
12 | 59:47.27 | 3:23.43 | 269052 | 284319
13 | 63:10.70 | 5:25.40 | 284320 | 308734


Range status and errors

Selected range

Filename C:\Users\oldrock\Music\WOLFRAM\2000 - Liars in a second skin\WOLFRAM - Liars in a second skin.wav

Peak level 100.0 %
Range quality 100.0 %
Test CRC 40686256
Copy CRC 40686256
Copy OK

No errors occurred


AccurateRip summary

Track 1 accurately ripped (confidence 1) [FECD72D3]
Track 2 accurately ripped (confidence 1) [FDF2431C]
Track 3 accurately ripped (confidence 1) [24FA5EB7]
Track 4 accurately ripped (confidence 1) [F54BAB79]
Track 5 accurately ripped (confidence 1) [93C52D7E]
Track 6 accurately ripped (confidence 1) [2BAB965C]
Track 7 accurately ripped (confidence 1) [7D860C0E]
Track 8 accurately ripped (confidence 1) [03AE0D7A]
Track 9 accurately ripped (confidence 1) [29B2E553]
Track 10 accurately ripped (confidence 1) [AEFCC3B7]
Track 11 accurately ripped (confidence 1) [DBE9689B]
Track 12 accurately ripped (confidence 1) [5223696B]
Track 13 accurately ripped (confidence 1) [6CDAB03A]

All tracks accurately ripped

End of status report


Liars in a Second Skin Part 1
Liars in a Second Skin Part 2

Image

No Redemption
Year:2004
Format:Ape+Cue+Log+Scans
Size:365Mb

"Cue"
REM ACCURATERIPID 0011e52f-00a0ee1f-850b720b
REM DISCID 850B720B
REM COMMENT "ExactAudioCopy v0.99pb4"
REM TOTALDISCS 1
REM DISCNUMBER 1
REM DATE 2004
REM GENRE "Power Metal"
PERFORMER "WOLFRAM"
TITLE "No Redemption"
FILE "WOLFRAM - No Redemption.ape" WAVE
TRACK 01 AUDIO
TITLE "Kama"
PERFORMER "WOLFRAM"
INDEX 01 00:00:00
TRACK 02 AUDIO
TITLE "Sutra"
PERFORMER "WOLFRAM"
INDEX 01 00:30:23
TRACK 03 AUDIO
TITLE "No Redemption"
PERFORMER "WOLFRAM"
INDEX 01 04:12:49
TRACK 04 AUDIO
TITLE "Flight"
PERFORMER "WOLFRAM"
INDEX 00 08:21:55
INDEX 01 08:22:39
TRACK 05 AUDIO
TITLE "Waiting"
PERFORMER "WOLFRAM"
INDEX 00 14:03:09
INDEX 01 14:04:15
TRACK 06 AUDIO
TITLE "Flood"
PERFORMER "WOLFRAM"
INDEX 01 20:01:60
TRACK 07 AUDIO
TITLE "King"
PERFORMER "WOLFRAM"
INDEX 00 25:39:18
INDEX 01 25:41:42
TRACK 08 AUDIO
TITLE "Bitter Life"
PERFORMER "WOLFRAM"
INDEX 01 29:52:00
TRACK 09 AUDIO
TITLE "Better Life"
PERFORMER "WOLFRAM"
INDEX 01 30:54:54
TRACK 10 AUDIO
TITLE "Give Me Meat"
PERFORMER "WOLFRAM"
INDEX 01 36:17:61
TRACK 11 AUDIO
TITLE "Turn To The Shadows"
PERFORMER "WOLFRAM"
INDEX 00 41:47:26
INDEX 01 41:49:36

"Log"
CUERipper v2.1.0 Copyright (C) 2008-10 Gregory S. Chudov

EAC extraction logfile from 22. September 2012, 16:03

WOLFRAM / No Redemption

Used drive : TSSTcorp CDDVDW SE-S224Q Adapter: 1 ID: 0

Read mode : Secure
Utilize accurate stream : Yes
Defeat audio cache : Yes
Make use of C2 pointers : No

Read offset correction : 6
Overread into Lead-In and Lead-Out : No
Fill up missing offset samples with silence : Yes
Delete leading and trailing silent blocks : No
Null samples used in CRC calculations : Yes
Used interface : Native Win32 interface for Win NT & 2000

Used output format : Internal WAV Routines
Sample format : 44.100 Hz; 16 Bit; Stereo


TOC of the extracted CD

Track | Start | Length | Start sector | End sector
---------------------------------------------------------
1 | 0:00.00 | 0:30.23 | 0 | 2272
2 | 0:30.23 | 3:42.26 | 2273 | 18948
3 | 4:12.49 | 4:09.65 | 18949 | 37688
4 | 8:22.39 | 5:41.51 | 37689 | 63314
5 | 14:04.15 | 5:57.45 | 63315 | 90134
6 | 20:01.60 | 5:39.57 | 90135 | 115616
7 | 25:41.42 | 4:10.33 | 115617 | 134399
8 | 29:52.00 | 1:02.54 | 134400 | 139103
9 | 30:54.54 | 5:23.07 | 139104 | 163335
10 | 36:17.61 | 5:31.50 | 163336 | 188210
11 | 41:49.36 | 7:00.43 | 188211 | 219753


Range status and errors

Selected range

Filename C:\Users\oldrock\Music\WOLFRAM\2004 - No Redemption\WOLFRAM - No Redemption.wav

Peak level 100.0 %
Range quality 100.0 %
Test CRC 9565689A
Copy CRC 9565689A
Copy OK

No errors occurred


AccurateRip summary

Track 1 accurately ripped (confidence 1) [56747A37]
Track 2 accurately ripped (confidence 1) [E481A3FB]
Track 3 accurately ripped (confidence 1) [65C03432]
Track 4 accurately ripped (confidence 1) [A2E47C94]
Track 5 accurately ripped (confidence 1) [785400AF]
Track 6 accurately ripped (confidence 1) [7EEECBB9]
Track 7 accurately ripped (confidence 1) [8DF14447]
Track 8 accurately ripped (confidence 1) [0100B945]
Track 9 accurately ripped (confidence 1) [E99E5D1D]
Track 10 accurately ripped (confidence 1) [B5B99812]
Track 11 accurately ripped (confidence 1) [200263B8]

All tracks accurately ripped

End of status report


No Redemption


Top
 Profile  
 
 
PostPosted: 31 Aug 2013 
Генеральный thrasher
User avatar
Joined: 03 Oct 2008
Posts: 3536
Lоcаtion: Ханты-Мансийский АО
Age: 43
Name: Сергей
Полдня заливал на разные ФО...Постоянно обрывало.Но всё же сделал...Хотя эта группа мне вообще никак не катит.


Top
 Profile  
 
 
PostPosted: 31 Aug 2013 
\m/ 80 см сала \m/
User avatar
Joined: 12 Mar 2012
Posts: 2589
Age: 25
Name: Nick
:thanx:

_________________
1990 AUROPHON BRAINSTORM (Germany) - lossless
1994 MAUSOLEUM CLASSIX (Belgium-Germany) - lossless
1998 VA - GRIM HARVEST - Complete Metal Massacre Volumes I-XII


Top
 Profile  
 
 
PostPosted: 31 Aug 2013 
Хиппей (support team)
User avatar
Joined: 30 Jul 2007
Posts: 108917
Lоcаtion: Киев (Kyiv, UA)
Age: 45
Name: Andrey
:thanx:

thorbeorn wrote:
Полдня заливал на разные ФО...Постоянно обрывало

На яДиске и Фолдыре есть доказаливка :pardon:

_________________


Top
 Profile E-mail  
 
 
PostPosted: 31 Aug 2013 
А может смените мне статус?..
User avatar
Joined: 28 Jul 2008
Posts: 907
Lоcаtion: Украина---Днепропетровск
Age: 44
Name: Александр
Полдня заливал на разные ФО...Постоянно обрывало.Но всё же сделал...Хотя эта группа мне вообще никак не катит.

Хотелось послушать полные альбомы -а не сэмплы! :thanx:

_________________
Музыка в которой я растворяюсь многих угнетает......


Top
 Profile  
 
 
PostPosted: 31 Aug 2013 
Генеральный thrasher
User avatar
Joined: 03 Oct 2008
Posts: 3536
Lоcаtion: Ханты-Мансийский АО
Age: 43
Name: Сергей
:thanx:

thorbeorn wrote:
Полдня заливал на разные ФО...Постоянно обрывало

На яДиске и Фолдыре есть доказаливка :pardon:


Андрюха,я обычно по несколько лосей разом заливаю...Сегодня видимо день не тот.


Top
 Profile  
 
 
PostPosted: 31 Aug 2013 
\m/ 80 см сала \m/
User avatar
Joined: 12 Mar 2012
Posts: 2589
Age: 25
Name: Nick
acusser wrote:
Хотелось послушать полные альбомы -а не сэмплы

Написал одному меломану с Чехии, может у него есть первые два альбомы.

_________________
1990 AUROPHON BRAINSTORM (Germany) - lossless
1994 MAUSOLEUM CLASSIX (Belgium-Germany) - lossless
1998 VA - GRIM HARVEST - Complete Metal Massacre Volumes I-XII


Top
 Profile  
 
 
PostPosted: 02 Sep 2013 
\m/ 80 см сала \m/
User avatar
Joined: 12 Mar 2012
Posts: 2589
Age: 25
Name: Nick
Человек ответил, увы, тоже самое - у него есть только 2000 и 2004 :pardon:

_________________
1990 AUROPHON BRAINSTORM (Germany) - lossless
1994 MAUSOLEUM CLASSIX (Belgium-Germany) - lossless
1998 VA - GRIM HARVEST - Complete Metal Massacre Volumes I-XII


Top
 Profile  
 
 
PostPosted: 03 Sep 2013 
Хиппей (support team)
User avatar
Joined: 30 Jul 2007
Posts: 108917
Lоcаtion: Киев (Kyiv, UA)
Age: 45
Name: Andrey
thorbeorn wrote:
No Redemption


mirror: F-Bit l Narod

Слушаю зачем-то третий раз...
Что то было? :shok:
Сайкоделический экспериментальный хэви-снонер? :fingal:
Музыкантов срочно расстрелять, инструменты отдать в детские дома или приюты для животных :admin:

2,5/10

Две композиции всё же более-менее вменяемые на альбоме попались.

_________________


Top
 Profile E-mail  
 
 
PostPosted: 03 Sep 2013 
А может смените мне статус?..
User avatar
Joined: 28 Jul 2008
Posts: 907
Lоcаtion: Украина---Днепропетровск
Age: 44
Name: Александр
thorbeorn wrote:
No Redemption

Слушаю зачем-то третий раз...
Что то было? :shok:
Сайкоделический экспериментальный хэви-снонер? :fingal:
Музыкантов срочно расстрелять, инструменты отдать в детские дома или приюты для животных :admin:

2,5/10

Две композиции всё же более-менее вменяемые на альбоме попались.

Вот и хотелось услышать полный альбом-по семплам нихрена не въехал

_________________
Музыка в которой я растворяюсь многих угнетает......


Top
 Profile  
 
 
PostPosted: 03 Sep 2013 
Хиппей (support team)
User avatar
Joined: 30 Jul 2007
Posts: 108917
Lоcаtion: Киев (Kyiv, UA)
Age: 45
Name: Andrey
Да я и по полному альбом уже не знаю шо можно культурного сказать :crazy:
А впереди ж еще два предыдущих слушать приходится :oops:

_________________


Top
 Profile E-mail  
 
 
PostPosted: 04 Sep 2013 
Генеральный thrasher
User avatar
Joined: 03 Oct 2008
Posts: 3536
Lоcаtion: Ханты-Мансийский АО
Age: 43
Name: Сергей
Да я и по полному альбом уже не знаю шо можно культурного сказать :crazy:
А впереди ж еще два предыдущих слушать приходится :oops:


Может вообще слушать не стоит???Я и эти собираюсь удалить с жёсткого.До Arakain,Sax и Debustrol этим ребяткам ой как далеко!


Top
 Profile  
 
 
PostPosted: 04 Sep 2013 
Доктор энтомологии
User avatar
Joined: 22 Jan 2009
Posts: 9485
Lоcаtion: Даугавпилс
Age: 43
Name: Алексей
да уж, жуткое какашко, послушал 2004 :fingal:


Top
 Profile  
 
 
PostPosted: 04 Sep 2013 
Хиппей (support team)
User avatar
Joined: 30 Jul 2007
Posts: 108917
Lоcаtion: Киев (Kyiv, UA)
Age: 45
Name: Andrey
thorbeorn wrote:
Liars in a Second Skin


mirror: Narod

Ну вот первую песню начал слушать и вдруг подумалось - авось не всё так нудно и коряво будет хоть на ранних альбомах?
А нет, и здесь группа сбилась в некий музыкальный coitus interruptus :fingal:
Не, я то их понять могу и даже хочу, но не очень получается.
...а ведь явно кто-то где-то там на солидном сайте или на страницах уважаемого муз издании считает эту группу прог-метолом... :oops:
Не-а, беспорядочные сбивки ради прикола или потехи самих же себя это уже к кавер-группам, а не к коллективам, которые несут в уши слушателю доброе и вечное.
Но. Если это все же стёб группа была, то я не понимаю, в каком месте нужно ржать или хотя бы улыбаться.
Может у кого-то есть сурдоперевод или хотя бы субтитры? :cry:

0/10

_________________


Top
 Profile E-mail  
 
Display posts from previous:  Sort by  
Post new topic Reply to topic  [ 28 posts ]  Go to page 1, 2  Next

All times are UTC + 3 hours


Who is online

Users browsing this forum: No registered users and 3 guests


You cannot post new topics in this forum
You cannot reply to topics in this forum
You cannot edit your posts in this forum
You cannot delete your posts in this forum
You cannot post attachments in this forum

Search for:
Яндекс.Метрика
Powered by phpBB © 2000, 2002, 2005, 2007 phpBB Group