\m/ 80's metal \m/

Информационно-аналитический форум "80 см пыли" (In Search We Trust) "У нас никто никуда не спешит"
Me For You - http://me-4u.com
It is currently 20 Sep 2018

All times are UTC + 3 hours

Spoiler
Chat - temporary registration for foreign users (please leave your application here)







Post new topic Reply to topic  [ 36 posts ]  Go to page Previous  1, 2
Author Message
 
PostPosted: 14 Sep 2009 
Хиппей (support team)
User avatar
Joined: 30 Jul 2007
Posts: 106329
Lоcаtion: Киев (Kyiv, UA)
Age: 45
Name: Andrey
McKagan wrote:
голова?

Зарыли девушку, засранцы :shok:

_________________


Top
 Profile E-mail  
 
 
PostPosted: 14 Sep 2009 
хард н хэвщик (support team)
User avatar
Joined: 02 Jun 2008
Posts: 16880
Lоcаtion: Н.Новгород
Age: 31
Name: Артем
какой интересный черт на обложке, как тритон или русалка :umnik:


Top
 Profile  
 
 
PostPosted: 16 Jun 2013 
\m/ 80 см сала \m/
User avatar
Joined: 12 Mar 2012
Posts: 2588
Age: 25
Name: Nick
Fight for you life, fight for you soul...
MP3@320 CBR: Yandex.Disk
Лосика ни у кого не завалялось случайно? :losik:

_________________
1990 AUROPHON BRAINSTORM (Germany) - lossless
1994 MAUSOLEUM CLASSIX (Belgium-Germany) - lossless
1998 VA - GRIM HARVEST - Complete Metal Massacre Volumes I-XII


Top
 Profile  
 
 
PostPosted: 20 Jun 2013 
Хиппей (support team)
User avatar
Joined: 30 Jul 2007
Posts: 106329
Lоcаtion: Киев (Kyiv, UA)
Age: 45
Name: Andrey
:thanx: Лосика нету. Вроде :vic:

_________________


Top
 Profile E-mail  
 
 
PostPosted: 21 Jun 2013 
Рарник и трушник
User avatar
Joined: 25 Dec 2009
Posts: 8031
Lоcаtion: Москва
Age: 53
Name: Виталий
Scatterbrain wrote:
Лосика нету. Вроде


Да есть у меня где-то этот ЦД переизданный, как найду, рипну и залью наверное. :umnik:


Top
 Profile  
 
 
PostPosted: 21 Jun 2013 
Хиппей (support team)
User avatar
Joined: 30 Jul 2007
Posts: 106329
Lоcаtion: Киев (Kyiv, UA)
Age: 45
Name: Andrey
Ура :dance:
Ну, не к спеху. А то что-то мало кто высказался по альбома :vic:
И я еще не слушал...

_________________


Top
 Profile E-mail  
 
 
PostPosted: 22 Jun 2013 
Хиппей (support team)
User avatar
Joined: 30 Jul 2007
Posts: 106329
Lоcаtion: Киев (Kyiv, UA)
Age: 45
Name: Andrey
Everhard wrote:
Fight for you life, fight for you soul...
MP3@320 CBR:

Музыка да, хороша (скоростной спидо-павер с проговыми элементами), а вот неприятный клоунский (ну ок, театральный) вокал (или, что тоже немаловажно, хреново записанный), всё портит :fingal:
Но парочка вещей очень даже и с таким вокалом понравилась. В частности "Empty Tomb" и немного "Its Not To Late".
Строго рекомендовано к прослушиванию Анатолию Приватиру :meloman:

Без оценки.

mirror: F-Bit l Narod

phpBB [youtube]

_________________


Top
 Profile E-mail  
 
 
PostPosted: 29 Jun 2013 
Работнечег
User avatar
Joined: 28 Aug 2007
Posts: 5409
Lоcаtion: г. Москва
Age: 29
Name: Дима
У меня если что, тоже есть диск, но смогу рипнуть наверное нескоро, пока итак накопилось, чего выкладывать из запросов.


Top
 Profile E-mail  
 
 
PostPosted: 29 Jun 2013 
\m/ 80 см сала \m/
User avatar
Joined: 12 Mar 2012
Posts: 2588
Age: 25
Name: Nick
church, "У нас никто никуда не спешит" :benya:
Главное, что уже есть минимум два потенциальных источника, которые в будущем могут сделать рип. В общем, ждем и надеемся :thanx:

_________________
1990 AUROPHON BRAINSTORM (Germany) - lossless
1994 MAUSOLEUM CLASSIX (Belgium-Germany) - lossless
1998 VA - GRIM HARVEST - Complete Metal Massacre Volumes I-XII


Top
 Profile  
 
 
PostPosted: 27 Oct 2013 
Работнечег
User avatar
Joined: 28 Aug 2007
Posts: 5409
Lоcаtion: г. Москва
Age: 29
Name: Дима
Image


Label: Retroactive Records
Genre: Power Metal
Country: USA
Format: Flac + Log + Cue + Covers
Size: 449 Mb

Line-Up:
Adam Alvarez - Bass, Vocals (ex-Golgatha, ex-Regime)
Jim Maxwell - Drums (ex-The Gentiles)
Vic Sardon - Guitars
Chris Price - Guitars
Michael Brueck - Vocals


Tracklist:
1. Valor 04:53
2. The Flesh Is Weak 04:07
3. Fight For Your Life 03:40
4. Empty Tomb 04:58
5. Didn't I 04:15
6. It's Not Too Late 05:39
7. Accept Him 01:06
8. Masquerade 04:05
9. Burn 06:24
as Golgatha
10. Prisoner 02:35
11. Cry Of The Heathen 02:28
12. Follow Me 04:25
13. At The Foot Of The Cross 03:11
14. Living On The Edge Of The Night (live) 02:55
15. Cry Of The Heathen (live) 02:29
16. The Mark/Day Of The Lord (live) 09:19
17. Turn Or Burn (live, instrumental) 02:27
18. Runner (live) 04:07

LOG
Exact Audio Copy V0.99 prebeta 5 from 4. May 2009

EAC extraction logfile from 26. October 2013, 14:06

Valor/Golgotha / Fight For Your Life

Used drive : PIONEER DVD-RW DVR-116D Adapter: 0 ID: 0

Read mode : Secure
Utilize accurate stream : Yes
Defeat audio cache : Yes
Make use of C2 pointers : No

Read offset correction : 96
Overread into Lead-In and Lead-Out : No
Fill up missing offset samples with silence : Yes
Delete leading and trailing silent blocks : No
Null samples used in CRC calculations : Yes
Used interface : Native Win32 interface for Win NT & 2000

Used output format : User Defined Encoder
Selected bitrate : 32 kBit/s
Quality : High
Add ID3 tag : No
Command line compressor : C:\Program Files\Exact Audio Copy\Flac\flac.exe
Additional command line options : -6 -V %s


TOC of the extracted CD

Track | Start | Length | Start sector | End sector
---------------------------------------------------------
1 | 0:00.00 | 4:46.04 | 0 | 21453
2 | 4:46.04 | 4:03.22 | 21454 | 39700
3 | 8:49.26 | 2:36.69 | 39701 | 51469
4 | 11:26.20 | 4:49.23 | 51470 | 73167
5 | 16:15.43 | 4:11.21 | 73168 | 92013
6 | 20:26.64 | 5:35.31 | 92014 | 117169
7 | 26:02.20 | 1:05.20 | 117170 | 122064
8 | 27:07.40 | 4:00.30 | 122065 | 140094
9 | 31:07.70 | 6:18.05 | 140095 | 168449
10 | 37:26.00 | 2:34.39 | 168450 | 180038
11 | 40:00.39 | 2:28.15 | 180039 | 191153
12 | 42:28.54 | 4:24.70 | 191154 | 211023
13 | 46:53.49 | 3:11.09 | 211024 | 225357
14 | 50:04.58 | 2:55.02 | 225358 | 238484
15 | 52:59.60 | 2:28.45 | 238485 | 249629
16 | 55:28.30 | 9:18.61 | 249630 | 291540
17 | 64:47.16 | 2:27.23 | 291541 | 302588
18 | 67:14.39 | 4:07.19 | 302589 | 321132


Range status and errors

Selected range

Filename D:\Музыка\Lossless\Valor - Fight For Your Life (1988) (Re-released In 2004)\Valor - Fight For Your Life.wav

Peak level 100.0 %
Range quality 99.9 %
Copy CRC 377A3998
Copy OK

No errors occurred


AccurateRip summary

Track 1 accurately ripped (confidence 2) [1008C8CD]
Track 2 accurately ripped (confidence 2) [6EAC5AE4]
Track 3 accurately ripped (confidence 2) [F94C1705]
Track 4 accurately ripped (confidence 2) [C87091BC]
Track 5 accurately ripped (confidence 2) [EED5D258]
Track 6 accurately ripped (confidence 2) [51428C27]
Track 7 accurately ripped (confidence 2) [892F8ED6]
Track 8 accurately ripped (confidence 2) [3E700FAE]
Track 9 accurately ripped (confidence 2) [7CED9861]
Track 10 accurately ripped (confidence 2) [08E48676]
Track 11 accurately ripped (confidence 2) [C91D8220]
Track 12 accurately ripped (confidence 2) [D67BD2B8]
Track 13 accurately ripped (confidence 2) [F3C2F2E3]
Track 14 accurately ripped (confidence 2) [C1626195]
Track 15 accurately ripped (confidence 2) [2A35D04D]
Track 16 accurately ripped (confidence 2) [010187F2]
Track 17 accurately ripped (confidence 2) [1141248D]
Track 18 accurately ripped (confidence 2) [211D2657]

All tracks accurately ripped

End of status report

CUE
REM GENRE "Heavy/Power Metal"
REM DATE 1988
REM DISCID 0E10B912
REM COMMENT "ExactAudioCopy v0.99pb5"
PERFORMER "Valor/Golgotha"
TITLE "Fight For Your Life"
FILE "Valor - Fight For Your Life.flac" WAVE
TRACK 01 AUDIO
TITLE "Valor"
PERFORMER "Valor/Golgotha"
FLAGS DCP
INDEX 01 00:00:00
TRACK 02 AUDIO
TITLE "The Flesh Is Weak"
PERFORMER "Valor/Golgotha"
FLAGS DCP
INDEX 01 04:46:04
TRACK 03 AUDIO
TITLE "Fight For Your Life"
PERFORMER "Valor/Golgotha"
FLAGS DCP
INDEX 01 08:49:26
TRACK 04 AUDIO
TITLE "Empty Tomb"
PERFORMER "Valor/Golgotha"
FLAGS DCP
INDEX 01 11:26:20
TRACK 05 AUDIO
TITLE "Didn't I"
PERFORMER "Valor/Golgotha"
FLAGS DCP
INDEX 01 16:15:43
TRACK 06 AUDIO
TITLE "It's Not To Late"
PERFORMER "Valor/Golgotha"
FLAGS DCP
INDEX 01 20:26:64
TRACK 07 AUDIO
TITLE "Accept Him"
PERFORMER "Valor/Golgotha"
FLAGS DCP
INDEX 01 26:02:20
TRACK 08 AUDIO
TITLE "Masquerade"
PERFORMER "Valor/Golgotha"
FLAGS DCP
INDEX 01 27:07:40
TRACK 09 AUDIO
TITLE "Burn"
PERFORMER "Valor/Golgotha"
FLAGS DCP
INDEX 01 31:07:70
TRACK 10 AUDIO
TITLE "Prisoner"
PERFORMER "Valor/Golgotha"
FLAGS DCP
INDEX 01 37:26:00
TRACK 11 AUDIO
TITLE "Cry Of The Heathen"
PERFORMER "Valor/Golgotha"
FLAGS DCP
INDEX 01 40:00:39
TRACK 12 AUDIO
TITLE "Follow Me"
PERFORMER "Valor/Golgotha"
FLAGS DCP
INDEX 01 42:28:54
TRACK 13 AUDIO
TITLE "At The Foot Of The Cross"
PERFORMER "Valor/Golgotha"
FLAGS DCP
INDEX 01 46:53:49
TRACK 14 AUDIO
TITLE "Living On The Edge Of The Night (Live)"
PERFORMER "Valor/Golgotha"
FLAGS DCP
INDEX 01 50:04:58
TRACK 15 AUDIO
TITLE "Cry Of The Heathen (Live)"
PERFORMER "Valor/Golgotha"
FLAGS DCP
INDEX 01 52:59:60
TRACK 16 AUDIO
TITLE "The Mask/Day Of The Lord (Live)"
PERFORMER "Valor/Golgotha"
FLAGS DCP
INDEX 01 55:28:30
TRACK 17 AUDIO
TITLE "Turn Or Burn (Live)"
PERFORMER "Valor/Golgotha"
FLAGS DCP
INDEX 01 64:47:16
TRACK 18 AUDIO
TITLE "Runner (Live)"
PERFORMER "Valor/Golgotha"
FLAGS DCP
INDEX 01 67:14:39


FLAC


Top
 Profile E-mail  
 
 
PostPosted: 27 Oct 2013 
\m/ 80 см сала \m/
User avatar
Joined: 12 Mar 2012
Posts: 2588
Age: 25
Name: Nick
Дим, спасибо :thanx:
p.s. "Warhead - The Day After" и "Wildfire - Brute Force And Ignorance" случайно в закромах не имеется? Ищу оба альбома в переиздании Мавзолея от 1994 года.

_________________
1990 AUROPHON BRAINSTORM (Germany) - lossless
1994 MAUSOLEUM CLASSIX (Belgium-Germany) - lossless
1998 VA - GRIM HARVEST - Complete Metal Massacre Volumes I-XII


Top
 Profile  
 
 
PostPosted: 27 Oct 2013 
Работнечег
User avatar
Joined: 28 Aug 2007
Posts: 5409
Lоcаtion: г. Москва
Age: 29
Name: Дима
p.s. "Warhead - The Day After" и "Wildfire - Brute Force And Ignorance" случайно в закромах не имеется? Ищу оба альбома в переиздании Мавзолея от 1994 года.

неа, этого нет)


Top
 Profile E-mail  
 
 
PostPosted: 28 Oct 2013 
А может смените мне статус?..
User avatar
Joined: 24 Dec 2008
Posts: 614
Age: 44
Name: Дмитрий
Дима, спасибо за Valor! :true:


Top
 Profile  
 
 
PostPosted: 28 Oct 2013 
Труъ
User avatar
Joined: 27 Feb 2009
Posts: 185
Lоcаtion: Питер
Age: 51
Name: Олег
Отличный альбом :thanx:


Top
 Profile  
 
 
PostPosted: 31 Oct 2013 
Old Time Rock`n`Roll
User avatar
Joined: 23 Jun 2008
Posts: 3354
Lоcаtion: г.Ульяновск
Age: 40
Name: Константин
:thanx:


Top
 Profile  
 
 
PostPosted: 01 Nov 2013 
Хиппей (support team)
User avatar
Joined: 30 Jul 2007
Posts: 106329
Lоcаtion: Киев (Kyiv, UA)
Age: 45
Name: Andrey
:thanx:

_________________


Top
 Profile E-mail  
 
Display posts from previous:  Sort by  
Post new topic Reply to topic  [ 36 posts ]  Go to page Previous  1, 2

All times are UTC + 3 hours


Who is online

Users browsing this forum: No registered users and 3 guests


You cannot post new topics in this forum
You cannot reply to topics in this forum
You cannot edit your posts in this forum
You cannot delete your posts in this forum
You cannot post attachments in this forum

Search for:
Яндекс.Метрика
cron
Powered by phpBB © 2000, 2002, 2005, 2007 phpBB Group