\m/ 80's metal \m/

Информационно-аналитический форум "80 см пыли" (In Search We Trust) "У нас никто никуда не спешит"
Me For You - http://me-4u.com
It is currently 06 Jun 2020

All times are UTC + 3 hours

Spoiler
Chat - temporary registration for foreign users (please leave your application here)







Post new topic Reply to topic  [ 21 posts ]  Go to page 1, 2  Next
Author Message
 
PostPosted: 29 Apr 2013 
Труъ
User avatar
Joined: 08 Jul 2009
Posts: 140
Name: Hermes
Image

Tracks
1. Make My Stand
2. Free As The Wind
3. Country Line / Shine a Light
4. Higher Ground
5. Way Down
6. Leave Me Behind
7. Mr. Joker
8. Heart Like a Stone
9. Easy Street

_________________
The Kids Will Rock, So Let Them Rockkkkkkkkkk!!!!


Top
 Profile E-mail  
 
 
PostPosted: 11 Mar 2014 
Rara avis
User avatar
Joined: 27 Jan 2009
Posts: 5617
Name: .
Расскажите мне об этом сайте. Там можно скачивать мп3? Платно - бесплатно?
http://easymusicdownload.com/The-Bloodh ... 84389.html


Top
 Profile E-mail  
 
 
PostPosted: 08 Mar 2017 
Работнечег
User avatar
Joined: 28 Aug 2007
Posts: 6260
Lоcаtion: г. Москва
Age: 31
Name: Дима
Тут, я так понял покупаешь доступ на полгода или год и качаешь сколько влезет


Top
 Profile E-mail  
 
 
PostPosted: 18 Apr 2019 
Rara avis
User avatar
Joined: 27 Jan 2009
Posts: 5617
Name: .
Можно попробовать купить - https://page.auctions.yahoo.co.jp/jp/auction/242517526

Можно написать:
Darren Foley - https://www.facebook.com/darren.foley.792
Larry Hogard - https://www.facebook.com/larry.hogard/t ... 1555591681
Mike Larocque - https://www.facebook.com/mikey.larocque.9


Top
 Profile E-mail  
 
 
PostPosted: 18 Apr 2019 
Хиппей (support team)
User avatar
Joined: 30 Jul 2007
Posts: 118691
Lоcаtion: Киев (Kyiv, UA)
Age: 46
Name: Andrey
Это они же? :arrow: https://www.deezer.com/ru/artist/483275

_________________


Top
 Profile E-mail  
 
 
PostPosted: 18 Apr 2019 
Хиппей (support team)
User avatar
Joined: 30 Jul 2007
Posts: 118691
Lоcаtion: Киев (Kyiv, UA)
Age: 46
Name: Andrey
Кстати, и это наш формат :arrow: https://www.deezer.com/ru/album/61397672
Хоть и с альтернативкой в саунде :pardon:

_________________


Top
 Profile E-mail  
 
 
PostPosted: 18 Apr 2019 
Хиппей (support team)
User avatar
Joined: 30 Jul 2007
Posts: 118691
Lоcаtion: Киев (Kyiv, UA)
Age: 46
Name: Andrey
По-моему это неформат для форума :arrow: http://melodic-hardrock.com/the-bloodho ... unds-1992/

_________________


Top
 Profile E-mail  
 
 
PostPosted: 18 Apr 2019 
Хиппей (support team)
User avatar
Joined: 30 Jul 2007
Posts: 118691
Lоcаtion: Киев (Kyiv, UA)
Age: 46
Name: Andrey
Image Image Image

_________________


Top
 Profile E-mail  
 
 
PostPosted: 18 Apr 2019 
Хиппей (support team)
User avatar
Joined: 30 Jul 2007
Posts: 118691
Lоcаtion: Киев (Kyiv, UA)
Age: 46
Name: Andrey
Расскажите мне об этом сайте. Там можно скачивать мп3? Платно - бесплатно?
http://easymusicdownload.com/The-Bloodh ... 84389.html

По-моему там даже платно ничего не получится скачать из песенок тех.

_________________


Top
 Profile E-mail  
 
 
PostPosted: 18 Apr 2019 
Rara avis
User avatar
Joined: 27 Jan 2009
Posts: 5617
Name: .
Написала Larry Hogard


Top
 Profile E-mail  
 
 
PostPosted: 19 Apr 2019 
Хиппей (support team)
User avatar
Joined: 30 Jul 2007
Posts: 118691
Lоcаtion: Киев (Kyiv, UA)
Age: 46
Name: Andrey
:kro:

_________________


Top
 Profile E-mail  
 
 
PostPosted: 23 Apr 2019 
Работнечег
User avatar
Joined: 28 Aug 2007
Posts: 6260
Lоcаtion: г. Москва
Age: 31
Name: Дима
Будет когда-нибудь, Mike пообещал выслать мне диск :true:


Top
 Profile E-mail  
 
 
PostPosted: 23 Apr 2019 
Rara avis
User avatar
Joined: 27 Jan 2009
Posts: 5617
Name: .
Отличные новости!


Top
 Profile E-mail  
 
 
PostPosted: 23 Apr 2019 
Хиппей (support team)
User avatar
Joined: 30 Jul 2007
Posts: 118691
Lоcаtion: Киев (Kyiv, UA)
Age: 46
Name: Andrey
Будет когда-нибудь, Mike пообещал выслать мне диск :true:

Какой он милашка :kro:

Неужто тот самый коммунизьм наступил? :cry:

_________________


Top
 Profile E-mail  
 
 
PostPosted: 24 Apr 2019 
Работнечег
User avatar
Joined: 28 Aug 2007
Posts: 6260
Lоcаtion: г. Москва
Age: 31
Name: Дима
Ну не бесплатно, за пересылку придется заплатить :crazy:


Top
 Profile E-mail  
 
 
PostPosted: 25 Apr 2019 
Хиппей (support team)
User avatar
Joined: 30 Jul 2007
Posts: 118691
Lоcаtion: Киев (Kyiv, UA)
Age: 46
Name: Andrey
Эээ, это не дело. Мне и пересылку оплачивали.
Чё ему, сложно, шоле? :vic:

_________________


Top
 Profile E-mail  
 
 
PostPosted: 07 Nov 2019 
Rara avis
User avatar
Joined: 27 Jan 2009
Posts: 5617
Name: .
Дима, диск пришёл?


Top
 Profile E-mail  
 
 
PostPosted: 08 Nov 2019 
Работнечег
User avatar
Joined: 28 Aug 2007
Posts: 6260
Lоcаtion: г. Москва
Age: 31
Name: Дима
Диск пришёл, уже всё рипнуто, осталось послушать и выложить)


Top
 Profile E-mail  
 
 
PostPosted: 08 Nov 2019 
Хиппей (support team)
User avatar
Joined: 30 Jul 2007
Posts: 118691
Lоcаtion: Киев (Kyiv, UA)
Age: 46
Name: Andrey
church wrote:
осталось послушать и выложить

Во!
Вот уважуха Димке всегда, который слушает музыку и рип, прежде чем выложить его :thanx: :lob: :lob: :lob:

_________________


Top
 Profile E-mail  
 
 
PostPosted: 20 Apr 2020 
Работнечег
User avatar
Joined: 28 Aug 2007
Posts: 6260
Lоcаtion: г. Москва
Age: 31
Name: Дима
Image

Year: 1992
Label: Self-released
Country: Canada
Bitrate: Flac + Cue + Log + Covers
Size: 239 Mb

Line-Up:
Darren Foley - Lead Vocals, Harmonica, Electric and Acoustic guitars
Larry Hogard - Electric and Acoustic guitars, Back Vocals
Mike Larocque - Drums
Kevin Roy - Bass


Tracklist:
1. Make My Stand
2. Free As The Wind
3. Country Line / Shine a Light
4. Higher Ground
5. Way Down
6. Leave Me Behind
7. Mr. Joker
8. Heart Like a Stone
9. Easy Street

LOG
Exact Audio Copy V1.3 from 2. September 2016

EAC extraction logfile from 13. October 2019, 19:53

The Bloodhounds / The Bloodhounds

Used drive : PIONEER DVD-RW DVR-221 Adapter: 1 ID: 0

Read mode : Secure
Utilize accurate stream : Yes
Defeat audio cache : Yes
Make use of C2 pointers : No

Read offset correction : 6
Overread into Lead-In and Lead-Out : No
Fill up missing offset samples with silence : Yes
Delete leading and trailing silent blocks : No
Null samples used in CRC calculations : Yes
Used interface : Native Win32 interface for Win NT & 2000

Used output format : User Defined Encoder
Selected bitrate : 768 kBit/s
Quality : High
Add ID3 tag : No
Command line compressor : C:\Program Files (x86)\Exact Audio Copy\FLAC\FLAC.EXE
Additional command line options : -6 -V -T "ARTIST=%artist%" -T "TITLE=%title%" -T "ALBUM=%albumtitle%" -T "DATE=%year%" -T "TRACKNUMBER=%tracknr%" -T "GENRE=%genre%" -T "COMMENT=%comment%" -T "BAND=%albuminterpret%" -T "ALBUMARTIST=%albuminterpret%" -T "COMPOSER=%composer%" %haslyrics%--tag-from-file=LYRICS="%lyricsfile%"%haslyrics% -T "DISCNUMBER=%cdnumber%" -T "TOTALDISCS=%totalcds%" -T "TOTALTRACKS=%numtracks%" %hascover%--picture="%coverfile%"%hascover% %source% -o %dest%


TOC of the extracted CD

Track | Start | Length | Start sector | End sector
---------------------------------------------------------
1 | 0:00.32 | 4:13.65 | 32 | 19071
2 | 4:14.22 | 4:50.03 | 19072 | 40824
3 | 9:04.25 | 5:31.72 | 40825 | 65721
4 | 14:36.22 | 3:56.33 | 65722 | 83454
5 | 18:32.55 | 4:25.20 | 83455 | 103349
6 | 22:58.00 | 4:54.65 | 103350 | 125464
7 | 27:52.65 | 3:09.10 | 125465 | 139649
8 | 31:02.00 | 5:25.15 | 139650 | 164039
9 | 36:27.15 | 4:42.17 | 164040 | 185206


Range status and errors

Selected range

Filename D:\Музыка\Lossless\The Bloodhounds - The Bloodhounds (1992)\The Bloodhounds - The Bloodhounds.wav

Peak level 97.6 %
Extraction speed 5.5 X
Range quality 99.9 %
Copy CRC 389A091F
Copy OK

No errors occurred


AccurateRip summary

Track 1 not present in database
Track 2 not present in database
Track 3 not present in database
Track 4 not present in database
Track 5 not present in database
Track 6 not present in database
Track 7 not present in database
Track 8 not present in database
Track 9 not present in database

None of the tracks are present in the AccurateRip database

End of status report

---- CUETools DB Plugin V2.1.6

[CTDB TOCID: AdLtOItg6NmkAd9T9m6IeHKlWD8-] database access error: Невозможно разрешить удаленное имя: 'db.cuetools.net'

CUE
REM GENRE Rock
REM DATE 1992
REM DISCID 8109A509
REM COMMENT "ExactAudioCopy v1.3"
PERFORMER "The Bloodhounds"
TITLE "The Bloodhounds"
REM COMPOSER ""
FILE "The Bloodhounds - The Bloodhounds.flac" WAVE
TRACK 01 AUDIO
TITLE "Make My Stand"
PERFORMER "The Bloodhounds"
REM COMPOSER ""
INDEX 00 00:00:00
INDEX 01 00:00:32
TRACK 02 AUDIO
TITLE "Free As The Wind"
PERFORMER "The Bloodhounds"
REM COMPOSER ""
INDEX 00 04:10:72
INDEX 01 04:14:22
TRACK 03 AUDIO
TITLE "County Line/Shine A Light"
PERFORMER "The Bloodhounds"
REM COMPOSER ""
INDEX 00 08:59:20
INDEX 01 09:04:25
TRACK 04 AUDIO
TITLE "Higher Ground"
PERFORMER "The Bloodhounds"
REM COMPOSER ""
INDEX 00 14:32:47
INDEX 01 14:36:22
TRACK 05 AUDIO
TITLE "Way Down"
PERFORMER "The Bloodhounds"
REM COMPOSER ""
INDEX 00 18:29:05
INDEX 01 18:32:55
TRACK 06 AUDIO
TITLE "Leave Me Behind"
PERFORMER "The Bloodhounds"
REM COMPOSER ""
INDEX 00 22:54:37
INDEX 01 22:58:00
TRACK 07 AUDIO
TITLE "Mr. Joker"
PERFORMER "The Bloodhounds"
REM COMPOSER ""
INDEX 00 27:49:30
INDEX 01 27:52:65
TRACK 08 AUDIO
TITLE "Heart Like A Stone"
PERFORMER "The Bloodhounds"
REM COMPOSER ""
INDEX 00 30:58:15
INDEX 01 31:02:00
TRACK 09 AUDIO
TITLE "Easy Street"
PERFORMER "The Bloodhounds"
REM COMPOSER ""
INDEX 00 36:23:45
INDEX 01 36:27:15


Yadi

А неплохой альбом, довольно легковесный, и клавиши местами есть, но при этом слушается легко и даже хочется переслушать. Мне понравилось, альтернативы я бы сказал тут нет. Спасибо драммеру за диск!


Top
 Profile E-mail  
 
Display posts from previous:  Sort by  
Post new topic Reply to topic  [ 21 posts ]  Go to page 1, 2  Next

All times are UTC + 3 hours


Who is online

Users browsing this forum: No registered users and 2 guests


You cannot post new topics in this forum
You cannot reply to topics in this forum
You cannot edit your posts in this forum
You cannot delete your posts in this forum
You cannot post attachments in this forum

Search for:
Яндекс.Метрика
Powered by phpBB © 2000, 2002, 2005, 2007 phpBB Group