\m/ 80's metal \m/

Информационно-аналитический форум "80 см пыли" (In Search We Trust) "У нас никто никуда не спешит"
Me For You - http://me-4u.com
It is currently 25 Sep 2018

All times are UTC + 3 hours

Spoiler
Chat - temporary registration for foreign users (please leave your application here)







Post new topic Reply to topic  [ 21 posts ]  Go to page 1, 2  Next
Author Message
 
PostPosted: 28 Feb 2011 
адын фелософъ прокметолу
User avatar
Joined: 22 Oct 2009
Posts: 2689
Lоcаtion: Сочи
Age: 41
Name: Сергей
> Осталось найти: | Still looking:
Shoggoth (Ita) - Shoggoth 1990
Shoggoth (Ita) - Esprit Nouveau 1995


В поиске ещё один раритетный прогрессив.
На этот раз ищется дискография группы Shoggoth (Italia)
Shoggoth (Ita) - Shoggoth 1990
Image
1. The Living Story 07:12
2. No Surrender 07:13
3. Tre 09:59
4. Disaster 05:38
5. Odi et Amo 07:47
6. Paradise on Earth 11:50
7. Wizard - The Other Face of the Moon 11:11
8. Hero's Dream 08:28
9. Shoggoth 05:15
Shoggoth (Ita) - Pastpresent 1993
Image
1. Friends 08:10
2. Kensington Palace Garden 05:53
3. Eagle's Fallin' 04:47
4. Ladyhawke 06:10
5. Fire In The Temple 03:54
6. Man In The City 06:22
7. Promenade 08:19
8. Maniac On The 13th Avenue 04:06
9. Dimension Zero 08:51
10. Tuareg 07:35
Shoggoth (Ita) - Esprit Nouveau 1995
Image
1. Searching For E.N. 00:41
2. Avantgarde 03:40
3. High In The Sky 06:24
4. Esprit Nouveau 05:18
5. Virtual Cubisme 08:04
6. More Time 05:49
7. Right To The Conscience Of Art 04:56
8. Nature And Creation (Part 1 - 5) 10:07
Shoggoth (Ita) - Combination 1998 найден
Image
1. Combination (Tracks 1-7) : Intro 02:10
2. Mark 05:04
3. Jack 03:27
4. Tommy 05:10
5. The Dance Of The Voltures 04:21
6. Different Eyes 04:17
7. Epilogue 04:24
8. Rage 04:54
9. 2112 06:25
10. Reason 08:13
потихоньку качается с ослика
Image

_________________
А теперь ... клоунов и стриптизёрш!


Last edited by wizard12 on 28 Feb 2011, edited 2 times in total.

Top
 Profile E-mail  
 
 
PostPosted: 28 Feb 2011 
адын фелософъ прокметолу
User avatar
Joined: 22 Oct 2009
Posts: 2689
Lоcаtion: Сочи
Age: 41
Name: Сергей
Прочитал о них комментарии музыка похожа на Rush
Если на мп3 попадётся то битрейт желательно выше 128 А если в лосе то оно и лучше
:thanx:

_________________
А теперь ... клоунов и стриптизёрш!


Top
 Profile E-mail  
 
 
PostPosted: 28 Feb 2011 
хард н хэвщик (support team)
User avatar
Joined: 02 Jun 2008
Posts: 16880
Lоcаtion: Н.Новгород
Age: 31
Name: Артем
wizard12 wrote:
Shoggoth (Ita) - Combination 1998

лосик : http://lossless-galaxy.ru/inostr/inostr ... -1998.html (thanks Олегу spiralarch :thanx: )
мп3 : http://metalarea.org/forum/index.php?s= ... ntry880705


Top
 Profile  
 
 
PostPosted: 28 Feb 2011 
хард н хэвщик (support team)
User avatar
Joined: 02 Jun 2008
Posts: 16880
Lоcаtion: Н.Новгород
Age: 31
Name: Артем
хм, все альбомы (за исключением первого, изданного только на виниле(?)) - недорогие, на ебае можно найти за 4-5 евро, а бесплатных ссылочек на скачивание - и нету :vic:


Top
 Profile  
 
 
PostPosted: 28 Feb 2011 
адын фелософъ прокметолу
User avatar
Joined: 22 Oct 2009
Posts: 2689
Lоcаtion: Сочи
Age: 41
Name: Сергей
:thanx:

_________________
А теперь ... клоунов и стриптизёрш!


Top
 Profile E-mail  
 
 
PostPosted: 12 Dec 2014 
Rara avis
User avatar
Joined: 27 Jan 2009
Posts: 4561
Name: .
https://www.youtube.com/user/vinzoso/videos


Top
 Profile E-mail  
 
 
PostPosted: 12 Dec 2014 
Хиппей (support team)
User avatar
Joined: 30 Jul 2007
Posts: 106547
Lоcаtion: Киев (Kyiv, UA)
Age: 45
Name: Andrey
Ага, 1993-й год весь на Ютубе есть. Значит лежит он где-то и в мп3 :dance:

_________________


Top
 Profile E-mail  
 
 
PostPosted: 12 Dec 2014 
Работнечег
User avatar
Joined: 28 Aug 2007
Posts: 5409
Lоcаtion: г. Москва
Age: 29
Name: Дима
Можно сказать незадорого альбомы можно купить)
http://www.discogs.com/artist/3045286-Shoggoth-2


Top
 Profile E-mail  
 
 
PostPosted: 12 Dec 2014 
Хиппей (support team)
User avatar
Joined: 30 Jul 2007
Posts: 106547
Lоcаtion: Киев (Kyiv, UA)
Age: 45
Name: Andrey
Да можно то, можно. Но наш ли это метод? :lloo:

_________________


Top
 Profile E-mail  
 
 
PostPosted: 12 Dec 2014 
Хиппей (support team)
User avatar
Joined: 30 Jul 2007
Posts: 106547
Lоcаtion: Киев (Kyiv, UA)
Age: 45
Name: Andrey
Сидиэрки, шоле? :arrow: http://www.discogs.com/label/345772-Zasko-Lab

_________________


Top
 Profile E-mail  
 
 
PostPosted: 25 Feb 2015 
адын фелософъ прокметолу
User avatar
Joined: 22 Oct 2009
Posts: 2689
Lоcаtion: Сочи
Age: 41
Name: Сергей
Shoggoth (Ita) - Pastpresent 1993
Image
Genre: progressive rock/metal
Origin: Italia
Contents: flac/cue/log/scans
Size: 473 MB

Tracklist:
1. Friends 08:10
2. Kensington Palace Garden 05:53
3. Eagle's Fallin' 04:47
4. Ladyhawke 06:10
5. Fire In The Temple 03:54
6. Man In The City 06:22
7. Promenade 08:19
8. Maniac On The 13th Avenue 04:06
9. Dimension Zero 08:51
10. Tuareg 07:35

Lineup:
Daniele Droghetti -Drums
Francesco Runci - Guitars
Gianni Caroppi - Vocals, Bass, Keyboards

log
Exact Audio Copy V1.0 beta 3 from 29. August 2011

Отчёт EAC об извлечении, выполненном 25. февраля 2015, 20:52

Shoggoth / Pastpresent

Дисковод: Optiarc DVD RW AD-7241S Adapter: 0 ID: 0

Режим чтения : Достоверность
Использование точного потока : Да
Отключение кэша аудио : Да
Использование указателей C2 : Нет

Коррекция смещения при чтении : 48
Способность читать области Lead-in и Lead-out : Нет
Заполнение пропущенных сэмплов тишиной : Да
Удаление блоков с тишиной в начале и конце : Нет
При вычислениях CRC использовались нулевые сэмплы : Да
Интерфейс : Встроенный Win32-интерфейс для Win NT/2000

Выходной формат : Внутренние WAV-операции
Формат сэмплов : 44.100 Гц; 16 бит; стерео


TOC извлечённого CD

Трек | Старт | Длительность | Начальный сектор | Конечный сектор
---------------------------------------------------------------------
1 | 0:00.00 | 8:10.02 | 0 | 36751
2 | 8:10.02 | 5:53.70 | 36752 | 63296
3 | 14:03.72 | 4:47.13 | 63297 | 84834
4 | 18:51.10 | 6:10.20 | 84835 | 112604
5 | 25:01.30 | 3:54.10 | 112605 | 130164
6 | 28:55.40 | 6:22.40 | 130165 | 158854
7 | 35:18.05 | 8:19.30 | 158855 | 196309
8 | 43:37.35 | 4:06.42 | 196310 | 214801
9 | 47:44.02 | 8:51.30 | 214802 | 254656
10 | 56:35.32 | 7:35.43 | 254657 | 288824


Характеристики диапазона извлечения и сообщения об ошибках

Выбранный диапазон

Имя файла I:\Loseless\Shoggoth - Pastpresent.wav

Пиковый уровень 100.0 %
Скорость извлечения 4.1 X
Качество диапазона 100.0 %
CRC копии B0AE2A4E
Копирование... OK

Ошибок не произошло

Конец отчёта


cue
REM GENRE "Progressive Rock"
REM DATE 1993
REM DISCID 880F0B0A
REM COMMENT "ExactAudioCopy v1.0b3"
PERFORMER "Shoggoth"
TITLE "Pastpresent"
FILE "Shoggoth - Pastpresent.wav" WAVE
TRACK 01 AUDIO
TITLE "Friends"
PERFORMER "Shoggoth"
INDEX 01 00:00:00
TRACK 02 AUDIO
TITLE "Kensighton Palace Garden"
PERFORMER "Shoggoth"
INDEX 01 08:10:02
INDEX 02 12:55:32
TRACK 03 AUDIO
TITLE "Eagle's Fallin'"
PERFORMER "Shoggoth"
INDEX 01 14:03:72
TRACK 04 AUDIO
TITLE "Ladyhawke"
PERFORMER "Shoggoth"
INDEX 01 18:51:10
TRACK 05 AUDIO
TITLE "Fire In The Themple"
PERFORMER "Shoggoth"
INDEX 01 25:01:30
TRACK 06 AUDIO
TITLE "Man In The Sity"
PERFORMER "Shoggoth"
INDEX 01 28:55:40
TRACK 07 AUDIO
TITLE "Promenade"
PERFORMER "Shoggoth"
INDEX 01 35:18:05
TRACK 08 AUDIO
TITLE "Maniac On The 13th Avenue"
PERFORMER "Shoggoth"
INDEX 01 43:37:35
TRACK 09 AUDIO
TITLE "Dimension Zero"
PERFORMER "Shoggoth"
INDEX 01 47:44:02
TRACK 10 AUDIO
TITLE "Tuareg"
PERFORMER "Shoggoth"
INDEX 01 56:35:32


Так потихоньку собираем коллекцию этой итальянской группы
Просьба к Олегу - пусть лосик 1998 года тоже будет здесь :thanx:
А когда закончится кризис - разживёмся и альбомом 1995 года :pardon:

_________________
А теперь ... клоунов и стриптизёрш!


Last edited by wizard12 on 25 Feb 2015, edited 1 time in total.

Top
 Profile E-mail  
 
 
PostPosted: 25 Feb 2015 
BANNED
User avatar
Joined: 23 Jul 2012
Posts: 682
Name: Владимир
http://yandex.ru/clck/jsredir?from=yand ... 2188131013


Top
 Profile E-mail  
 
 
PostPosted: 25 Feb 2015 
Хиппей (support team)
User avatar
Joined: 30 Jul 2007
Posts: 106547
Lоcаtion: Киев (Kyiv, UA)
Age: 45
Name: Andrey
wizard12 wrote:
Shoggoth (Ita) - Pastpresent 1993

:thanx:

mirror: Narod l M-Cloud

_________________


Top
 Profile E-mail  
 
 
PostPosted: 26 Feb 2015 
Прокъмитолист
User avatar
Joined: 12 Aug 2007
Posts: 6473
Lоcаtion: Санктъ-Петербуркъ
Age: 50
Name: Олекъ
спасибо, Серёга! :thanx: :true:

wizard12 wrote:
Просьба к Олегу - пусть лосик 1998 года тоже будет здесь

ты имеешь в виду, выложить здесь альбом 98-го? не вопрос, сделаеи.

_________________
прокъметол - это музыко, от которово есть прок (ы)


Top
 Profile  
 
 
PostPosted: 26 Feb 2015 
Прокъмитолист
User avatar
Joined: 12 Aug 2007
Posts: 6473
Lоcаtion: Санктъ-Петербуркъ
Age: 50
Name: Олекъ
Shoggoth [1998] Combination
Elevate Records ER01002

Image

Genre: progressive metal
Origin: Italy (Rome, Lazio)
Contents: flac/cue/log/scans
Size: 346 MB

Tracklist:
. . . Combination (1-7):
01... Intro
02... Mark
03... Jack
04... Tommy
05... The Dance Of The Voltures
06... Different Eyes
07... Epilogue
08. Rage
09. 2112 [Rush cover]
10. Reason

Playtime: 48:29

Lineup:
Gianni Caroppi - vocals, bass and keyboards
Francesco Runci - guitars and pedal bass
Daniele Droghetti - drums and percussion
******
Matteo Lentino - piano on 2, 6 & 7
Fortunato "Titto" Ceccarelli - rhythm jazz guitar on 7
Mauro Matteucci and Gianluca Di Benedetto - backing vocals

EAC log
Code:
Exact Audio Copy V0.99 prebeta 5 from 4. May 2009

EAC extraction logfile from 11. June 2010, 21:27

Shoggoth / Combination

Used drive  : Optiarc DVD RW AD-7240S   Adapter: 2  ID: 0

Read mode               : Secure
Utilize accurate stream : Yes
Defeat audio cache      : Yes
Make use of C2 pointers : No

Read offset correction                      : 48
Overread into Lead-In and Lead-Out          : No
Fill up missing offset samples with silence : Yes
Delete leading and trailing silent blocks   : No
Null samples used in CRC calculations       : Yes
Used interface                              : Native Win32 interface for Win NT & 2000

Used output format : Internal WAV Routines
Sample format      : 44.100 Hz; 16 Bit; Stereo


TOC of the extracted CD

     Track |   Start  |  Length  | Start sector | End sector
    ---------------------------------------------------------
        1  |  0:00.00 |  2:10.19 |         0    |     9768   
        2  |  2:10.19 |  5:04.53 |      9769    |    32621   
        3  |  7:14.72 |  3:27.21 |     32622    |    48167   
        4  | 10:42.18 |  5:10.45 |     48168    |    71462   
        5  | 15:52.63 |  4:21.71 |     71463    |    91108   
        6  | 20:14.59 |  4:17.53 |     91109    |   110436   
        7  | 24:32.37 |  4:24.46 |    110437    |   130282   
        8  | 28:57.08 |  4:54.16 |    130283    |   152348   
        9  | 33:51.24 |  6:25.31 |    152349    |   181254   
       10  | 40:16.55 |  8:13.05 |    181255    |   218234   


Range status and errors

Selected range

     Filename D:\spiralarch\Shoggoth - Combination.wav

     Peak level 97.5 %
     Range quality 100.0 %
     Copy CRC 818EFF33
     Copy OK

No errors occurred


AccurateRip summary

Track  1  not present in database
Track  2  not present in database
Track  3  not present in database
Track  4  not present in database
Track  5  not present in database
Track  6  not present in database
Track  7  not present in database
Track  8  not present in database
Track  9  not present in database
Track 10  not present in database

None of the tracks are present in the AccurateRip database

End of status report

Дубль моего релиза для ММТ.

_________________
прокъметол - это музыко, от которово есть прок (ы)


Top
 Profile  
 
 
PostPosted: 26 Feb 2015 
Хиппей (support team)
User avatar
Joined: 30 Jul 2007
Posts: 106547
Lоcаtion: Киев (Kyiv, UA)
Age: 45
Name: Andrey
wizard12 wrote:
Shoggoth (Ita) - Pastpresent 1993

Мдя...
Experimetal Metal с элементами хэви, павера, арт-рока в стилистике группы Rush и клоунско-шутовских (в прямом смысле) текстов и манеры исполнения вокалистом его же, кхм, вокальных партий :umnik:
В общем, явно группа очень любит творчество канадцев Rush.
Лишь три песни понравились - 5 (хитяра :true: ), 3-я и 10-я.
Остальное обычный авангардно-прогрессивный мусор, который слушать без ржания и иногда ушной боли трудновато мне.
Или я в очередной раз мало что понял :vic:

4/10

зы. Во втором трэке на 01:53 это что было? :shok: Что там тётка сказала? :oops:

_________________


Top
 Profile E-mail  
 
 
PostPosted: 26 Feb 2015 
Хиппей (support team)
User avatar
Joined: 30 Jul 2007
Posts: 106547
Lоcаtion: Киев (Kyiv, UA)
Age: 45
Name: Andrey
spiralarch wrote:
Shoggoth [1998] Combination

:thanx:

mirror: Narod l M-Cloud

_________________


Top
 Profile E-mail  
 
 
PostPosted: 26 Feb 2015 
Хиппей (support team)
User avatar
Joined: 30 Jul 2007
Posts: 106547
Lоcаtion: Киев (Kyiv, UA)
Age: 45
Name: Andrey
spiralarch wrote:
Shoggoth [1998] Combination

Мдя-2....
Ну точно не для моих ухов музыка... :cow:

_________________


Top
 Profile E-mail  
 
 
PostPosted: 26 Feb 2015 
Прокъмитолист
User avatar
Joined: 12 Aug 2007
Posts: 6473
Lоcаtion: Санктъ-Петербуркъ
Age: 50
Name: Олекъ
:lob:

_________________
прокъметол - это музыко, от которово есть прок (ы)


Top
 Profile  
 
 
PostPosted: 27 Feb 2015 
адын фелософъ прокметолу
User avatar
Joined: 22 Oct 2009
Posts: 2689
Lоcаtion: Сочи
Age: 41
Name: Сергей
Олег, спасибо :thanx:
наступят лучшие времена и появится здесь альбом 1995 года

_________________
А теперь ... клоунов и стриптизёрш!


Top
 Profile E-mail  
 
Display posts from previous:  Sort by  
Post new topic Reply to topic  [ 21 posts ]  Go to page 1, 2  Next

All times are UTC + 3 hours


Who is online

Users browsing this forum: No registered users and 1 guest


You cannot post new topics in this forum
You cannot reply to topics in this forum
You cannot edit your posts in this forum
You cannot delete your posts in this forum
You cannot post attachments in this forum

Search for:
Яндекс.Метрика
Powered by phpBB © 2000, 2002, 2005, 2007 phpBB Group