\m/ 80's metal \m/

Информационно-аналитический форум "80 см пыли" (In Search We Trust) "У нас никто никуда не спешит"
Me For You - http://me-4u.com
It is currently 21 Apr 2019

All times are UTC + 3 hours

Spoiler
Chat - temporary registration for foreign users (please leave your application here)







Post new topic Reply to topic  [ 10 posts ] 
Author Message
 
PostPosted: 03 Feb 2010 
хард н хэвщик (support team)
User avatar
Joined: 02 Jun 2008
Posts: 16881
Lоcаtion: Н.Новгород
Age: 32
Name: Артем
> Осталось найти: | Still looking:
Say (UK) - The Demos Volume One cassette tape


Image Image

A1. Heart Still Beats
A2. Doesn't Matter
A3. English Skies
A4. Come Back
A5. Sounion

B1. Higher
B2. Nobody Else
B3. No Misdemeanor
B4. Take It
B5. Right Here

Quote:
Quote:
No year of release listed (should be early 90's). UK AOR/Wescoast band like Toto and Mecca. 10 tracks. Hard to find!


Top
 Profile  
 
 
PostPosted: 03 Feb 2010 
А может смените мне статус?..
Joined: 23 Feb 2008
Posts: 723
Lоcаtion: ленинградская обл
Age: 59
Name: олег
все песни кроме двух есть в альбоме - 1992 - Heart Still Beats


Top
 Profile  
 
 
PostPosted: 10 Nov 2018 
Rara avis
User avatar
Joined: 27 Jan 2009
Posts: 4944
Name: .
Say - Heart Still Beats - 1992, APE (image+.cue), lossless - https://rutracker.org/forum/viewtopic.php?t=4213415

Mirror - https://yadi.sk/mail?hash=raxvbTZoj68eS ... =155099347


Top
 Profile E-mail  
 
 
PostPosted: 11 Nov 2018 
Хиппей (support team)
User avatar
Joined: 30 Jul 2007
Posts: 111745
Lоcаtion: Киев (Kyiv, UA)
Age: 45
Name: Andrey
:thanx:

Say - 1992 - Heart Still Beats [ape]

Image Image Image

mirror: Uloz l Drop l Narod l M-Cloud

log
Exact Audio Copy V0.99 prebeta 4 from 23. January 2008

Отчёт EAC об извлечении, выполненном 10. октября 2012, 19:08

Say / Heart Still Beats

Дисковод: ASUS DRW-22B2L b Adapter: 0 ID: 0

Режим чтения : Достоверность
Использование точного потока : Да
Отключение кэша аудио : Да
Использование указателей C2 : Нет

Коррекция смещения при чтении : 6
Способность читать области Lead-in и Lead-out : Нет
Заполнение пропущенных сэмплов тишиной : Да
Удаление блоков с тишиной в начале и конце : Нет
При вычислениях CRC использовались нулевые сэмплы : Да
Интерфейс : Встроенный Win32-интерфейс для Win NT/2000

Выходной формат : Внутренние WAV-операции
Формат сэмплов : 44.100 Гц; 16 бит; стерео


TOC извлечённого CD

Трек | Старт | Длительность | Начальный сектор | Конечный сектор
---------------------------------------------------------------------
1 | 0:00.00 | 4:21.27 | 0 | 19601
2 | 4:21.27 | 4:16.18 | 19602 | 38819
3 | 8:37.45 | 4:19.00 | 38820 | 58244
4 | 12:56.45 | 3:57.40 | 58245 | 76059
5 | 16:54.10 | 4:17.32 | 76060 | 95366
6 | 21:11.42 | 3:58.33 | 95367 | 113249
7 | 25:10.00 | 4:28.62 | 113250 | 133411
8 | 29:38.62 | 4:40.15 | 133412 | 154426
9 | 34:19.02 | 4:41.15 | 154427 | 175516
10 | 39:00.17 | 4:48.55 | 175517 | 197171
11 | 43:48.72 | 7:03.00 | 197172 | 228896
12 | 50:51.72 | 4:58.03 | 228897 | 251249
13 | 55:50.00 | 5:28.02 | 251250 | 275851


Характеристики диапазона извлечения и сообщения об ошибках

Выбранный диапазон

Имя файла D:\booddoom\Say - Heart Still Beats.wav

Пиковый уровень 100.0 %
Качество диапазона 100.0 %
CRC теста 94F6F1F0
CRC копии 94F6F1F0
Копирование... OK

Ошибок не произошло


AccurateRip: сводка

Трек 1 точное извлечение (доверие 1) [96890FDB]
Трек 2 точность не определена (достоверность 1) [CBC5D8E0], AccurateRip вернул [070133AF]
Трек 3 точное извлечение (доверие 1) [33F8E822]
Трек 4 точное извлечение (доверие 1) [E35EE6A5]
Трек 5 точность не определена (достоверность 1) [87AD0691], AccurateRip вернул [0688EC7A]
Трек 6 точное извлечение (доверие 1) [D9EFC752]
Трек 7 точное извлечение (доверие 1) [C60CA680]
Трек 8 точное извлечение (доверие 1) [52ED44D1]
Трек 9 точное извлечение (доверие 1) [A5C526DC]
Трек 10 точное извлечение (доверие 1) [FFDD1200]
Трек 11 точность не определена (достоверность 1) [88773A58], AccurateRip вернул [3C1BEA4E]
Трек 12 точность не определена (достоверность 1) [EF3E6CD4], AccurateRip вернул [62512AF5]
Трек 13 точность не определена (достоверность 1) [72A52AE9], AccurateRip вернул [C5E44F00]

8 трек(и) скопированы точно
5 трек(и) не удалось проверить на точность

Некоторые треки не прошли проверку на точность

Конец отчёта

cue
REM GENRE rock
REM DATE 1992
REM DISCID 970E5E0D
REM COMMENT "ExactAudioCopy v0.99pb4"
PERFORMER "Say"
TITLE "Heart Still Beats"
FILE "Say - Heart Still Beats.wav" WAVE
TRACK 01 AUDIO
TITLE "Let It Ride (Bonus)"
PERFORMER "Say"
INDEX 01 00:00:00
TRACK 02 AUDIO
TITLE "Heart Still Beats"
PERFORMER "Say"
INDEX 01 04:21:27
TRACK 03 AUDIO
TITLE "It Doesnґt Matter"
PERFORMER "Say"
INDEX 00 08:36:29
INDEX 01 08:37:45
TRACK 04 AUDIO
TITLE "Right Here On My Mind (Bonus)"
PERFORMER "Say"
INDEX 01 12:56:45
TRACK 05 AUDIO
TITLE "Keep It To Yourself"
PERFORMER "Say"
INDEX 01 16:54:10
TRACK 06 AUDIO
TITLE "Take It (Bonus)"
PERFORMER "Say"
INDEX 01 21:11:42
TRACK 07 AUDIO
TITLE "Vacation"
PERFORMER "Say"
INDEX 01 25:10:00
TRACK 08 AUDIO
TITLE "Nobody Else"
PERFORMER "Say"
INDEX 01 29:38:62
TRACK 09 AUDIO
TITLE "Higher"
PERFORMER "Say"
INDEX 01 34:19:02
TRACK 10 AUDIO
TITLE "Come Back"
PERFORMER "Say"
INDEX 01 39:00:17
TRACK 11 AUDIO
TITLE "English Skies"
PERFORMER "Say"
INDEX 01 43:48:72
TRACK 12 AUDIO
TITLE "Out Of Your Mind"
PERFORMER "Say"
INDEX 01 50:51:72
TRACK 13 AUDIO
TITLE "Make Believe"
PERFORMER "Say"
INDEX 01 55:50:00

_________________


Top
 Profile E-mail  
 
 
PostPosted: 11 Nov 2018 
Хиппей (support team)
User avatar
Joined: 30 Jul 2007
Posts: 111745
Lоcаtion: Киев (Kyiv, UA)
Age: 45
Name: Andrey
Демку с двумя недостающим песнями оставляем в поиске?

_________________


Top
 Profile E-mail  
 
 
PostPosted: 11 Nov 2018 
Rara avis
User avatar
Joined: 27 Jan 2009
Posts: 4944
Name: .
да


Top
 Profile E-mail  
 
 
PostPosted: 12 Nov 2018 
спирт 100%
User avatar
Joined: 22 Sep 2008
Posts: 4392
Age: 47
Name: Саня
:thanx:


Top
 Profile  
 
 
PostPosted: 18 Nov 2018 
Хиппей (support team)
User avatar
Joined: 30 Jul 2007
Posts: 111745
Lоcаtion: Киев (Kyiv, UA)
Age: 45
Name: Andrey
Альбом более чем средненький. Стиль указан правильно - AOR/Westcoast (то есть, попсовый AOR).

4/10

Запрос уходит в разделу по этим стилям. Здесь, в основном разделе такому коллективу делать неча - срамота ибо :pardon:

_________________


Top
 Profile E-mail  
 
 
PostPosted: 18 Nov 2018 
Хиппей (support team)
User avatar
Joined: 30 Jul 2007
Posts: 111745
Lоcаtion: Киев (Kyiv, UA)
Age: 45
Name: Andrey
Второй альбом не ищем? :lloo:
И демку ж явно тоже уже не нужн0?

_________________


Top
 Profile E-mail  
 
 
PostPosted: 18 Nov 2018 
Хиппей (support team)
User avatar
Joined: 30 Jul 2007
Posts: 111745
Lоcаtion: Киев (Kyiv, UA)
Age: 45
Name: Andrey
Демку с двумя недостающим песнями оставляем в поиске?

Ой, снова я не прочитал второй раз сообщение нужное.
Оставляем :dance:

_________________


Top
 Profile E-mail  
 
Display posts from previous:  Sort by  
Post new topic Reply to topic  [ 10 posts ] 

All times are UTC + 3 hours


Who is online

Users browsing this forum: No registered users and 4 guests


You cannot post new topics in this forum
You cannot reply to topics in this forum
You cannot edit your posts in this forum
You cannot delete your posts in this forum
You cannot post attachments in this forum

Search for:
Яндекс.Метрика
Powered by phpBB © 2000, 2002, 2005, 2007 phpBB Group