\m/ 80's metal \m/

Информационно-аналитический форум "80 см пыли" (In Search We Trust) "У нас никто никуда не спешит"
Me For You - http://me-4u.com
It is currently 25 Sep 2018

All times are UTC + 3 hours

Spoiler
Chat - temporary registration for foreign users (please leave your application here)







Post new topic Reply to topic  [ 19 posts ] 
Author Message
 
PostPosted: 30 Oct 2009 
Персональный статус
Joined: 06 Apr 2009
Posts: 376
Lоcаtion: hong kong
Age: 27
Name: andy
Stonewall-Weekend - 1990 - Stonewall-Weekend

Image

Tracks
1. Stand It 3:57
2. Nothin's Gonna Stand in Our Way 4:14
3. Another Night in Hollywood 3:53
4. Is It Any Wonder 4:06
5. L.A.X. 4:05
6. Heads Will Roll 3:42
7. Your Love Excites Me 4:36
8. Where My Life Leads Me 4:00
9. Turkish Tram Conductor Blues 4:16
10. Gotta Have Your Love 4:41
11. You and Me 4:09
12. Waiting for the Axe to Fall Part 2 6:28

http://www.heavyharmonies.com/cgi-bin/g ... ll-Weekend

_________________
LOVE ROCK


Top
 Profile  
 
 
PostPosted: 30 Oct 2009 
Персональный статус
Joined: 06 Apr 2009
Posts: 376
Lоcаtion: hong kong
Age: 27
Name: andy
Stonewall-Weekend - 1995 - Hungry For More

Image

Tracks
1. Stand It
2. Drinkin' Alone (And Waitin' On You)
3. Girl I Used To Know
4. Our Love
5. Long Lost Love
6. Back On Track
7. Where My Life Leads Me To
8. The Public Eye
9. Late As Hell
10. For Only You
11. Seeing Double Vision
12. All Night For You
13. Hungry For More

http://www.heavyharmonies.com/cgi-bin/g ... y+For+More

_________________
LOVE ROCK


Top
 Profile  
 
 
PostPosted: 25 Nov 2009 
Просто волшебник
User avatar
Joined: 01 Mar 2008
Posts: 1244
Name: Андрей
Stonewall Weekend - Stonewall Weekend (1990) - 192Kbs

Image

Tracklist

1. Stand It 3:57
2. Nothin's Gonna Stand in Our Way 4:14
3. Another Night in Hollywood 3:53
4. Is It Any Wonder 4:06
5. L.A.X. 4:05
6. Heads Will Roll 3:42
7. Your Love Excites Me 4:36
8. Where My Life Leads Me 4:00
9. Turkish Tram Conductor Blues 4:16
10. Gotta Have Your Love 4:41
11. You and Me 4:09
12. Waiting for the Axe to Fall Part 2 6:28


http://ifolder.ru/15140835


Top
 Profile  
 
 
PostPosted: 25 Nov 2009 
Просто волшебник
User avatar
Joined: 01 Mar 2008
Posts: 1244
Name: Андрей
Stonewall Weekend - Hungry For More (1995) - 320Kbs

Image

Tracklist

1. Stand It
2. Drinkin' Alone (And Waitin' On You)
3. Girl I Used To Know
4. Our Love
5. Long Lost Love
6. Back On Track
7. Where My Life Leads Me To
8. The Public Eye
9. Late As Hell
10. For Only You
11. Seeing Double Vision
12. All Night For You
13. Hungry For More

part1 - http://ifolder.ru/15140111
part2 - http://ifolder.ru/15140655


Top
 Profile  
 
 
PostPosted: 25 Nov 2009 
А может смените мне статус?..
User avatar
Joined: 04 Jun 2009
Posts: 681
Lоcаtion: Москва
Age: 28
Name: Дмитрий
Андрей, СПАСИБО!!!! :thanx:


Top
 Profile E-mail  
 
 
PostPosted: 26 Nov 2009 
Персональный статус
Joined: 06 Apr 2009
Posts: 376
Lоcаtion: hong kong
Age: 27
Name: andy
:true: :true: :shok: :shok: СПАСИБО!!!! Rolf_63
:thanx: if you want something from my country..just ask me :nunu:

_________________
LOVE ROCK


Top
 Profile  
 
 
PostPosted: 28 Nov 2009 
Персональный статус
Joined: 28 Sep 2009
Posts: 216
Name: Владимир
СПАСИБО!!!!!!!!!!!!! :thanx:


Top
 Profile E-mail  
 
 
PostPosted: 11 Mar 2010 
хард н хэвщик (support team)
User avatar
Joined: 02 Jun 2008
Posts: 16880
Lоcаtion: Н.Новгород
Age: 31
Name: Артем
:true:


Top
 Profile  
 
 
PostPosted: 01 Dec 2015 
Персональный статус
Joined: 28 Sep 2009
Posts: 216
Name: Владимир
Stonewall Weekend 1990 Stonewall Weekend
https://cloud.mail.ru/public/Htux/v9g1AGT4o
по просьбе aggelos978

Отличный альбом! Сам с удовольствием ещё раз прослушал


Top
 Profile E-mail  
 
 
PostPosted: 01 Dec 2015 
Персональный статус
Joined: 11 Sep 2010
Posts: 451
Lоcаtion: Тверь
Age: 45
Name: Сергей
:thanx:


Top
 Profile E-mail  
 
 
PostPosted: 01 Dec 2015 
Хиппей (support team)
User avatar
Joined: 30 Jul 2007
Posts: 106547
Lоcаtion: Киев (Kyiv, UA)
Age: 45
Name: Andrey
:thanx:

mirror: iFolder l Narod l M-Cloud

_________________


Top
 Profile E-mail  
 
 
PostPosted: 02 Dec 2015 
Хиппей (support team)
User avatar
Joined: 30 Jul 2007
Posts: 106547
Lоcаtion: Киев (Kyiv, UA)
Age: 45
Name: Andrey
Rolf_63 wrote:
Stonewall Weekend - Stonewall Weekend (1990)




Неплохой, качественный американизированный Hard & Heavy :dance:

6+/10

Как обычно, указанного почти везде AOR'a на этом альбоме не обнаружил. Авось будет дальше? :pardon:


_________________


Top
 Profile E-mail  
 
 
PostPosted: 03 Dec 2015 
5cm
User avatar
Joined: 30 Apr 2010
Posts: 60
Lоcаtion: Athens
Name: Aggelos
Damn, just saw this reupload...
Huge thanks mates \m/

_________________
Image


Top
 Profile E-mail  
 
 
PostPosted: 03 Dec 2015 
Доктор энтомологии
User avatar
Joined: 22 Jan 2009
Posts: 9332
Lоcаtion: Даугавпилс
Age: 43
Name: Алексей
:thanx:


Top
 Profile  
 
 
PostPosted: 03 Dec 2015 
консэрваторъ
Joined: 11 Aug 2007
Posts: 15924
Lоcаtion: Псков
Age: 44
Name: Сергей
Rolf_63 wrote:
Stonewall Weekend - Hungry For More (1995) - 320Kbs

Ссыли сдохше тож... но если что на тракторе есть лось... :arrow: http://rutracker.org/forum/viewtopic.php?t=5064726

_________________
THRASH 'EM ALL


Top
 Profile E-mail  
 
 
PostPosted: 03 Dec 2015 
Хиппей (support team)
User avatar
Joined: 30 Jul 2007
Posts: 106547
Lоcаtion: Киев (Kyiv, UA)
Age: 45
Name: Andrey
Да я его уже скачал давно и перелил. Оформлю позже.
Спасибо за внимание.
Начал слушать, а там... да, попсовенькая музычка.

_________________


Top
 Profile E-mail  
 
 
PostPosted: 03 Dec 2015 
Хиппей (support team)
User avatar
Joined: 30 Jul 2007
Posts: 106547
Lоcаtion: Киев (Kyiv, UA)
Age: 45
Name: Andrey
Stonewall Weekend - 1995 - Hungry For Love [flac]

Image

mirror: iFolder l Narod l M-Cloud

Немного опопсела группа, начала играть слащавый коммерческий хард-рок. Но всё равно хороша музыка :dance:

6/10

log
Exact Audio Copy V1.0 beta 3 from 29. August 2011

Отчёт EAC об извлечении, выполненном 22. августа 2015, 11:22

Stonewall Weekend / Hungry For More

Дисковод: ASUS DRW-24F1ST a Adapter: 0 ID: 0

Режим чтения : Достоверность
Использование точного потока : Да
Отключение кэша аудио : Да
Использование указателей C2 : Нет

Коррекция смещения при чтении : 6
Способность читать области Lead-in и Lead-out : Нет
Заполнение пропущенных сэмплов тишиной : Да
Удаление блоков с тишиной в начале и конце : Нет
При вычислениях CRC использовались нулевые сэмплы : Да
Интерфейс : Встроенный Win32-интерфейс для Win NT/2000

Выходной формат : Пользовательский кодировщик
Выбранный битрейт : 896 kBit/s
Качество : Высокий
Добавление ID3-тега : Нет
Утилита сжатия : C:\Program Files (x86)\FLAC\flac.exe
Дополнительные параметры : -V -8 -T "Date=%year%" -T "Genre=%genre%" %source%


TOC извлечённого CD

Трек | Старт | Длительность | Начальный сектор | Конечный сектор
---------------------------------------------------------------------
1 | 0:00.00 | 3:54.60 | 0 | 17609
2 | 3:54.60 | 4:10.12 | 17610 | 36371
3 | 8:04.72 | 4:05.45 | 36372 | 54791
4 | 12:10.42 | 4:03.65 | 54792 | 73081
5 | 16:14.32 | 3:13.15 | 73082 | 87571
6 | 19:27.47 | 4:58.15 | 87572 | 109936
7 | 24:25.62 | 3:56.60 | 109937 | 127696
8 | 28:22.47 | 4:40.05 | 127697 | 148701
9 | 33:02.52 | 3:50.63 | 148702 | 166014
10 | 36:53.40 | 4:41.30 | 166015 | 187119
11 | 41:34.70 | 4:20.39 | 187120 | 206658
12 | 45:55.34 | 4:22.48 | 206659 | 226356
13 | 50:18.07 | 4:25.05 | 226357 | 246236


Характеристики диапазона извлечения и сообщения об ошибках

Выбранный диапазон

Имя файла E:\Stonewall Weekend - Hungry For More.wav

Пиковый уровень 97.6 %
Скорость извлечения 2.9 X
Качество диапазона 99.9 %
CRC теста 76CCB2B8
CRC копии 76CCB2B8
Копирование... OK

Ошибок не произошло


AccurateRip: сводка

Трек 1 : извлечено точно (доверие 1) [F2D6FEC3] (AR v2)
Трек 2 : извлечено точно (доверие 1) [7A6D59B2] (AR v2)
Трек 3 : извлечено точно (доверие 1) [E5879CB8] (AR v2)
Трек 4 : извлечено точно (доверие 1) [11873341] (AR v2)
Трек 5 : извлечено точно (доверие 1) [A7FB4287] (AR v2)
Трек 6 : извлечено точно (доверие 1) [28A8D73A] (AR v2)
Трек 7 : извлечено точно (доверие 1) [5B065F25] (AR v2)
Трек 8 : извлечено точно (доверие 1) [14AA3610] (AR v2)
Трек 9 : извлечено точно (доверие 1) [BFE266F6] (AR v2)
Трек 10 : извлечено точно (доверие 1) [9E6CD9F1] (AR v2)
Трек 11 : извлечено точно (доверие 1) [DF89922B] (AR v2)
Трек 12 : извлечено точно (доверие 1) [79FB07C0] (AR v2)
Трек 13 : извлечено точно (доверие 1) [6382C5E5] (AR v2)

Все треки извлечены точно

Конец отчёта

---- CUETools DB Plugin V2.1.3

[CTDB TOCID: Xfga1wUODllKMd00.zzzLWA.IeM-] found, Submit result: Xfga1wUODllKMd00.zzzLWA.IeM- has been confirmed
[c754ee13] (1/1) Accurately ripped


==== Контрольная сумма отчёта F2DBDFFCE7E65EEA91C291EDC8F90472775458A5678AE0337FECDDEEAB7D378E ====

cue
REM DATE 1995
REM DISCID BF0CD30D
REM COMMENT "ExactAudioCopy v1.0b3"
PERFORMER "Stonewall Weekend"
TITLE "Hungry For More"
FILE "Stonewall Weekend - Hungry For More.flac" WAVE
TRACK 01 AUDIO
TITLE "Stand It"
PERFORMER "Stonewall Weekend"
INDEX 01 00:00:00
TRACK 02 AUDIO
TITLE "Drinkin Alone (And Waitin' On You)"
PERFORMER "Stonewall Weekend"
INDEX 00 03:54:20
INDEX 01 03:54:60
TRACK 03 AUDIO
TITLE "Girl I Used To Know"
PERFORMER "Stonewall Weekend"
INDEX 00 08:03:00
INDEX 01 08:04:72
TRACK 04 AUDIO
TITLE "Our Love"
PERFORMER "Stonewall Weekend"
INDEX 00 12:10:02
INDEX 01 12:10:42
TRACK 05 AUDIO
TITLE "Long Lost Love"
PERFORMER "Stonewall Weekend"
INDEX 00 16:13:15
INDEX 01 16:14:32
TRACK 06 AUDIO
TITLE "Back On Track"
PERFORMER "Stonewall Weekend"
INDEX 00 19:26:02
INDEX 01 19:27:47
TRACK 07 AUDIO
TITLE "Where My Life Leads Me To"
PERFORMER "Stonewall Weekend"
INDEX 00 24:25:52
INDEX 01 24:25:62
TRACK 08 AUDIO
TITLE "Public Eye"
PERFORMER "Stonewall Weekend"
INDEX 00 28:22:02
INDEX 01 28:22:47
TRACK 09 AUDIO
TITLE "Late As Hell"
PERFORMER "Stonewall Weekend"
INDEX 00 33:02:45
INDEX 01 33:02:52
TRACK 10 AUDIO
TITLE "For Only You"
PERFORMER "Stonewall Weekend"
INDEX 00 36:53:10
INDEX 01 36:53:40
TRACK 11 AUDIO
TITLE "Seeing Double Vision"
PERFORMER "Stonewall Weekend"
INDEX 00 41:34:02
INDEX 01 41:34:70
TRACK 12 AUDIO
TITLE "All Night For You"
PERFORMER "Stonewall Weekend"
INDEX 00 45:54:10
INDEX 01 45:55:34
TRACK 13 AUDIO
TITLE "Hungry For More"
PERFORMER "Stonewall Weekend"
INDEX 00 50:17:52
INDEX 01 50:18:07

_________________


Top
 Profile E-mail  
 
 
PostPosted: 03 Dec 2015 
Я набрал 1000 сообщений!
Joined: 09 Jul 2008
Posts: 2386
Age: 45
Name: Сергей
немного, говоришь? )


Top
 Profile  
 
 
PostPosted: 03 Dec 2015 
Хиппей (support team)
User avatar
Joined: 30 Jul 2007
Posts: 106547
Lоcаtion: Киев (Kyiv, UA)
Age: 45
Name: Andrey
Да. Первые 3-4 песни лёгкие весьма, но дальше вернулась былая бодрость :dance:

_________________


Top
 Profile E-mail  
 
Display posts from previous:  Sort by  
Post new topic Reply to topic  [ 19 posts ] 

All times are UTC + 3 hours


Who is online

Users browsing this forum: No registered users and 1 guest


You cannot post new topics in this forum
You cannot reply to topics in this forum
You cannot edit your posts in this forum
You cannot delete your posts in this forum
You cannot post attachments in this forum

Search for:
Яндекс.Метрика
Powered by phpBB © 2000, 2002, 2005, 2007 phpBB Group