\m/ 80's metal \m/

Информационно-аналитический форум "80 см пыли" (In Search We Trust) "У нас никто никуда не спешит"
Me For You - http://me-4u.com
It is currently 21 Nov 2018

All times are UTC + 3 hours

Spoiler
Chat - temporary registration for foreign users (please leave your application here)







Post new topic Reply to topic  [ 23 posts ]  Go to page 1, 2  Next
Author Message
 
PostPosted: 27 Sep 2009 
Thrasher
User avatar
Joined: 07 Oct 2007
Posts: 2756
Lоcаtion: Russia, Moscow
Age: 34
Name: Drunk & Evil
в 320 был на ннм от талона, естесно ща уже нет, мож кто успел качнуть? а то мой в 192 дико глухо звучит(((

Image

1.Betrayer of Kings
2.Never Ending Battle
3.Attack
4.All Hail to the Queen
5.Time is No More
6.Run from the Devil
7.Furor's Reign
8.Sweet Revenge
9.Fight 'till the End

_________________
ВОДКА, БАБЫ И БЛЮЗ / 40° till death... :bodun:
One time we saw some hookers, but when we got closer, we realised it was Mötley Crüe. ©


Top
 Profile  
 
 
PostPosted: 27 Sep 2009 
хард н хэвщик (support team)
User avatar
Joined: 02 Jun 2008
Posts: 16880
Lоcаtion: Н.Новгород
Age: 31
Name: Артем
если это то, о чем я думаю, то талоновский рип звучал как 96 килобит - все глухо как в танке


Top
 Profile  
 
 
PostPosted: 27 Sep 2009 
Thrasher
User avatar
Joined: 07 Oct 2007
Posts: 2756
Lоcаtion: Russia, Moscow
Age: 34
Name: Drunk & Evil
McKagan wrote:
если это то, о чем я думаю, то талоновский рип звучал как 96 килобит - все глухо как в танке


понятно, чот я уже от пива начал вестись просто на циферки, и совершенно забыл чьи это 320 :crazy:

_________________
ВОДКА, БАБЫ И БЛЮЗ / 40° till death... :bodun:
One time we saw some hookers, but when we got closer, we realised it was Mötley Crüe. ©


Top
 Profile  
 
 
PostPosted: 27 Sep 2009 
спирт 100%
User avatar
Joined: 22 Sep 2008
Posts: 4314
Age: 47
Name: Саня
Здесь cbr@224kbps , попробуй. 55MB :vic:
http://www.metalarea.org/forum/index.ph ... opic=55194


Top
 Profile  
 
 
PostPosted: 27 Sep 2009 
спирт 100%
User avatar
Joined: 22 Sep 2008
Posts: 4314
Age: 47
Name: Саня
Блин!Мне тоже надо хорошее качество. :true:


Top
 Profile  
 
 
PostPosted: 28 Sep 2009 
спирт 100%
User avatar
Joined: 22 Sep 2008
Posts: 4314
Age: 47
Name: Саня
Это песенка 224kbps/ http://narod.ru/disk/13589606000/2.Neve ... e.rar.html /
Сверь с своим,мне кажется все таки не очень.


Top
 Profile  
 
 
PostPosted: 06 Nov 2009 
спирт 100%
User avatar
Joined: 22 Sep 2008
Posts: 4314
Age: 47
Name: Саня
Salem's Wych - Betrayer Of Kings - 1986, FLAC (image+.cue), lossless
http://torrents.ru/forum/viewtopic.php?t=2271107


Top
 Profile  
 
 
PostPosted: 06 Nov 2009 
Thrasher
User avatar
Joined: 07 Oct 2007
Posts: 2756
Lоcаtion: Russia, Moscow
Age: 34
Name: Drunk & Evil
:dance: :dance: :dance:

_________________
ВОДКА, БАБЫ И БЛЮЗ / 40° till death... :bodun:
One time we saw some hookers, but when we got closer, we realised it was Mötley Crüe. ©


Top
 Profile  
 
 
PostPosted: 06 Nov 2009 
Thrasher
User avatar
Joined: 07 Oct 2007
Posts: 2756
Lоcаtion: Russia, Moscow
Age: 34
Name: Drunk & Evil
http://www.megaupload.com/?d=8OP6BR6T

log
Exact Audio Copy V0.99 prebeta 4 from 23. January 2008

Отчёт EAC об извлечении, выполненном 31. июля 2009, 20:17

Salem's Wych / Betrayer Of Kings

Дисковод: Optiarc DVD RW AD-5200A Adapter: 5 ID: 1

Режим чтения : Достоверность
Использование точного потока : Да
Отключение кэша аудио : Да
Использование указателей C2 : Нет

Коррекция смещения при чтении : 48
Способность читать области Lead-in и Lead-out : Нет
Заполнение пропущенных сэмплов тишиной : Да
Удаление блоков с тишиной в начале и конце : Нет
При вычислениях CRC использовались нулевые сэмплы : Да
Интерфейс : Встроенный Win32-интерфейс для Win NT/2000

Выходной формат : Внутренние WAV-операции
Формат сэмплов : 44.100 Гц; 16 бит; стерео
Смещение при сжатии : 0


TOC извлечённого CD

Трек | Старт | Длительность | Начальный сектор | Конечный сектор
---------------------------------------------------------------------
1 | 0:00.00 | 3:36.40 | 0 | 16239
2 | 3:36.40 | 3:24.48 | 16240 | 31587
3 | 7:01.13 | 3:42.03 | 31588 | 48240
4 | 10:43.16 | 6:07.39 | 48241 | 75804
5 | 16:50.55 | 3:17.00 | 75805 | 90579
6 | 20:07.55 | 4:11.09 | 90580 | 109413
7 | 24:18.64 | 2:18.11 | 109414 | 119774
8 | 26:37.00 | 3:04.02 | 119775 | 133576
9 | 29:41.02 | 4:06.44 | 133577 | 152070


Характеристики диапазона извлечения и сообщения об ошибках

Выбранный диапазон

Имя файла E:\АРЕ\1tor\Salem's Wych - 1986 - Betrayer Of Kings\Salem's Wych - Betrayer Of Kings.wav

Пиковый уровень 89.1 %
Качество диапазона 100.0 %
CRC копии F34386CF
Копирование... OK

Ошибок не произошло

Конец отчёта


cue
REM GENRE "Heavy Metal"
REM DATE 1986
REM DISCID 6B07EB09
REM COMMENT "ExactAudioCopy v0.99pb4"
PERFORMER "Salem's Wych"
TITLE "Betrayer Of Kings"
FILE "Salem's Wych - Betrayer Of Kings.flac" WAVE
TRACK 01 AUDIO
TITLE "Betrayer Of Kings"
PERFORMER "Salem's Wych"
INDEX 01 00:00:00
TRACK 02 AUDIO
TITLE "Never Ending Battle"
PERFORMER "Salem's Wych"
INDEX 00 03:36:34
INDEX 01 03:36:40
TRACK 03 AUDIO
TITLE "Attack"
PERFORMER "Salem's Wych"
INDEX 01 07:01:13
TRACK 04 AUDIO
TITLE "All Hail To The Queen"
PERFORMER "Salem's Wych"
INDEX 00 10:43:11
INDEX 01 10:43:16
TRACK 05 AUDIO
TITLE "Time Is No More"
PERFORMER "Salem's Wych"
INDEX 01 16:50:55
TRACK 06 AUDIO
TITLE "Run From The Devil"
PERFORMER "Salem's Wych"
INDEX 01 20:07:55
TRACK 07 AUDIO
TITLE "Furor's Reign"
PERFORMER "Salem's Wych"
INDEX 01 24:18:64
TRACK 08 AUDIO
TITLE "Sweet Revenge"
PERFORMER "Salem's Wych"
INDEX 00 26:36:69
INDEX 01 26:37:00
TRACK 09 AUDIO
TITLE "Fight Till The End"
PERFORMER "Salem's Wych"
INDEX 01 29:41:02

_________________
ВОДКА, БАБЫ И БЛЮЗ / 40° till death... :bodun:
One time we saw some hookers, but when we got closer, we realised it was Mötley Crüe. ©


Top
 Profile  
 
 
PostPosted: 06 Nov 2009 
Почётный металлург
User avatar
Joined: 15 Sep 2007
Posts: 4357
Lоcаtion: Хабаровск
Age: 58
Name: чуть выше
:thanx: :thanx: :thanx:

_________________
Коль будешь людей ты ослами честить,
тебе человеком меж них не прослыть!
(Саади, персидский поэт, 13в.)


Top
 Profile  
 
 
PostPosted: 06 Nov 2009 
Труъ
User avatar
Joined: 17 Oct 2009
Posts: 124
Name: Олег
Спасибо! :meloman:


Top
 Profile E-mail  
 
 
PostPosted: 06 Nov 2009 
труъ антисионист
User avatar
Joined: 01 Aug 2007
Posts: 4541
Lоcаtion: Откуда и большинство из нас
Age: 37
Name: Дядя Вова
Спасибо, Кир, где ты это раздобыл?

_________________
Image
Image


Top
 Profile  
 
 
PostPosted: 06 Nov 2009 
Thrasher
User avatar
Joined: 07 Oct 2007
Posts: 2756
Lоcаtion: Russia, Moscow
Age: 34
Name: Drunk & Evil
Дык выше, Саня, на торрентсру сылочку дал :umnik:

_________________
ВОДКА, БАБЫ И БЛЮЗ / 40° till death... :bodun:
One time we saw some hookers, but when we got closer, we realised it was Mötley Crüe. ©


Top
 Profile  
 
 
PostPosted: 06 Mar 2010 
Работнечег
User avatar
Joined: 28 Aug 2007
Posts: 5557
Lоcаtion: г. Москва
Age: 29
Name: Дима
Картиночки нужны кому? Хотя буклета там как такового нет)


Top
 Profile E-mail  
 
 
PostPosted: 06 Mar 2010 
Прокъмитолист
User avatar
Joined: 12 Aug 2007
Posts: 6504
Lоcаtion: Санктъ-Петербуркъ
Age: 51
Name: Олекъ
church wrote:
Картиночки нужны кому?

а как же :dance:

_________________
прокъметол - это музыко, от которово есть прок (ы)


Top
 Profile  
 
 
PostPosted: 06 Mar 2010 
Работнечег
User avatar
Joined: 28 Aug 2007
Posts: 5557
Lоcаtion: г. Москва
Age: 29
Name: Дима
Хорошо ,сделаем) Кстати никто мне не подскажет чего это за контора Hot Metal Records? Чего-то ссылки на их сайт я не нашёл в интернете.


Top
 Profile E-mail  
 
 
PostPosted: 06 Mar 2010 
Хиппей (support team)
User avatar
Joined: 30 Jul 2007
Posts: 108254
Lоcаtion: Киев (Kyiv, UA)
Age: 45
Name: Andrey
church wrote:
чего это за контора Hot Metal Records

Пираты :pardon:

_________________


Top
 Profile E-mail  
 
 
PostPosted: 06 Mar 2010 
Работнечег
User avatar
Joined: 28 Aug 2007
Posts: 5557
Lоcаtion: г. Москва
Age: 29
Name: Дима
Scatterbrain wrote:
church wrote:
чего это за контора Hot Metal Records

Пираты :pardon:

Это я знаю) А сайт-то у них есть какой-нибудь?
P.S. Tau показал все треки , как CDDA.И по звуку вроде нормально, лучше моего мп3шного варианта, так что претензий нет к конторе :pardon:


Top
 Profile E-mail  
 
 
PostPosted: 10 Mar 2010 
Работнечег
User avatar
Joined: 28 Aug 2007
Posts: 5557
Lоcаtion: г. Москва
Age: 29
Name: Дима
Как и обещал, картинки:
Image

http://ifolder.ru/16777377


Top
 Profile E-mail  
 
 
PostPosted: 10 Mar 2010 
Прокъмитолист
User avatar
Joined: 12 Aug 2007
Posts: 6504
Lоcаtion: Санктъ-Петербуркъ
Age: 51
Name: Олекъ
спасибо, Дим! :true:

_________________
прокъметол - это музыко, от которово есть прок (ы)


Top
 Profile  
 
Display posts from previous:  Sort by  
Post new topic Reply to topic  [ 23 posts ]  Go to page 1, 2  Next

All times are UTC + 3 hours


Who is online

Users browsing this forum: No registered users and 4 guests


You cannot post new topics in this forum
You cannot reply to topics in this forum
You cannot edit your posts in this forum
You cannot delete your posts in this forum
You cannot post attachments in this forum

Search for:
Яндекс.Метрика
Powered by phpBB © 2000, 2002, 2005, 2007 phpBB Group