\m/ 80's metal \m/

Информационно-аналитический форум "80 см пыли" (In Search We Trust) "У нас никто никуда не спешит"
Me For You - http://me-4u.com
It is currently 17 Nov 2018

All times are UTC + 3 hours

Spoiler
Chat - temporary registration for foreign users (please leave your application here)







Post new topic Reply to topic  [ 70 posts ]  Go to page Previous  1, 2, 3, 4
Author Message
 
PostPosted: 05 Oct 2007 
Сотона аццкая 666 кг.
User avatar
Joined: 04 Oct 2007
Posts: 90
Lоcаtion: Столица нашей родины
Age: 34
Name: .
Если кто выложит эти группы в хорошем качестве, тому огромное спасибо от меня и пиво при встрече.

_________________
Рыбалка без пива - как поплавок без грузила.


Top
 Profile  
 
 
PostPosted: 30 Apr 2011 
Хиппей (support team)
User avatar
Joined: 30 Jul 2007
Posts: 108071
Lоcаtion: Киев (Kyiv, UA)
Age: 45
Name: Andrey
http://www.metalminos.com/foro/index.php?topic=15023.0

аа. пусть пока хоть в VBR высоком побудет :pardon:

_________________


Top
 Profile E-mail  
 
 
PostPosted: 08 Sep 2011 
Old Time Rock`n`Roll
User avatar
Joined: 23 Jun 2008
Posts: 3363
Lоcаtion: г.Ульяновск
Age: 40
Name: Константин
Сарацен-81 в лосях объявился (переиздание 1992 г.):

http://hard-rock.moole.ru/333366-sarace ... -1981.html
http://lossless-galaxy.ru/inostr/50605- ... ition.html


Top
 Profile  
 
 
PostPosted: 08 Sep 2011 
Хиппей (support team)
User avatar
Joined: 30 Jul 2007
Posts: 108071
Lоcаtion: Киев (Kyiv, UA)
Age: 45
Name: Andrey
Уря :dance:
mirror: MultiUp l Narod

_________________


Top
 Profile E-mail  
 
 
PostPosted: 24 Jun 2013 
Хиппей (support team)
User avatar
Joined: 30 Jul 2007
Posts: 108071
Lоcаtion: Киев (Kyiv, UA)
Age: 45
Name: Andrey
Saracen - 2003 - Red Sky [flac]

Image

Genre: Prog Hard Rock
Location: UK
Format: flac + cue + log + no scans
Size: 533 Mb


Line-up:

Steve Bettney - vocals
Rob Bendelow - guitars
Richard Bendelow - bass
Jamie Little - drums
Richard Lowe - keyboards, vocals

1. We Have Arrived - 06:03
2. Red Sky - 05:24
3. Faith - 04:38
4. Horsemen of the Apocalypse - 06:46
5. Castles in the Sand - 05:28
6. Heroes, Saints and Fools - 07:44
7. Flame of Youth - 04:18
8. Jekyll and Hyde - 04:20
9. Menage A Trois - 06:20
10. Ride Shotgun with the Wind - 05:38
11. Angel Eyes - 06:30
12. Follow the Piper - 07:13

TPT: 01:10:22

F-Bit l Narod

Источник: указан внутри архива во всех возможных файлах.

Профессионально сыгранная и записанная музычка. Любителям немного тягомотной (ок, пусть будет эпичной) и не скоростной спокойной и красивой, чуть тяжеловесной но очень мелодичной музыки альбом придётся по кайфу. Остальное на любителя.
Мне понравился релиз. Под него и работать приятно и спать, и плевать семки и пить чай с бубликами, и даже кататься на конячке детской из дерева.

6/10

log
Exact Audio Copy V0.99 prebeta 4 from 23. January 2008

EAC extraction logfile from 15. September 2009, 18:35

Saracen / Red Sky

Used drive : Optiarc DVD RW AD-7170A Adapter: 3 ID: 0

Read mode : Secure
Utilize accurate stream : Yes
Defeat audio cache : Yes
Make use of C2 pointers : No

Read offset correction : 48
Overread into Lead-In and Lead-Out : No
Fill up missing offset samples with silence : Yes
Delete leading and trailing silent blocks : No
Null samples used in CRC calculations : Yes
Used interface : Installed external ASPI interface

Used output format : Internal WAV Routines
Sample format : 44.100 Hz; 16 Bit; Stereo


TOC of the extracted CD

Track | Start | Length | Start sector | End sector
---------------------------------------------------------
1 | 0:00.00 | 6:02.57 | 0 | 27206
2 | 6:02.57 | 5:23.51 | 27207 | 51482
3 | 11:26.33 | 4:38.13 | 51483 | 72345
4 | 16:04.46 | 6:46.36 | 72346 | 102831
5 | 22:51.07 | 5:27.55 | 102832 | 127411
6 | 28:18.62 | 7:44.30 | 127412 | 162241
7 | 36:03.17 | 4:18.07 | 162242 | 181598
8 | 40:21.24 | 4:20.26 | 181599 | 201124
9 | 44:41.50 | 6:20.42 | 201125 | 229666
10 | 51:02.17 | 5:38.07 | 229667 | 255023
11 | 56:40.24 | 6:29.71 | 255024 | 284269
12 | 63:10.20 | 7:13.11 | 284270 | 316755


Range status and errors

Selected range

Filename C:\Documents and Settings\Мои документы\Saracen - Red Sky.by.rat.eac.flac.Israel-club.my1.ru\Saracen - Red Sky.by.rat.eac.flac.Israel-club.my1.ru.wav

Peak level 99.9 %
Range quality 100.0 %
Copy CRC 072E4635
Copy OK

No errors occurred

End of status report

cue
REM GENRE "Progressive Rock"
REM DATE 2003
REM DISCID A7107F0C
REM COMMENT "ExactAudioCopy v0.99pb4"
PERFORMER "Saracen"
TITLE "Red Sky"
FILE "Saracen - Red Sky.by.rat.eac.flac.Israel-club.my1.ru.wav" WAVE
TRACK 01 AUDIO
TITLE "We Have Arrived"
PERFORMER "Saracen"
FLAGS DCP
INDEX 01 00:00:00
TRACK 02 AUDIO
TITLE "Red Sky"
PERFORMER "Saracen"
FLAGS DCP
INDEX 01 06:02:57
TRACK 03 AUDIO
TITLE "Faith"
PERFORMER "Saracen"
FLAGS DCP
INDEX 01 11:26:33
TRACK 04 AUDIO
TITLE "Horseman Of The Apocalypse"
PERFORMER "Saracen"
FLAGS DCP
INDEX 01 16:04:46
TRACK 05 AUDIO
TITLE "Castles In The Sand"
PERFORMER "Saracen"
FLAGS DCP
INDEX 01 22:51:07
TRACK 06 AUDIO
TITLE "Heroes, Saints And Fools"
PERFORMER "Saracen"
FLAGS DCP
INDEX 01 28:18:62
TRACK 07 AUDIO
TITLE "Flame Of Youth"
PERFORMER "Saracen"
FLAGS DCP
INDEX 01 36:03:17
TRACK 08 AUDIO
TITLE "Jekyll And Hyde"
PERFORMER "Saracen"
FLAGS DCP
INDEX 01 40:21:24
TRACK 09 AUDIO
TITLE "Menage A Trois"
PERFORMER "Saracen"
FLAGS DCP
INDEX 01 44:41:50
TRACK 10 AUDIO
TITLE "Ride Shotgun With The Wind"
PERFORMER "Saracen"
FLAGS DCP
INDEX 01 51:02:17
TRACK 11 AUDIO
TITLE "Angel Eyes"
PERFORMER "Saracen"
FLAGS DCP
INDEX 01 56:40:24
TRACK 12 AUDIO
TITLE "Follow the Piper"
PERFORMER "Saracen"
FLAGS DCP
INDEX 01 63:10:20

_________________


Top
 Profile E-mail  
 
 
PostPosted: 24 Jun 2013 
Хиппей (support team)
User avatar
Joined: 30 Jul 2007
Posts: 108071
Lоcаtion: Киев (Kyiv, UA)
Age: 45
Name: Andrey
Уря :dance:
mirror: MultiUp l Narod

Quote:
Закачан: 09 сен 2011 03:08
Скачан последний раз: 09 сен 2011 19:11

Оказался на хрен ни кому не нужен :dance:

_________________


Top
 Profile E-mail  
 
 
PostPosted: 07 Aug 2013 
Доктор энтомологии
User avatar
Joined: 22 Jan 2009
Posts: 9449
Lоcаtion: Даугавпилс
Age: 43
Name: Алексей
Quote:
Оказался на хрен ни кому не нужен

утянул ;)


Top
 Profile  
 
 
PostPosted: 26 Oct 2014 
Доктор энтомологии
User avatar
Joined: 22 Jan 2009
Posts: 9449
Lоcаtion: Даугавпилс
Age: 43
Name: Алексей
vovkin wrote:
Saracen - Vox Excelso (2006)

mirror: http://narod.ru/disk/12803169000/Saracen2006.zip.html

:thanx:


Top
 Profile  
 
 
PostPosted: 26 Oct 2014 
Доктор энтомологии
User avatar
Joined: 22 Jan 2009
Posts: 9449
Lоcаtion: Даугавпилс
Age: 43
Name: Алексей
А Сарацин 84-го это сборник какой-то по мотивам предыдущего альбому? Вродь все темы там один в один такие же как и на первом..


Top
 Profile  
 
 
PostPosted: 26 Oct 2014 
Доктор энтомологии
User avatar
Joined: 22 Jan 2009
Posts: 9449
Lоcаtion: Даугавпилс
Age: 43
Name: Алексей
ыы. и 2003й наполовину сборник переигранный :dash: :dash: :dash:
Попса есть попса, по сути своей. Хотя дебютничек очень хорош! Прямо шедевр!


Top
 Profile  
 
 
PostPosted: 11 Aug 2018 
Rara avis
User avatar
Joined: 27 Jan 2009
Posts: 4678
Name: .
Saracen - 2006 - Vox Excelso (flac)
https://rutracker.org/forum/viewtopic.php?t=3717982

Mirror - https://yadi.sk/mail?hash=R2Ypxb70wydIU ... =155099347


Top
 Profile E-mail  
 
Display posts from previous:  Sort by  
Post new topic Reply to topic  [ 70 posts ]  Go to page Previous  1, 2, 3, 4

All times are UTC + 3 hours


Who is online

Users browsing this forum: No registered users and 2 guests


You cannot post new topics in this forum
You cannot reply to topics in this forum
You cannot edit your posts in this forum
You cannot delete your posts in this forum
You cannot post attachments in this forum

Search for:
Яндекс.Метрика
Powered by phpBB © 2000, 2002, 2005, 2007 phpBB Group