\m/ 80's metal \m/

Информационно-аналитический форум "80 см пыли" (In Search We Trust) "У нас никто никуда не спешит"
Me For You - http://me-4u.com
It is currently 24 Sep 2018

All times are UTC + 3 hours

Spoiler
Chat - temporary registration for foreign users (please leave your application here)







Post new topic Reply to topic  [ 9 posts ] 
Author Message
 
PostPosted: 27 Apr 2012 
Трешер
User avatar
Joined: 25 Feb 2011
Posts: 1045
Lоcаtion: Харьков
Age: 42
Name: Aleksandr
Помогите найти лося . А то все собрал на оригинальных cd , а этот только японец выходил. дорогущий и хрен найдешь.
Saigon Kick - Bastards 1999

Image

01.A Lot Like You
02. Jehovah
03. Meet Your Maker
04. Break My Heart
05. Sign Of The Times
06. So Sad To Say
07. Solitary Jerk
08. We Never Met
09. Who's Crying Now
10.Big Shot (Billy Joel Cover)
11. Nearer


Top
 Profile E-mail  
 
 
PostPosted: 27 Apr 2012 
хард н хэвщик (support team)
User avatar
Joined: 02 Jun 2008
Posts: 16880
Lоcаtion: Н.Новгород
Age: 31
Name: Артем
когда-то был здесь : http://aliveagain.moole.ru/281213-saigo ... tards.html


Top
 Profile  
 
 
PostPosted: 27 Apr 2012 
Трешер
User avatar
Joined: 25 Feb 2011
Posts: 1045
Lоcаtion: Харьков
Age: 42
Name: Aleksandr
Ага спасибо :thanx: ссылка уже не рабочая но попросил в доке, жду ответ как найдут хозяина рипа буду радоваться :true:


Top
 Profile E-mail  
 
 
PostPosted: 28 Apr 2012 
Хиппей (support team)
User avatar
Joined: 30 Jul 2007
Posts: 106508
Lоcаtion: Киев (Kyiv, UA)
Age: 45
Name: Andrey
Уже обновили :true: :thanx:

Saigon Kick - 1999 - Bastards [flac]

Image

Genre: Hard Rock / Alternative Rock
Location: USA
Format: flac (tracks) + cue + log + scans
Size: 337 Mb


Line-up:
Jason Bieler - vocals and guitar
Chris McLernon - bass
Phil Varone - drums

Additional Musicians:
Ricky Sanders - drums
Pete Dembrowski - Guitar

    1. A Lot Like You - 03:39
    2. Jehovah - 04:27
    3. Meet Your Maker - 03:47
    4. Break My Heart - 03:58
    5. Sign Of The Times - 03:16
    6. So Sad To Say - 04:14
    7. Solitary Jerk - 03:21
    8. We Never Met - 04:10
    9. Who's Crying Now - 03:43
    10. Big Shot (Billy Joel Cover) - 03:46
    11. Nearer - 03:52

    TPT: 42:19

mirror: MultiUp l Speedy l Narod

log
Exact Audio Copy V1.0 beta 1 from 15. November 2010

EAC extraction logfile from 28. February 2011, 2:08

Saigon Kick / Bastards

Used drive : PLEXTOR DVDR PX-880SA Adapter: 1 ID: 0

Read mode : Secure
Utilize accurate stream : Yes
Defeat audio cache : No
Make use of C2 pointers : Yes

Read offset correction : 6
Overread into Lead-In and Lead-Out : No
Fill up missing offset samples with silence : Yes
Delete leading and trailing silent blocks : No
Null samples used in CRC calculations : No
Used interface : Native Win32 interface for Win NT & 2000
Gap handling : Not detected, thus appended to previous track

Used output format : User Defined Encoder
Selected bitrate : 1024 kBit/s
Quality : High
Add ID3 tag : Yes
Command line compressor : D:\Program Files\Exact Audio Copy\FLAC\FLAC.EXE
Additional command line options : -6 -V -T "ARTIST=%a" -T "TITLE=%t" -T "ALBUM=%g" -T "DATE=%y" -T "TRACKNUMBER=%n" -T "GENRE=%m" -T "COMMENT=%e" %j--picture="%i"%j %s -o %d


TOC of the extracted CD

Track | Start | Length | Start sector | End sector
---------------------------------------------------------
1 | 0:00.00 | 3:41.07 | 0 | 16581
2 | 3:41.07 | 4:28.73 | 16582 | 36754
3 | 8:10.05 | 3:49.32 | 36755 | 53961
4 | 11:59.37 | 4:00.18 | 53962 | 71979
5 | 15:59.55 | 3:17.50 | 71980 | 86804
6 | 19:17.30 | 4:15.27 | 86805 | 105956
7 | 23:32.57 | 3:23.20 | 105957 | 121201
8 | 26:56.02 | 4:11.58 | 121202 | 140084
9 | 31:07.60 | 3:44.72 | 140085 | 156956
10 | 34:52.57 | 3:51.55 | 156957 | 174336
11 | 38:44.37 | 3:52.20 | 174337 | 191756


Track 1

Filename M:\Saigon Kick - Bastards (1999) [FLAC]\A Lot Like You.wav

Peak level 100.0 %
Extraction speed 10.6 X
Track quality 100.0 %
Test CRC CA889391
Copy CRC CA889391
Cannot be verified as accurate (confidence 1) [B21DDEC1], AccurateRip returned [DB66C835]
Copy OK

Track 2

Filename M:\Saigon Kick - Bastards (1999) [FLAC]\Jehovah.wav

Peak level 100.0 %
Extraction speed 12.6 X
Track quality 100.0 %
Test CRC B556B021
Copy CRC B556B021
Cannot be verified as accurate (confidence 1) [10941B76], AccurateRip returned [DD7DAE37]
Copy OK

Track 3

Filename M:\Saigon Kick - Bastards (1999) [FLAC]\Meet Your Maker.wav

Peak level 100.0 %
Extraction speed 13.5 X
Track quality 100.0 %
Test CRC C8CA55B3
Copy CRC C8CA55B3
Cannot be verified as accurate (confidence 1) [81D0FA7B], AccurateRip returned [AD1C9DBD]
Copy OK

Track 4

Filename M:\Saigon Kick - Bastards (1999) [FLAC]\Break My Heart.wav

Peak level 100.0 %
Extraction speed 14.6 X
Track quality 100.0 %
Test CRC 63B7D770
Copy CRC 63B7D770
Cannot be verified as accurate (confidence 1) [8C8121E3], AccurateRip returned [84F8DD4C]
Copy OK

Track 5

Filename M:\Saigon Kick - Bastards (1999) [FLAC]\Sign Of The Times.wav

Peak level 100.0 %
Extraction speed 15.3 X
Track quality 100.0 %
Test CRC 0B4BA4DC
Copy CRC 0B4BA4DC
Cannot be verified as accurate (confidence 1) [018E6F22], AccurateRip returned [628FE8F0]
Copy OK

Track 6

Filename M:\Saigon Kick - Bastards (1999) [FLAC]\So Sad To Say.wav

Peak level 100.0 %
Extraction speed 16.2 X
Track quality 100.0 %
Test CRC 806560C2
Copy CRC 806560C2
Cannot be verified as accurate (confidence 1) [502E9D89], AccurateRip returned [B2E75612]
Copy OK

Track 7

Filename M:\Saigon Kick - Bastards (1999) [FLAC]\Solitary Jerk.wav

Peak level 100.0 %
Extraction speed 16.6 X
Track quality 100.0 %
Test CRC CA90B756
Copy CRC CA90B756
Cannot be verified as accurate (confidence 1) [AD868EF1], AccurateRip returned [BE301072]
Copy OK

Track 8

Filename M:\Saigon Kick - Bastards (1999) [FLAC]\We Never Met.wav

Peak level 100.0 %
Extraction speed 17.5 X
Track quality 100.0 %
Test CRC E3FE233E
Copy CRC E3FE233E
Cannot be verified as accurate (confidence 1) [5B4EC118], AccurateRip returned [B835DAB4]
Copy OK

Track 9

Filename M:\Saigon Kick - Bastards (1999) [FLAC]\Who's Crying Now.wav

Peak level 100.0 %
Extraction speed 18.0 X
Track quality 100.0 %
Test CRC 5B8505B9
Copy CRC 5B8505B9
Cannot be verified as accurate (confidence 1) [7F775ADA], AccurateRip returned [03BE987F]
Copy OK

Track 10

Filename M:\Saigon Kick - Bastards (1999) [FLAC]\Big Shot.wav

Peak level 100.0 %
Extraction speed 15.8 X
Track quality 99.9 %
Test CRC ACC4D84C
Copy CRC ACC4D84C
Cannot be verified as accurate (confidence 1) [26A4D850], AccurateRip returned [46A84CE2]
Copy OK

Track 11

Filename M:\Saigon Kick - Bastards (1999) [FLAC]\Nearer.wav

Peak level 93.2 %
Extraction speed 19.7 X
Track quality 100.0 %
Test CRC 6CE97B16
Copy CRC 6CE97B16
Cannot be verified as accurate (confidence 1) [1E2327B7], AccurateRip returned [857F6266]
Copy OK


No tracks could be verified as accurate
You may have a different pressing from the one(s) in the database

No errors occurred

End of status report

cue
REM GENRE Rock
REM DATE 1999
REM DISCID 9009FC0B
REM COMMENT "ExactAudioCopy v1.0b1"
PERFORMER "Saigon Kick"
TITLE "Bastards"
FILE "A Lot Like You.wav" WAVE
TRACK 01 AUDIO
TITLE "A Lot Like You"
PERFORMER "Saigon Kick"
INDEX 01 00:00:00
TRACK 02 AUDIO
TITLE "Jehovah"
PERFORMER "Saigon Kick"
INDEX 00 03:39:19
FILE "Jehovah.wav" WAVE
INDEX 01 00:00:00
TRACK 03 AUDIO
TITLE "Meet Your Maker"
PERFORMER "Saigon Kick"
INDEX 00 04:27:69
FILE "Meet Your Maker.wav" WAVE
INDEX 01 00:00:00
TRACK 04 AUDIO
TITLE "Break My Heart"
PERFORMER "Saigon Kick"
INDEX 00 03:47:73
FILE "Break My Heart.wav" WAVE
INDEX 01 00:00:00
TRACK 05 AUDIO
TITLE "Sign Of The Times"
PERFORMER "Saigon Kick"
INDEX 00 03:58:45
FILE "Sign Of The Times.wav" WAVE
INDEX 01 00:00:00
TRACK 06 AUDIO
TITLE "So Sad To Say"
PERFORMER "Saigon Kick"
INDEX 00 03:16:30
FILE "So Sad To Say.wav" WAVE
INDEX 01 00:00:00
TRACK 07 AUDIO
TITLE "Solitary Jerk"
PERFORMER "Saigon Kick"
INDEX 00 04:14:35
FILE "Solitary Jerk.wav" WAVE
INDEX 01 00:00:00
TRACK 08 AUDIO
TITLE "We Never Met"
PERFORMER "Saigon Kick"
INDEX 00 03:21:71
FILE "We Never Met.wav" WAVE
INDEX 01 00:00:00
TRACK 09 AUDIO
TITLE "Who's Crying Now"
PERFORMER "Saigon Kick"
INDEX 00 04:10:50
FILE "Who's Crying Now.wav" WAVE
INDEX 01 00:00:00
TRACK 10 AUDIO
TITLE "Big Shot"
PERFORMER "Saigon Kick"
INDEX 00 03:43:55
FILE "Big Shot.wav" WAVE
INDEX 01 00:00:00
TRACK 11 AUDIO
TITLE "Nearer"
PERFORMER "Saigon Kick"
INDEX 00 03:46:52
FILE "Nearer.wav" WAVE
INDEX 01 00:00:00

spectrum
Image

_________________


Top
 Profile E-mail  
 
 
PostPosted: 28 Apr 2012 
Трешер
User avatar
Joined: 25 Feb 2011
Posts: 1045
Lоcаtion: Харьков
Age: 42
Name: Aleksandr
:thanx: Спасибо ! тока чот скачать не могу :(

О вроде бы пошло :dance:


Top
 Profile E-mail  
 
 
PostPosted: 28 Apr 2012 
Alive Again
User avatar
Joined: 17 Dec 2008
Posts: 4681
Lоcаtion: Курск Воронеж Оскол
Age: 44
Name: Дмитрий
Ссылка от оригинального релизёра alexk68 на narod.ru


Top
 Profile E-mail  
 
 
PostPosted: 28 Apr 2012 
Трешер
User avatar
Joined: 25 Feb 2011
Posts: 1045
Lоcаtion: Харьков
Age: 42
Name: Aleksandr
Спасибо :meloman: уже слушаю :true:


Top
 Profile E-mail  
 
 
PostPosted: 29 Apr 2012 
Хиппей (support team)
User avatar
Joined: 30 Jul 2007
Posts: 106508
Lоcаtion: Киев (Kyiv, UA)
Age: 45
Name: Andrey
Едрическая оползеневшая кошмарная летучемышная вошь :shok:

Так это ж настоящее бублегумное УГ в виде чуть утяжелённого бритпопа :horro: :yyy: :beee: :esel:

0/10

Вторая оценка, если считать это современным хард-роком: 3/10 :starz:

_________________


Top
 Profile E-mail  
 
 
PostPosted: 29 Apr 2012 
Alive Again
User avatar
Joined: 17 Dec 2008
Posts: 4681
Lоcаtion: Курск Воронеж Оскол
Age: 44
Name: Дмитрий
Я его тоже в своё время пропустил, по предпрослушиванию на ютюбе не понравился, но сейчас заценю.
Да, бритпоп, попытка протиснуться в рынок. В оправдание скажу, что и у коллег по стилю в те году происходили метаморфозы.
Motley Crue, Warrant, Ratt и ещё многие-многие, только дядька Ozzy не подкачал Image


Top
 Profile E-mail  
 
Display posts from previous:  Sort by  
Post new topic Reply to topic  [ 9 posts ] 

All times are UTC + 3 hours


Who is online

Users browsing this forum: No registered users and 8 guests


You cannot post new topics in this forum
You cannot reply to topics in this forum
You cannot edit your posts in this forum
You cannot delete your posts in this forum
You cannot post attachments in this forum

Search for:
Яндекс.Метрика
Powered by phpBB © 2000, 2002, 2005, 2007 phpBB Group