\m/ 80's metal \m/

Информационно-аналитический форум "80 см пыли" (In Search We Trust) "У нас никто никуда не спешит"
Me For You - http://me-4u.com
It is currently 27 May 2020

All times are UTC + 3 hours

Spoiler
Chat - temporary registration for foreign users (please leave your application here)







Post new topic Reply to topic  [ 82 posts ]  Go to page Previous  1, 2, 3, 4, 5  Next
Author Message
 
PostPosted: 15 Nov 2008 
Персональный статус
Joined: 15 Nov 2008
Posts: 285
Lоcаtion: прага
Age: 50
Name: .сергей
как то читал в одной статье,что у shogun перед развалом был новый материал но его так и не выпустили.правда ли это?у кого-нибудь есть?


Top
 Profile  
 
 
PostPosted: 23 Dec 2019 
Хиппей (support team)
User avatar
Joined: 30 Jul 2007
Posts: 118615
Lоcаtion: Киев (Kyiv, UA)
Age: 46
Name: Andrey
Ага 86-й у Эмиля всё же перелили :arrow: https://heavymetalrarities.com/forum/vi ... 75&t=18403
Ага, и второй тоже :arrow: https://heavymetalrarities.com/forum/vi ... 29#p190429

_________________


Top
 Profile E-mail  
 
 
PostPosted: 23 Dec 2019 
Хиппей (support team)
User avatar
Joined: 30 Jul 2007
Posts: 118615
Lоcаtion: Киев (Kyiv, UA)
Age: 46
Name: Andrey
Shogun - 1986 - Shogun (reissue 2002) [flac]

Image

scans
Image Image Image Image Image Image Image


mirror: Ur-Files l Telega l Uloz l Narod

Срочно забираю этот бодрый хэви-мэтал в личные топы :lob: :lob: :lob:
Альбом не очень типичный для британской школы хэви - скорее для шведской или даже германской :meloman:

8/10

log
Exact Audio Copy V0.99 prebeta 5 from 4. May 2009

EAC extraction logfile from 22. February 2015, 23:03

Shogun / Shogun

Used drive : TSSTcorpDVD+-RW TS-H653G Adapter: 0 ID: 0

Read mode : Secure
Utilize accurate stream : Yes
Defeat audio cache : Yes
Make use of C2 pointers : No

Read offset correction : 6
Overread into Lead-In and Lead-Out : No
Fill up missing offset samples with silence : Yes
Delete leading and trailing silent blocks : No
Null samples used in CRC calculations : Yes
Used interface : Native Win32 interface for Win NT & 2000

Used output format : User Defined Encoder
Selected bitrate : 40 kBit/s
Quality : High
Add ID3 tag : No
Command line compressor : F:\progjes\## programma's van C\EAC\Exact Audio Copy\Flac\flac.exe
Additional command line options : -6 -V %s


TOC of the extracted CD

Track | Start | Length | Start sector | End sector
---------------------------------------------------------
1 | 0:00.00 | 5:45.43 | 0 | 25917
2 | 5:45.43 | 5:48.15 | 25918 | 52032
3 | 11:33.58 | 5:41.21 | 52033 | 77628
4 | 17:15.04 | 3:43.40 | 77629 | 94393
5 | 20:58.44 | 4:02.60 | 94394 | 112603
6 | 25:01.29 | 4:40.51 | 112604 | 133654
7 | 29:42.05 | 4:24.29 | 133655 | 153483
8 | 34:06.34 | 5:30.59 | 153484 | 178292
9 | 39:37.18 | 3:22.57 | 178293 | 193499


Range status and errors

Selected range

Filename C:\Users\sammy\Music\Shogun - Shogun (Remastered 2002) (1986)\Shogun - Shogun.wav

Peak level 99.1 %
Range quality 100.0 %
Copy CRC 6E7F4217
Copy OK

No errors occurred


AccurateRip summary

Track 1 accurately ripped (confidence 1) [B7902DCF]
Track 2 accurately ripped (confidence 1) [C0CC89F2]
Track 3 accurately ripped (confidence 1) [83B67E32]
Track 4 accurately ripped (confidence 1) [EED183EC]
Track 5 accurately ripped (confidence 1) [E89EE127]
Track 6 accurately ripped (confidence 1) [B5F5ACFD]
Track 7 accurately ripped (confidence 1) [5ADA54DA]
Track 8 accurately ripped (confidence 1) [CADFFFEC]
Track 9 accurately ripped (confidence 1) [8D882565]

All tracks accurately ripped

End of status report

cue
REM GENRE Metal
REM DATE 1986
REM DISCID 780A1409
REM COMMENT "ExactAudioCopy v0.99pb5"
PERFORMER "Shogun"
TITLE "Shogun"
FILE "Shogun - Shogun.flac" WAVE
TRACK 01 AUDIO
TITLE "Too Much In Love"
PERFORMER "Shogun"
INDEX 01 00:00:00
TRACK 02 AUDIO
TITLE "Time Will Tell"
PERFORMER "Shogun"
INDEX 00 05:44:23
INDEX 01 05:45:43
TRACK 03 AUDIO
TITLE "Too Late For The Hunter"
PERFORMER "Shogun"
INDEX 00 11:32:38
INDEX 01 11:33:58
TRACK 04 AUDIO
TITLE "T.V. Hero"
PERFORMER "Shogun"
INDEX 00 17:13:59
INDEX 01 17:15:04
TRACK 05 AUDIO
TITLE "Burning Down The Night"
PERFORMER "Shogun"
INDEX 00 20:57:24
INDEX 01 20:58:44
TRACK 06 AUDIO
TITLE "When The Lights Go Down"
PERFORMER "Shogun"
INDEX 00 25:00:09
INDEX 01 25:01:29
TRACK 07 AUDIO
TITLE "Tokyo Girl"
PERFORMER "Shogun"
INDEX 00 29:40:60
INDEX 01 29:42:05
TRACK 08 AUDIO
TITLE "Only The Lonely"
PERFORMER "Shogun"
INDEX 00 34:05:14
INDEX 01 34:06:34
TRACK 09 AUDIO
TITLE "High In The Sky"
PERFORMER "Shogun"
INDEX 00 39:35:73
INDEX 01 39:37:18

_________________


Top
 Profile E-mail  
 
 
PostPosted: 23 Dec 2019 
Хиппей (support team)
User avatar
Joined: 30 Jul 2007
Posts: 118615
Lоcаtion: Киев (Kyiv, UA)
Age: 46
Name: Andrey
Shogun - 1987 - 31 Days [flacs]

Image
Image

mirror: Ur-Files l Telega l Telega l Narod

Начал слушать. Сразу же в уши врезался звук клавишных и некачественный, да ещё и попсовенький саунд.. :(

В общем, еле дослушал эту попсень a-la Europe :cry:

no rate/10
no log, no gue

Все британцы в 86-87 годах подурели на американской моде музыки для подростков и девочек? :vic:

_________________


Top
 Profile E-mail  
 
 
PostPosted: 23 Dec 2019 
Хиппей (support team)
User avatar
Joined: 30 Jul 2007
Posts: 118615
Lоcаtion: Киев (Kyiv, UA)
Age: 46
Name: Andrey
По запросу чего делать будем?
Опрашивать музыкантов?

_________________


Top
 Profile E-mail  
 
 
PostPosted: 24 Dec 2019 
Я набрал 1000 сообщений!
User avatar
Joined: 21 Nov 2009
Posts: 1441
Lоcаtion: praga
Age: 49
Name: Сергей
Можно и поспрашивать.Как то надо третий альбом найти.


Top
 Profile E-mail  
 
 
PostPosted: 25 Dec 2019 
Хиппей (support team)
User avatar
Joined: 30 Jul 2007
Posts: 118615
Lоcаtion: Киев (Kyiv, UA)
Age: 46
Name: Andrey
Тогда сделайте кто-то запрос.

Ай, или речь идёт о неизданном альбоме? =))

_________________


Top
 Profile E-mail  
 
 
PostPosted: 25 Dec 2019 
Хиппей (support team)
User avatar
Joined: 30 Jul 2007
Posts: 118615
Lоcаtion: Киев (Kyiv, UA)
Age: 46
Name: Andrey
Ха, а это разве не он? :arrow: https://www.facebook.com/NoRemorseRecor ... 320975976/

_________________


Top
 Profile E-mail  
 
 
PostPosted: 25 Dec 2019 
Хиппей (support team)
User avatar
Joined: 30 Jul 2007
Posts: 118615
Lоcаtion: Киев (Kyiv, UA)
Age: 46
Name: Andrey
Image
Quote:
SHOGUN "III - The Lost Album" CD

The "Lost UK Jewels" Collectors Series – Vol.17

Limited to 500 copies

The name of SHOGUN is synonymous with British AOR in the '80s. After the album "31 Days", they toured with Meat Loaf and even had several songs re-mixed by Bob Ezrin (Alice Cooper, Kiss) for a proposed single release.

But nestled amongst all of this activity was a near mythical set of demos, the proposed tracks for a third album that never saw the light of day. Now, these demos (13 tracks in total) for the unreleased third album are available for you!

Few copies available at http://www.noremorse.gr so act fast!

А он только вышел =)) :arrow: https://www.discogs.com/ru/Shogun-III-T ... e/13603776

Image Image Image

_________________


Top
 Profile E-mail  
 
 
PostPosted: 25 Dec 2019 
Я набрал 1000 сообщений!
User avatar
Joined: 21 Nov 2009
Posts: 1441
Lоcаtion: praga
Age: 49
Name: Сергей
Дык я о нем и писал чуть выше в посте и на одну песню с альбома ссылочку кинул-послушай!


Top
 Profile E-mail  
 
 
PostPosted: 25 Dec 2019 
Хиппей (support team)
User avatar
Joined: 30 Jul 2007
Posts: 118615
Lоcаtion: Киев (Kyiv, UA)
Age: 46
Name: Andrey
Не, не буду даже слушать, ясно ж, что в попсу ушли :pardon:

_________________


Top
 Profile E-mail  
 
 
PostPosted: 25 Dec 2019 
Я набрал 1000 сообщений!
User avatar
Joined: 21 Nov 2009
Posts: 1441
Lоcаtion: praga
Age: 49
Name: Сергей
Зря,послушай.Между первым и вторым альбомом музыка.На Бон Джови 84 похожа.


Top
 Profile E-mail  
 
 
PostPosted: 25 Dec 2019 
Хиппей (support team)
User avatar
Joined: 30 Jul 2007
Posts: 118615
Lоcаtion: Киев (Kyiv, UA)
Age: 46
Name: Andrey
Бррр, второй же едва тяжелее БорЖоми :lloo:

Кстати, а я лох, ссылку не нашёл на скачивание альбома.

_________________


Top
 Profile E-mail  
 
 
PostPosted: 26 Dec 2019 
Я набрал 1000 сообщений!
User avatar
Joined: 21 Nov 2009
Posts: 1441
Lоcаtion: praga
Age: 49
Name: Сергей
Чивойт?


Top
 Profile E-mail  
 
 
PostPosted: 26 Dec 2019 
Хиппей (support team)
User avatar
Joined: 30 Jul 2007
Posts: 118615
Lоcаtion: Киев (Kyiv, UA)
Age: 46
Name: Andrey
Чивойт?

Шо чиво? Ссылку не нашёл? Ну я, видать, лох :dance:

_________________


Top
 Profile E-mail  
 
 
PostPosted: 22 Jan 2020 
Работнечег
User avatar
Joined: 28 Aug 2007
Posts: 6250
Lоcаtion: г. Москва
Age: 31
Name: Дима
Где-нибудь всплывет думаю скоро


Top
 Profile E-mail  
 
 
PostPosted: 22 Jan 2020 
Хиппей (support team)
User avatar
Joined: 30 Jul 2007
Posts: 118615
Lоcаtion: Киев (Kyiv, UA)
Age: 46
Name: Andrey
Ога :kro:

_________________


Top
 Profile E-mail  
 
 
PostPosted: 22 May 2020 
Rara avis
User avatar
Joined: 27 Jan 2009
Posts: 5592
Name: .
Появился у меня этот альбом. Сюда заливать можно?


Top
 Profile E-mail  
 
 
PostPosted: 23 May 2020 
Я набрал 1000 сообщений!
User avatar
Joined: 21 Nov 2009
Posts: 1441
Lоcаtion: praga
Age: 49
Name: Сергей
Конечно Даша и даже нужно.Заранее спасибо.Кстати недавно в нете встретил не изданный альбом Grim Reaper 1988/2020.


Top
 Profile E-mail  
 
 
PostPosted: 23 May 2020 
Rara avis
User avatar
Joined: 27 Jan 2009
Posts: 5592
Name: .
Ну... тогда вот :pardon:


Top
 Profile E-mail  
 
 
PostPosted: 23 May 2020 
Я набрал 1000 сообщений!
User avatar
Joined: 21 Nov 2009
Posts: 1441
Lоcаtion: praga
Age: 49
Name: Сергей
Спасибо еще раз Даш за оперативность.Грандиозно!


Top
 Profile E-mail  
 
Display posts from previous:  Sort by  
Post new topic Reply to topic  [ 82 posts ]  Go to page Previous  1, 2, 3, 4, 5  Next

All times are UTC + 3 hours


Who is online

Users browsing this forum: No registered users and 1 guest


You cannot post new topics in this forum
You cannot reply to topics in this forum
You cannot edit your posts in this forum
You cannot delete your posts in this forum
You cannot post attachments in this forum

Search for:
Яндекс.Метрика
cron
Powered by phpBB © 2000, 2002, 2005, 2007 phpBB Group