\m/ 80's metal \m/

Информационно-аналитический форум "80 см пыли" (In Search We Trust) "У нас никто никуда не спешит"
Me For You - http://me-4u.com
It is currently 12 Dec 2018

All times are UTC + 3 hours

Spoiler
Chat - temporary registration for foreign users (please leave your application here)







Post new topic Reply to topic  [ 10 posts ] 
Author Message
 
PostPosted: 22 Oct 2010 
ыыыы
User avatar
Joined: 17 May 2009
Posts: 952
Lоcаtion: Пушкино, МО
Age: 40
Name: Дмитрий
Image


Жанр: Heavy Metal
Происхождение исполнителя: США
Год издания: 1992
Год издания данного носителя: 1992
Страна-производитель носителя: Япония
Аудио кодек: FLAC
Тип рипа: image+.cue
Битрейт аудио: lossless
Продолжительность: 36:55
Рип: Собственный
Лейбл: SHRAPNEL/F.E.M.S.
Каталоговый номер: APCY-8090
Матрица: APCY-8090- 1P 11 V (JVC)

Треклист:
1. Hammer Away 04:11
2. Poison Eyes 04:06
3. Heart Of A Lion 04:36
4. Moonage Daydream (David Bowie cover) 03:17
5. Sunlit Nights 04:04
6. Give It To Me 03:08
7. On The Loose 03:02
8. Rock It 05:11
9. Detroit Rock City (Kiss cover) 05:20

"Куй"
REM GENRE "Heavy Metal"
REM DATE 1992
REM DISCID 8508A709
REM COMMENT "ExactAudioCopy v0.99pb5"
PERFORMER "Racer X"
TITLE "Live! Extreme Volume II [APCY-8090]"
FILE "Racer X - Live! Extreme Volume II [APCY-8090].flac" WAVE
TRACK 01 AUDIO
TITLE "Hammer Away"
PERFORMER "Racer X"
INDEX 00 00:00:00
INDEX 01 00:00:37
TRACK 02 AUDIO
TITLE "Poison Eyes"
PERFORMER "Racer X"
INDEX 01 04:11:20
TRACK 03 AUDIO
TITLE "Heart Of A Lion"
PERFORMER "Racer X"
INDEX 01 08:16:65
TRACK 04 AUDIO
TITLE "Moonage Daydream"
PERFORMER "Racer X"
INDEX 01 12:53:05
TRACK 05 AUDIO
TITLE "Sunlit Nights"
PERFORMER "Racer X"
INDEX 01 16:09:57
TRACK 06 AUDIO
TITLE "Give It To Me"
PERFORMER "Racer X"
INDEX 01 20:14:12
TRACK 07 AUDIO
TITLE "On The Loose"
PERFORMER "Racer X"
INDEX 01 23:22:35
TRACK 08 AUDIO
TITLE "Rock It"
PERFORMER "Racer X"
INDEX 01 26:24:55
TRACK 09 AUDIO
TITLE "Detroit Rock City"
PERFORMER "Racer X"
INDEX 01 31:35:70


"Лог"
Exact Audio Copy V0.99 prebeta 5 from 4. May 2009

Отчёт EAC об извлечении, выполненном 20. октября 2010, 12:04

Racer X / Live! Extreme Volume II [APCY-8090]

Дисковод: Optiarc DVD RW AD-7200A Adapter: 1 ID: 0

Режим чтения : Достоверность
Использование точного потока : Да
Отключение кэша аудио : Да
Использование указателей C2 : Нет

Коррекция смещения при чтении : 48
Способность читать области Lead-in и Lead-out : Нет
Заполнение пропущенных сэмплов тишиной : Да
Удаление блоков с тишиной в начале и конце : Нет
При вычислениях CRC использовались нулевые сэмплы : Да
Интерфейс : Встроенный Win32-интерфейс для Win NT/2000

Выходной формат : Пользовательский кодировщик
Выбранный битрейт : 128 kBit/s
Качество : Высокий
Добавление ID3-тэга : Нет
Утилита сжатия : C:\Program Files\Exact Audio Copy\Flac\flac.exe
Дополнительные параметры : -8 -V -T "artist=%a" -T "title=%t" -T "album=%g" -T "date=%y" -T "tracknumber=%n" -T "genre=%m" -T "comment=EAC


TOC извлечённого CD

Трек | Старт | Длительность | Начальный сектор | Конечный сектор
---------------------------------------------------------------------
1 | 0:00.37 | 4:10.58 | 37 | 18844
2 | 4:11.20 | 4:05.45 | 18845 | 37264
3 | 8:16.65 | 4:36.15 | 37265 | 57979
4 | 12:53.05 | 3:16.52 | 57980 | 72731
5 | 16:09.57 | 4:04.30 | 72732 | 91061
6 | 20:14.12 | 3:08.23 | 91062 | 105184
7 | 23:22.35 | 3:02.20 | 105185 | 118854
8 | 26:24.55 | 5:11.15 | 118855 | 142194
9 | 31:35.70 | 5:20.00 | 142195 | 166194


Характеристики диапазона извлечения и сообщения об ошибках

Выбранный диапазон

Имя файла Y:\Музыка\Racer X\1992 Live! Extreme Volume II\Racer X - Live! Extreme Volume II [APCY-8090].wav

Пиковый уровень 88.7 %
Качество диапазона 100.0 %
CRC копии 5C7C1E49
Копирование... OK

Ошибок не произошло


AccurateRip: сводка

Трек 1 нет в базе данных
Трек 2 нет в базе данных
Трек 3 нет в базе данных
Трек 4 нет в базе данных
Трек 5 нет в базе данных
Трек 6 нет в базе данных
Трек 7 нет в базе данных
Трек 8 нет в базе данных
Трек 9 нет в базе данных

Ни одного трека нет в базе AccurateRip

Конец отчёта


Состав:
Jeff Martin: Vocals
Paul Gilbert: Guitar
Bruce Bouillet: Guitar
John Alderete: Bass
Scott Travis: Drums

APCY-8090

_________________
Витасу до Даймонда как Алсу до Руссоса | При переразмещении - спрашивать разрешение!!


Top
 Profile  
 
 
PostPosted: 25 Oct 2010 
Работнечег
User avatar
Joined: 28 Aug 2007
Posts: 5599
Lоcаtion: г. Москва
Age: 29
Name: Дима
Спасибо, Дим! Этот релиз с удовольствием заберу! :true:


Top
 Profile E-mail  
 
 
PostPosted: 25 Oct 2010 
Хиппей (support team)
User avatar
Joined: 30 Jul 2007
Posts: 108846
Lоcаtion: Киев (Kyiv, UA)
Age: 45
Name: Andrey
:thanx: :true:

_________________


Top
 Profile E-mail  
 
 
PostPosted: 25 Oct 2010 
дядя Миша
User avatar
Joined: 17 Oct 2008
Posts: 3078
Lоcаtion: USSR
Age: 56
Name: Khy
Thanks , Dimon!!


Top
 Profile  
 
 
PostPosted: 25 Oct 2010 
ыыыы
User avatar
Joined: 17 May 2009
Posts: 952
Lоcаtion: Пушкино, МО
Age: 40
Name: Дмитрий
:true: :true:

_________________
Витасу до Даймонда как Алсу до Руссоса | При переразмещении - спрашивать разрешение!!


Top
 Profile  
 
 
PostPosted: 26 Oct 2010 
ыыыы
User avatar
Joined: 17 May 2009
Posts: 952
Lоcаtion: Пушкино, МО
Age: 40
Name: Дмитрий
Не в тот раздел пихнул- надо в лосиную бухту :fingal:

_________________
Витасу до Даймонда как Алсу до Руссоса | При переразмещении - спрашивать разрешение!!


Top
 Profile  
 
 
PostPosted: 29 Mar 2011 
А может смените мне статус?..
Joined: 03 Jul 2009
Posts: 836
Lоcаtion: Serbia
Name: Laki
Dead link. Please reup!! Thanks !!!!


Top
 Profile E-mail  
 
 
PostPosted: 29 Mar 2011 
Хиппей (support team)
User avatar
Joined: 30 Jul 2007
Posts: 108846
Lоcаtion: Киев (Kyiv, UA)
Age: 45
Name: Andrey
http://rutracker.org/forum/viewtopic.php?t=2913931

_________________


Top
 Profile E-mail  
 
 
PostPosted: 30 Mar 2011 
А может смените мне статус?..
Joined: 03 Jul 2009
Posts: 836
Lоcаtion: Serbia
Name: Laki
Scatterbrain wrote:
http://rutracker.org/forum/viewtopic.php?t=2913931



:thanx:


Top
 Profile E-mail  
 
 
PostPosted: 28 Jul 2011 
Хиппей (support team)
User avatar
Joined: 30 Jul 2007
Posts: 108846
Lоcаtion: Киев (Kyiv, UA)
Age: 45
Name: Andrey
mirror: MultiUp l Narod

_________________


Top
 Profile E-mail  
 
Display posts from previous:  Sort by  
Post new topic Reply to topic  [ 10 posts ] 

All times are UTC + 3 hours


Who is online

Users browsing this forum: No registered users and 2 guests


You cannot post new topics in this forum
You cannot reply to topics in this forum
You cannot edit your posts in this forum
You cannot delete your posts in this forum
You cannot post attachments in this forum

Search for:
Яндекс.Метрика
Powered by phpBB © 2000, 2002, 2005, 2007 phpBB Group