\m/ 80's metal \m/

Информационно-аналитический форум "80 см пыли" (In Search We Trust) "У нас никто никуда не спешит"
Me For You - http://me-4u.com
It is currently 30 Sep 2020

All times are UTC + 3 hours

Spoiler
Chat - temporary registration for foreign users (please leave your application here)







Post new topic Reply to topic  [ 40 posts ]  Go to page Previous  1, 2
Author Message
 
PostPosted: 13 Dec 2009 
семерых одним ударом
Joined: 18 Aug 2007
Posts: 4641
Lоcаtion: Владивосток
Age: 45
Name: Николай Николаевич
Добрый день. На протяжении долгого времени не могу найти альбомы группы Rewind:

> Осталось найти: | Still looking:
Rewind - Psych'Opera - 2000


Инфо по группе/альбому:
Страна: США
Участники:

Mickey Perez- Guitar
Rob Simpson- Guitar
Dave Ducey- Drums
Boz- Bass
Andrew Kenesie - Vocals

Картинок нема, с трэклистами тоже проблема.
Группа состоит из бывших участников Warrior (USA).
Буду рад любому битрейду!!

Image Image


Top
 Profile  
 
 
PostPosted: 08 May 2017 
Хиппей (support team)
User avatar
Joined: 30 Jul 2007
Posts: 119355
Lоcаtion: Киев (Kyiv, UA)
Age: 47
Name: Andrey
Да даже на Soundgarden ранний не похожи.

_________________


Top
 Profile E-mail  
 
 
PostPosted: 15 Jun 2018 
Rara avis
User avatar
Joined: 27 Jan 2009
Posts: 5696
Name: .
Торги https://www.ebay.com/itm/REWIND-Irrigat ... SwkLJbGHfG
REWIND Irrigate Your Mind CD


Top
 Profile E-mail  
 
 
PostPosted: 11 Aug 2018 
Rara avis
User avatar
Joined: 27 Jan 2009
Posts: 5696
Name: .
Можно коврики достать? - http://www.freecovers.net/view/0/a5a7de ... Show_(2000)-front.html


Top
 Profile E-mail  
 
 
PostPosted: 12 Aug 2018 
Работнечег
User avatar
Joined: 28 Aug 2007
Posts: 6363
Lоcаtion: г. Москва
Age: 31
Name: Дима
98 и 99 уже есть, спасибо Dave Ducey, а 2000 официально не выходил. Попробую что-то узнать у Dave


Top
 Profile E-mail  
 
 
PostPosted: 13 Aug 2018 
Rara avis
User avatar
Joined: 27 Jan 2009
Posts: 5696
Name: .
Супер! :true: Ссылки здесь буду?


Top
 Profile E-mail  
 
 
PostPosted: 13 Aug 2018 
Хиппей (support team)
User avatar
Joined: 30 Jul 2007
Posts: 119355
Lоcаtion: Киев (Kyiv, UA)
Age: 47
Name: Andrey
Можно коврики достать? - http://www.freecovers.net/view/0/a5a7de ... Show_(2000)-front.html

Полка нельзя - при регистрации рекапча ошибку выдаёт https://www.gstatic.com/recaptcha/image ... ported.png :fingal:

_________________


Top
 Profile E-mail  
 
 
PostPosted: 29 Oct 2019 
Работнечег
User avatar
Joined: 28 Aug 2007
Posts: 6363
Lоcаtion: г. Москва
Age: 31
Name: Дима
Rewind - Irrigate Your Mind (1998)

Image

Size: 372 Mb
Format: FLAC + Log + Cue + Covers
Style: Heavy Metal

Line-Up:
Mickey Perez - Lead Guitar
Dave Ducey - Drums
Andrew Kenesie - Vocal
Boz - Bass, Vocal
Rob Simpson - Rhutm Guitar


Tracklist:
1. Rewind
2. Dear God
3. Wonder
4. The Trip
5. Portraits
6. Insane
7. Final Breath
8. Falling
9. The Seed
10. V.H.F.
11. Can U See
12. Hey You!

LOG
Exact Audio Copy V1.3 from 2. September 2016

EAC extraction logfile from 1. September 2019, 18:22

Rewind / Irrigate Your Mind

Used drive : PIONEER DVD-RW DVR-221 Adapter: 1 ID: 0

Read mode : Secure
Utilize accurate stream : Yes
Defeat audio cache : Yes
Make use of C2 pointers : No

Read offset correction : 6
Overread into Lead-In and Lead-Out : No
Fill up missing offset samples with silence : Yes
Delete leading and trailing silent blocks : No
Null samples used in CRC calculations : Yes
Used interface : Native Win32 interface for Win NT & 2000

Used output format : User Defined Encoder
Selected bitrate : 768 kBit/s
Quality : High
Add ID3 tag : No
Command line compressor : C:\Program Files (x86)\Exact Audio Copy\FLAC\FLAC.EXE
Additional command line options : -6 -V -T "ARTIST=%artist%" -T "TITLE=%title%" -T "ALBUM=%albumtitle%" -T "DATE=%year%" -T "TRACKNUMBER=%tracknr%" -T "GENRE=%genre%" -T "COMMENT=%comment%" -T "BAND=%albuminterpret%" -T "ALBUMARTIST=%albuminterpret%" -T "COMPOSER=%composer%" %haslyrics%--tag-from-file=LYRICS="%lyricsfile%"%haslyrics% -T "DISCNUMBER=%cdnumber%" -T "TOTALDISCS=%totalcds%" -T "TOTALTRACKS=%numtracks%" %hascover%--picture="%coverfile%"%hascover% %source% -o %dest%


TOC of the extracted CD

Track | Start | Length | Start sector | End sector
---------------------------------------------------------
1 | 0:00.00 | 4:01.12 | 0 | 18086
2 | 4:01.12 | 4:29.15 | 18087 | 38276
3 | 8:30.27 | 4:49.01 | 38277 | 59952
4 | 13:19.28 | 4:22.05 | 59953 | 79607
5 | 17:41.33 | 3:51.14 | 79608 | 96946
6 | 21:32.47 | 4:30.34 | 96947 | 117230
7 | 26:03.06 | 5:14.44 | 117231 | 140824
8 | 31:17.50 | 4:33.25 | 140825 | 161324
9 | 35:51.00 | 3:51.66 | 161325 | 178715
10 | 39:42.66 | 3:54.51 | 178716 | 196316
11 | 43:37.42 | 3:39.15 | 196317 | 212756
12 | 47:16.57 | 3:03.35 | 212757 | 226516


Range status and errors

Selected range

Filename D:\Музыка\Lossless\Rewind - Irrigate Your Mind (1998)\Rewind - Irrigate Your Mind.wav

Peak level 99.8 %
Extraction speed 5.7 X
Range quality 99.9 %
Copy CRC 09DA3957
Copy OK

No errors occurred


AccurateRip summary

Track 1 not present in database
Track 2 not present in database
Track 3 not present in database
Track 4 not present in database
Track 5 not present in database
Track 6 not present in database
Track 7 not present in database
Track 8 not present in database
Track 9 not present in database
Track 10 not present in database
Track 11 not present in database
Track 12 not present in database

None of the tracks are present in the AccurateRip database

End of status report

---- CUETools DB Plugin V2.1.6

[CTDB TOCID: lwOFVSpsjUpfyeRfcS2fp0qlof0-] database access error: Невозможно разрешить удаленное имя: 'db.cuetools.net'

CUE
REM GENRE "Heavy Metal"
REM DATE 1998
REM DISCID A30BCC0C
REM COMMENT "ExactAudioCopy v1.3"
PERFORMER "Rewind"
TITLE "Irrigate Your Mind"
REM COMPOSER ""
FILE "Rewind - Irrigate Your Mind.flac" WAVE
TRACK 01 AUDIO
TITLE "Rewind"
PERFORMER "Rewind"
REM COMPOSER ""
FLAGS DCP
INDEX 01 00:00:00
TRACK 02 AUDIO
TITLE "Dear God"
PERFORMER "Rewind"
REM COMPOSER ""
FLAGS DCP
INDEX 01 04:01:12
TRACK 03 AUDIO
TITLE "Wonder"
PERFORMER "Rewind"
REM COMPOSER ""
FLAGS DCP
INDEX 01 08:30:27
TRACK 04 AUDIO
TITLE "The Trip"
PERFORMER "Rewind"
REM COMPOSER ""
FLAGS DCP
INDEX 01 13:19:28
TRACK 05 AUDIO
TITLE "Portraits"
PERFORMER "Rewind"
REM COMPOSER ""
FLAGS DCP
INDEX 01 17:41:33
TRACK 06 AUDIO
TITLE "Insane"
PERFORMER "Rewind"
REM COMPOSER ""
FLAGS DCP
INDEX 01 21:32:47
TRACK 07 AUDIO
TITLE "Final Breath"
PERFORMER "Rewind"
REM COMPOSER ""
FLAGS DCP
INDEX 01 26:03:06
TRACK 08 AUDIO
TITLE "Falling"
PERFORMER "Rewind"
REM COMPOSER ""
FLAGS DCP
INDEX 01 31:17:50
TRACK 09 AUDIO
TITLE "The Seed"
PERFORMER "Rewind"
REM COMPOSER ""
FLAGS DCP
INDEX 01 35:51:00
TRACK 10 AUDIO
TITLE "U.H.F."
PERFORMER "Rewind"
REM COMPOSER ""
FLAGS DCP
INDEX 01 39:42:66
TRACK 11 AUDIO
TITLE "Can U See"
PERFORMER "Rewind"
REM COMPOSER ""
FLAGS DCP
INDEX 01 43:37:42
TRACK 12 AUDIO
TITLE "Hey You!"
PERFORMER "Rewind"
REM COMPOSER ""
FLAGS DCP
INDEX 01 47:16:57


Yadi

Хэви метал в стиле 90-х. Иногда даже скорее рок, среднетемповый ( В целом на любителя, не могу сказать что что-то запомнилось (кроме последней бодрой закрывашки), но и отторжения вроде тоже не вызвало.


Top
 Profile E-mail  
 
 
PostPosted: 29 Oct 2019 
Прокъмитолист
User avatar
Joined: 12 Aug 2007
Posts: 6770
Lоcаtion: Санктъ-Петербуркъ
Age: 52
Name: Олекъ
:thanx:

_________________
прокъметол - это музыко, от которово есть прок (ы)


Top
 Profile  
 
 
PostPosted: 29 Oct 2019 
семерых одним ударом
Joined: 18 Aug 2007
Posts: 4641
Lоcаtion: Владивосток
Age: 45
Name: Николай Николаевич
был так рад только по приезду в Ленинград. Дима, спасибо огромное - ты великий добытчик!!!


Top
 Profile  
 
 
PostPosted: 29 Oct 2019 
Хиппей (support team)
User avatar
Joined: 30 Jul 2007
Posts: 119355
Lоcаtion: Киев (Kyiv, UA)
Age: 47
Name: Andrey
church wrote:
Rewind - Irrigate Your Mind (1998)

:thanx:

mirror: Ur-Files l Telega l Uloz l Narod

_________________


Top
 Profile E-mail  
 
 
PostPosted: 29 Oct 2019 
Хиппей (support team)
User avatar
Joined: 30 Jul 2007
Posts: 119355
Lоcаtion: Киев (Kyiv, UA)
Age: 47
Name: Andrey
А тутася группа точно нету? :arrow: https://www.deezer.com/ru/artist/62594

_________________


Top
 Profile E-mail  
 
 
PostPosted: 29 Oct 2019 
Я набрал 1000 сообщений!
Joined: 24 Oct 2009
Posts: 2408
Lоcаtion: Оренбург
Age: 57
Name: Юра
Диме :thanx:

_________________
:dash: I am happy!


Top
 Profile E-mail  
 
 
PostPosted: 31 Oct 2019 
спирт 100%
User avatar
Joined: 22 Sep 2008
Posts: 4588
Age: 49
Name: Саня
:thanx: :true:


Top
 Profile  
 
 
PostPosted: 10 Nov 2019 
Хиппей (support team)
User avatar
Joined: 30 Jul 2007
Posts: 119355
Lоcаtion: Киев (Kyiv, UA)
Age: 47
Name: Andrey
church wrote:
Rewind - Irrigate Your Mind (1998)

Примерно так вот звучит глэм-мотел конца 90-х :meloman:

6/10

Но очень уж однотипно и скучновата музыка.
Но вокал прикольный :dance:

_________________


Top
 Profile E-mail  
 
 
PostPosted: 07 Feb 2020 
семерых одним ударом
Joined: 18 Aug 2007
Posts: 4641
Lоcаtion: Владивосток
Age: 45
Name: Николай Николаевич
church wrote:
и 99 уже есть
И 99 есть?! Залей пожалуйста


Top
 Profile  
 
 
PostPosted: 13 Feb 2020 
Работнечег
User avatar
Joined: 28 Aug 2007
Posts: 6363
Lоcаtion: г. Москва
Age: 31
Name: Дима
Будет, но попозже, компьютер подломался (


Top
 Profile E-mail  
 
 
PostPosted: 20 Feb 2020 
Работнечег
User avatar
Joined: 28 Aug 2007
Posts: 6363
Lоcаtion: г. Москва
Age: 31
Name: Дима
Rewind - Moment In Time (1999)

Image

Size: 396 Mb
Format: FLAC + Log + Cue + Covers
Style: Heavy Metal

Line-Up:
Mickey Perez - Lead Guitar
Dave Ducey - Drums
Andrew Kenesie - Vocal
Boz - Bass, Vocal
Rob Simpson - Rhutm Guitar


Tracklist:
1. Blue Skies
2. Moment In Time
3. Can U Hear Me ?
4. Time Gone
5. Tea For Two
6. Dusty Needles
7. Mother Mercy
8. When I Die
9. Until The End
10. Shelling
11. Wasted Time
12. What-a-Woman


LOG
Exact Audio Copy V1.3 from 2. September 2016

EAC extraction logfile from 30. October 2019, 15:52

Rewind / Moment In Time

Used drive : PIONEER DVD-RW DVR-221 Adapter: 1 ID: 0

Read mode : Secure
Utilize accurate stream : Yes
Defeat audio cache : Yes
Make use of C2 pointers : No

Read offset correction : 6
Overread into Lead-In and Lead-Out : No
Fill up missing offset samples with silence : Yes
Delete leading and trailing silent blocks : No
Null samples used in CRC calculations : Yes
Used interface : Native Win32 interface for Win NT & 2000

Used output format : User Defined Encoder
Selected bitrate : 768 kBit/s
Quality : High
Add ID3 tag : No
Command line compressor : C:\Program Files (x86)\Exact Audio Copy\FLAC\FLAC.EXE
Additional command line options : -6 -V -T "ARTIST=%artist%" -T "TITLE=%title%" -T "ALBUM=%albumtitle%" -T "DATE=%year%" -T "TRACKNUMBER=%tracknr%" -T "GENRE=%genre%" -T "COMMENT=%comment%" -T "BAND=%albuminterpret%" -T "ALBUMARTIST=%albuminterpret%" -T "COMPOSER=%composer%" %haslyrics%--tag-from-file=LYRICS="%lyricsfile%"%haslyrics% -T "DISCNUMBER=%cdnumber%" -T "TOTALDISCS=%totalcds%" -T "TOTALTRACKS=%numtracks%" %hascover%--picture="%coverfile%"%hascover% %source% -o %dest%


TOC of the extracted CD

Track | Start | Length | Start sector | End sector
---------------------------------------------------------
1 | 0:00.00 | 4:12.03 | 0 | 18902
2 | 4:12.03 | 4:10.21 | 18903 | 37673
3 | 8:22.24 | 5:03.15 | 37674 | 60413
4 | 13:25.39 | 2:19.71 | 60414 | 70909
5 | 15:45.35 | 4:41.50 | 70910 | 92034
6 | 20:27.10 | 5:15.69 | 92035 | 115728
7 | 25:43.04 | 4:56.58 | 115729 | 137986
8 | 30:39.62 | 4:39.37 | 137987 | 158948
9 | 35:19.24 | 4:38.41 | 158949 | 179839
10 | 39:57.65 | 5:16.10 | 179840 | 203549
11 | 45:14.00 | 4:26.04 | 203550 | 223503
12 | 49:40.04 | 4:04.08 | 223504 | 241811


Range status and errors

Selected range

Filename D:\Музыка\Lossless\Rewind - Moment In Time (1999)\Rewind - Moment In Time.wav

Peak level 100.0 %
Extraction speed 6.1 X
Range quality 100.0 %
Copy CRC DC7C3A72
Copy OK

No errors occurred


AccurateRip summary

Track 1 not present in database
Track 2 not present in database
Track 3 not present in database
Track 4 not present in database
Track 5 not present in database
Track 6 not present in database
Track 7 not present in database
Track 8 not present in database
Track 9 not present in database
Track 10 not present in database
Track 11 not present in database
Track 12 not present in database

None of the tracks are present in the AccurateRip database

End of status report

---- CUETools DB Plugin V2.1.6

[CTDB TOCID: gQpnzAFT4dr1eI9KwMaUk67diD8-] disk not present in database
Submit result: gQpnzAFT4dr1eI9KwMaUk67diD8- has been uploaded

CUE
REM GENRE "Heavy Metal"
REM DATE 1999
REM DISCID A60C980C
REM COMMENT "ExactAudioCopy v1.3"
PERFORMER "Rewind"
TITLE "Moment In Time"
REM COMPOSER ""
FILE "Rewind - Moment In Time.flac" WAVE
TRACK 01 AUDIO
TITLE "Blue Skies"
PERFORMER "Rewind"
REM COMPOSER ""
INDEX 01 00:00:00
TRACK 02 AUDIO
TITLE "Moment In Time"
PERFORMER "Rewind"
REM COMPOSER ""
INDEX 01 04:12:03
TRACK 03 AUDIO
TITLE "Can U Hear Me?"
PERFORMER "Rewind"
REM COMPOSER ""
INDEX 01 08:22:24
TRACK 04 AUDIO
TITLE "Time Gone"
PERFORMER "Rewind"
REM COMPOSER ""
INDEX 01 13:25:39
TRACK 05 AUDIO
TITLE "Tea For Two"
PERFORMER "Rewind"
REM COMPOSER ""
INDEX 01 15:45:35
TRACK 06 AUDIO
TITLE "Dusty Needles"
PERFORMER "Rewind"
REM COMPOSER ""
INDEX 01 20:27:10
TRACK 07 AUDIO
TITLE "Mother Mercy"
PERFORMER "Rewind"
REM COMPOSER ""
INDEX 01 25:43:04
TRACK 08 AUDIO
TITLE "When I Die"
PERFORMER "Rewind"
REM COMPOSER ""
INDEX 01 30:39:62
TRACK 09 AUDIO
TITLE "Untill The End"
PERFORMER "Rewind"
REM COMPOSER ""
INDEX 01 35:19:24
TRACK 10 AUDIO
TITLE "Shelling"
PERFORMER "Rewind"
REM COMPOSER ""
INDEX 01 39:57:65
TRACK 11 AUDIO
TITLE "Wasted Time"
PERFORMER "Rewind"
REM COMPOSER ""
INDEX 01 45:14:00
TRACK 12 AUDIO
TITLE "What-A-Woman"
PERFORMER "Rewind"
REM COMPOSER ""
INDEX 01 49:40:04


Yadi

Альбом выполнен в духе предыдущего!


Top
 Profile E-mail  
 
 
PostPosted: 20 Feb 2020 
семерых одним ударом
Joined: 18 Aug 2007
Posts: 4641
Lоcаtion: Владивосток
Age: 45
Name: Николай Николаевич
Ура, спасибо! Приеду домой, заберу!!


Top
 Profile  
 
 
PostPosted: 20 Feb 2020 
Рарник и трушник
User avatar
Joined: 25 Dec 2009
Posts: 9204
Lоcаtion: Москва
Age: 55
Name: Виталий
:thanx:


Top
 Profile  
 
 
PostPosted: 21 Feb 2020 
Прокъмитолист
User avatar
Joined: 12 Aug 2007
Posts: 6770
Lоcаtion: Санктъ-Петербуркъ
Age: 52
Name: Олекъ
:thanx:

_________________
прокъметол - это музыко, от которово есть прок (ы)


Top
 Profile  
 
Display posts from previous:  Sort by  
Post new topic Reply to topic  [ 40 posts ]  Go to page Previous  1, 2

All times are UTC + 3 hours


Who is online

Users browsing this forum: No registered users and 2 guests


You cannot post new topics in this forum
You cannot reply to topics in this forum
You cannot edit your posts in this forum
You cannot delete your posts in this forum
You cannot post attachments in this forum

Search for:
Яндекс.Метрика
cron
Powered by phpBB © 2000, 2002, 2005, 2007 phpBB Group