\m/ 80's metal \m/

Информационно-аналитический форум "80 см пыли" (In Search We Trust) "У нас никто никуда не спешит"
Me For You - http://me-4u.com
It is currently 13 Nov 2018

All times are UTC + 3 hours

Spoiler
Chat - temporary registration for foreign users (please leave your application here)







Post new topic Reply to topic  [ 76 posts ]  Go to page Previous  1, 2, 3, 4  Next
Author Message
 
PostPosted: 03 Jan 2009 
Дежурный по КУПу
User avatar
Joined: 17 Aug 2007
Posts: 5869
Age: 50
Name: Ге
Да, кинь куй сюда :crazy: посмотрим

_________________
http://jp-mania.ru/
http://jp-tourdates.ucoz.ru/


Top
 Profile  
 
 
PostPosted: 03 Jan 2009 
Почётный металлург
User avatar
Joined: 15 Sep 2007
Posts: 4357
Lоcаtion: Хабаровск
Age: 58
Name: чуть выше
Quartz - Satan's Serenade - The Quartz Anthology - CD 1 - 2004.cue

_________________
Коль будешь людей ты ослами честить,
тебе человеком меж них не прослыть!
(Саади, персидский поэт, 13в.)


Top
 Profile  
 
 
PostPosted: 03 Jan 2009 
хард н хэвщик (support team)
User avatar
Joined: 02 Jun 2008
Posts: 16880
Lоcаtion: Н.Новгород
Age: 31
Name: Артем
Сереж, содержимое нужно :smile:


Top
 Profile  
 
 
PostPosted: 03 Jan 2009 
Дежурный по КУПу
User avatar
Joined: 17 Aug 2007
Posts: 5869
Age: 50
Name: Ге
:nunu: :crazy:
АААААА.... Серег, с новым годом!!!!

_________________
http://jp-mania.ru/
http://jp-tourdates.ucoz.ru/


Top
 Profile  
 
 
PostPosted: 03 Jan 2009 
Персональный статус
Joined: 06 Oct 2007
Posts: 339
Sergey wrote:
Выдается ошибка куя


Открой текстовым редактором "куй" и удали все строки с кодами ISRC (они там помоему все нулевые), должны быть перед INDEX.
Просто рип делался с установленной галкой "Считывать коды UPC / ISRC при генерировании Cue Sheet" , а он видимо не поддерживает этой функции.


Top
 Profile  
 
 
PostPosted: 03 Jan 2009 
Хиппей (support team)
User avatar
Joined: 30 Jul 2007
Posts: 107899
Lоcаtion: Киев (Kyiv, UA)
Age: 45
Name: Andrey
Ой.
Хватит ржать :crazy:


Top
 Profile E-mail  
 
 
PostPosted: 03 Jan 2009 
Почётный металлург
User avatar
Joined: 15 Sep 2007
Posts: 4357
Lоcаtion: Хабаровск
Age: 58
Name: чуть выше
Ну, объясните тоды чайнику, который в первый раз решил резать.
McKagan wrote:
содержимое нужно

Easy CD-DA разложил вроде его на образные файлы, так они в логе прописаны у Privateer'a. По написанию всё совпадает, всё идентично. Расширение .wav, или еще что-то надо-ть?

_________________
Коль будешь людей ты ослами честить,
тебе человеком меж них не прослыть!
(Саади, персидский поэт, 13в.)


Top
 Profile  
 
 
PostPosted: 03 Jan 2009 
Персональный статус
Joined: 06 Oct 2007
Posts: 339
Сереж посмотри выше


Top
 Profile  
 
 
PostPosted: 03 Jan 2009 
Почётный металлург
User avatar
Joined: 15 Sep 2007
Posts: 4357
Lоcаtion: Хабаровск
Age: 58
Name: чуть выше
ShaDragon
Спасибо за совет. Теперь понял. Действительно нулевые. Удалил. Если больше ничего не надо, то пробую! :true:

_________________
Коль будешь людей ты ослами честить,
тебе человеком меж них не прослыть!
(Саади, персидский поэт, 13в.)


Top
 Profile  
 
 
PostPosted: 03 Jan 2009 
Дежурный по КУПу
User avatar
Joined: 17 Aug 2007
Posts: 5869
Age: 50
Name: Ге
Серег, открой куй в блокноте скопируй всё что там есть (Ctrl+A) и запости сюда.

_________________
http://jp-mania.ru/
http://jp-tourdates.ucoz.ru/


Top
 Profile  
 
 
PostPosted: 03 Jan 2009 
Персональный статус
Joined: 06 Oct 2007
Posts: 339
German wrote:
Серег, открой куй в блокноте скопируй всё что там есть (Ctrl+A) и запости сюда

Да не надо, у него щас все получится


Top
 Profile  
 
 
PostPosted: 03 Jan 2009 
Почётный металлург
User avatar
Joined: 15 Sep 2007
Posts: 4357
Lоcаtion: Хабаровск
Age: 58
Name: чуть выше
Не-а. То же самое. Вот что блокнотик прочитал:

содержимое
PERFORMER "Quartz"
TITLE "Satan's Serenade: The Quartz Anthology: Disc One - Quartz"
FILE "Quartz - Satan's Serenade - The Quartz Anthology - CD 1 - 2004.wav" WAVE
TRACK 01 AUDIO
TITLE "Mainline Riders"
PERFORMER "Quartz"
INDEX 01 00:00:00
TRACK 02 AUDIO
TITLE "Sugar Rain"
PERFORMER "Quartz"
INDEX 01 03:36:08
TRACK 03 AUDIO
TITLE "Street Fighting Lady"
PERFORMER "Quartz"
INDEX 01 08:21:15
TRACK 04 AUDIO
TITLE "Hustler"
PERFORMER "Quartz"
INDEX 01 13:06:18
TRACK 05 AUDIO
TITLE "Devil's Brew"
PERFORMER "Quartz"
INDEX 01 17:49:61
TRACK 06 AUDIO
TITLE "Smokie"
PERFORMER "Quartz"
INDEX 01 21:29:36
TRACK 07 AUDIO
TITLE "Around And Around"
PERFORMER "Quartz"
INDEX 01 22:41:24
TRACK 08 AUDIO
TITLE "Pleasure Seekers"
PERFORMER "Quartz"
INDEX 01 27:40:23
TRACK 09 AUDIO
TITLE "Little Old Lady"
PERFORMER "Quartz"
INDEX 01 31:32:52
TRACK 10 AUDIO
TITLE "Satan's Serenade (bonus)"
PERFORMER "Quartz"
INDEX 01 36:08:10
TRACK 11 AUDIO
TITLE "Wildfire (Original Non LP Version w/Geoff Nicholls)"
PERFORMER "Quartz"
INDEX 01 40:34:70
TRACK 12 AUDIO
TITLE "Can't Say No (Previously Unreleased)"
PERFORMER "Quartz"
INDEX 01 45:08:39
TRACK 13 AUDIO
TITLE "I Can't Let Go (Previously Unreleased)"
PERFORMER "Quartz"
INDEX 01 49:58:27
TRACK 14 AUDIO
TITLE "The Dealer (Previously Unreleased)"
PERFORMER "Quartz"
INDEX 01 53:40:06
TRACK 15 AUDIO
TITLE "Circles (Previously Unreleased)"
PERFORMER "Quartz"
INDEX 01 57:02:11
TRACK 16 AUDIO
TITLE "Nantucket Sleighride (bonus)"
PERFORMER "Quartz"
INDEX 01 60:55:46
TRACK 17 AUDIO
TITLE "Back In The Band (Previously Unreleased)"
PERFORMER "Quartz"
INDEX 01 66:33:37

_________________
Коль будешь людей ты ослами честить,
тебе человеком меж них не прослыть!
(Саади, персидский поэт, 13в.)


Top
 Profile  
 
 
PostPosted: 03 Jan 2009 
Дежурный по КУПу
User avatar
Joined: 17 Aug 2007
Posts: 5869
Age: 50
Name: Ге
Sergey wrote:
FILE "Quartz - Satan's Serenade - The Quartz Anthology - CD 1 - 2004.wav" WAVE


А сам файл, который ты рубишь в каком виде в вавке?

_________________
http://jp-mania.ru/
http://jp-tourdates.ucoz.ru/


Top
 Profile  
 
 
PostPosted: 03 Jan 2009 
хард н хэвщик (support team)
User avatar
Joined: 02 Jun 2008
Posts: 16880
Lоcаtion: Н.Новгород
Age: 31
Name: Артем
иными словами, если файл у тебя flac или ape, переконвертируй его в обычный wav


Top
 Profile  
 
 
PostPosted: 03 Jan 2009 
Хиппей (support team)
User avatar
Joined: 30 Jul 2007
Posts: 107899
Lоcаtion: Киев (Kyiv, UA)
Age: 45
Name: Andrey
McKagan wrote:
переконвертируй его в обычный wav

Да нафига? Посто в куе заменить строку

FILE "Quartz - Satan's Serenade - The Quartz Anthology - CD 1 - 2004.wav" WAVE
на
FILE "Quartz - Satan's Serenade - The Quartz Anthology - CD 1 - 2004.flac" WAVE

Хм, а вообще, Сереж, ты на болванку нарезаешь как аудио-сиди или пережимаешь в мп3 лося? :oops:


Top
 Profile E-mail  
 
 
PostPosted: 03 Jan 2009 
Анатолий
User avatar
Joined: 18 Oct 2008
Posts: 3155
Lоcаtion: Армавир
Age: 41
Name: Анатолий
Sergey

Исправь в третьей строке слово wav на слово ape. В этом тоже может быть проблема.


Top
 Profile E-mail  
 
 
PostPosted: 03 Jan 2009 
хард н хэвщик (support team)
User avatar
Joined: 02 Jun 2008
Posts: 16880
Lоcаtion: Н.Новгород
Age: 31
Name: Артем
пф..... всегда пережимаю сначала в wav, а потом уже работаю с вавкой, хошь делю ее на мп3, хошь режду как аудио СД


Top
 Profile  
 
 
PostPosted: 03 Jan 2009 
Хиппей (support team)
User avatar
Joined: 30 Jul 2007
Posts: 107899
Lоcаtion: Киев (Kyiv, UA)
Age: 45
Name: Andrey
А я не вижу смысла разжимать эйп, если можно его сразу в мп3 порезать :pardon:


Top
 Profile E-mail  
 
 
PostPosted: 03 Jan 2009 
Дежурный по КУПу
User avatar
Joined: 17 Aug 2007
Posts: 5869
Age: 50
Name: Ге
McKagan wrote:
всегда пережимаю сначала в wav


Хм... ты, наверно, хотел сказать разжимаю в ваф :crazy:

Я как Андрюха, ничего не разжимаю, фубар в руки и понеслось...


Top
 Profile  
 
 
PostPosted: 03 Jan 2009 
Хиппей (support team)
User avatar
Joined: 30 Jul 2007
Posts: 107899
Lоcаtion: Киев (Kyiv, UA)
Age: 45
Name: Andrey
+ 5 фраза :ura:


Top
 Profile E-mail  
 
Display posts from previous:  Sort by  
Post new topic Reply to topic  [ 76 posts ]  Go to page Previous  1, 2, 3, 4  Next

All times are UTC + 3 hours


Who is online

Users browsing this forum: No registered users and 2 guests


You cannot post new topics in this forum
You cannot reply to topics in this forum
You cannot edit your posts in this forum
You cannot delete your posts in this forum
You cannot post attachments in this forum

Search for:
Яндекс.Метрика
Powered by phpBB © 2000, 2002, 2005, 2007 phpBB Group