\m/ 80's metal \m/

Информационно-аналитический форум "80 см пыли" (In Search We Trust) "У нас никто никуда не спешит"
Me For You - http://me-4u.com
It is currently 22 Sep 2018

All times are UTC + 3 hours

Spoiler
Chat - temporary registration for foreign users (please leave your application here)







Post new topic Reply to topic  [ 79 posts ]  Go to page Previous  1, 2, 3, 4  Next
Author Message
 
PostPosted: 21 Dec 2008 
А может смените мне статус?..
User avatar
Joined: 28 Jul 2008
Posts: 907
Lоcаtion: Украина---Днепропетровск
Age: 44
Name: Александр
> Осталось найти: | Still looking:
Outrage - From Nightmare To Myths Demo, 1986
Outrage - Tales Of Counted Sorrows EP, 2006
Outrage - Order In The Court Full-length, 2008

_________________
Музыка в которой я растворяюсь многих угнетает......


Last edited by Scatterbrain on 17 Jan 2018, edited 2 times in total.
Подправил чуть название топика


Top
 Profile  
 
 
PostPosted: 08 Dec 2010 
Хиппей (support team)
User avatar
Joined: 30 Jul 2007
Posts: 106449
Lоcаtion: Киев (Kyiv, UA)
Age: 45
Name: Andrey
Scatterbrain wrote:
Здесь уже Outrage чуть сбавили скоростные обороны и начали играть более обдуманный (размеренный) трэшак, с тем же грубым вокалом и насыщенными гитарными чёсами и мрачностью. Трушно, но кроме открывашки и последней вещи с первой прослушки почти ничего не зацепило...Да, и саунд до неприличия грязен. Люблю такое, но вот только в данном случае это группе запишу в минус.

5/10


Outrage - 1987 - The Book of the Seven Seals (demo) [160]

Image

1. The Book of the Seven Seals - 15:45
2. Fly with the Bats - 06:05
3. Just a Fairy Tale - 03:24
4. Perseus Rules - 02:15
5. The Outrage Orchestral Performance: Bienvenue a la Court Royal (Part I) - 02:15
6. The Bloody Price - 05:27
7. The Inner Contract - 04:56
8. Spherical - 03:52
9. Farewell to Hell - 03:57
10. Epilogue: The Legend - 02:42

TPT: 53:00


MultiUp l Narod

Тоже самое можно скачать и о третьей демке группы. Но... звук стал еще более вязким и грязным. Темп боле чем средний, уровень игры музыкантов...минималистический (укуренное бумц-бумц и жди-джи-джи) :fingal: То есть, кабы не вокал (он не рычит, а просто проговаривает слова), можно было бы эти записи назвать primitive black metal, но уж лучше правду скажу - примитивный брутальный трэшак. Очень уж на большого любителя подобной романтики. Лично меня такая музыка в данное время совершенно не цепляет. Уныло, мрачно, апокалиптично и серо, серо, серо, однообразно :pardon:
Финальный трэк - быстро потухший лучик света на альбоме :true:
Надеюсь, дальше группы выползет на более высокий технический уровень, а пока:

4/10

_________________


Top
 Profile E-mail  
 
 
PostPosted: 23 Jun 2011 
Хиппей (support team)
User avatar
Joined: 30 Jul 2007
Posts: 106449
Lоcаtion: Киев (Kyiv, UA)
Age: 45
Name: Andrey
Человек из правого верхнего угла (чата) помог с ссылкой на демку 86 года :dance:
Плюс еще бутлежка здесь http://lockjaw-yappy.blogspot.com/2010/ ... e-ger.html

_________________


Top
 Profile E-mail  
 
 
PostPosted: 23 Jun 2011 
Хиппей (support team)
User avatar
Joined: 30 Jul 2007
Posts: 106449
Lоcаtion: Киев (Kyiv, UA)
Age: 45
Name: Andrey
Scatterbrain wrote:
с ссылкой на демку 86 года

эээ... сорри, накладочка вышла - links is dead :fingal:

_________________


Top
 Profile E-mail  
 
 
PostPosted: 23 Jun 2011 
Хиппей (support team)
User avatar
Joined: 30 Jul 2007
Posts: 106449
Lоcаtion: Киев (Kyiv, UA)
Age: 45
Name: Andrey
Попросил перелить. Следим за темой на ЛокЖау, если что.

_________________


Top
 Profile E-mail  
 
 
PostPosted: 22 Nov 2011 
А может смените мне статус?..
User avatar
Joined: 28 Jul 2008
Posts: 907
Lоcаtion: Украина---Днепропетровск
Age: 44
Name: Александр
Все еще актуально)

_________________
Музыка в которой я растворяюсь многих угнетает......


Top
 Profile  
 
 
PostPosted: 24 Nov 2011 
Хиппей (support team)
User avatar
Joined: 30 Jul 2007
Posts: 106449
Lоcаtion: Киев (Kyiv, UA)
Age: 45
Name: Andrey
Scatterbrain wrote:
Попросил перелить. Следим за темой на ЛокЖау, если что.

А хрен там. Это ж не форум. Тему поднять на блоге вверх низя. Так и прозябает себе... :fingal:

_________________


Top
 Profile E-mail  
 
 
PostPosted: 23 Dec 2012 
Работнечег
User avatar
Joined: 28 Aug 2007
Posts: 5409
Lоcаtion: г. Москва
Age: 29
Name: Дима
Image

Band: Outrage
Album: A Mute Reminder
Year: 2005
Label: Self-released
Genre: Thrash Metal
Coutry: Germany
Format: Flac + Log + Cue + Covers/ Mp3@320 kbps + Covers
Size: 245 Mb / 83 Mb

Line-Up:
Udo F. "The Bringer of Doom" - Guitars
Kevin Lukitsch "Anal Zombie" - Bass (ex-Warcry, ex-Heiligs Blechle)
Frank P. "The Voice of Hell" - Vocals
Alex Güntner "Major Moehrdock" - Drums and Percussion


Tracklist:
1. Mr Black Archer 01:32
2. The Proclaimer 02:54
3. Epilogue: The Legend 01:39
4. Sword Against The Kingdom 02:01
5. The Prey I 02:39
6. Farewell To Hell 02:48
7. Rigor Mortis 03:03
8. Room 13 02:18
9. 3797 03:28
10. The Prey II (Hand Of Fate) 01:55
11. Infernal Recruite 06:33
12. The Why People 03:14

LOG
Exact Audio Copy V0.99 prebeta 5 from 4. May 2009

EAC extraction logfile from 19. December 2012, 23:21

Outrage / A Mute Reminder

Used drive : PIONEER DVD-RW DVR-116D Adapter: 0 ID: 0

Read mode : Secure
Utilize accurate stream : Yes
Defeat audio cache : Yes
Make use of C2 pointers : No

Read offset correction : 96
Overread into Lead-In and Lead-Out : No
Fill up missing offset samples with silence : Yes
Delete leading and trailing silent blocks : No
Null samples used in CRC calculations : Yes
Used interface : Native Win32 interface for Win NT & 2000

Used output format : User Defined Encoder
Selected bitrate : 32 kBit/s
Quality : High
Add ID3 tag : No
Command line compressor : C:\Program Files\Exact Audio Copy\Flac\flac.exe
Additional command line options : -6 -V %s


TOC of the extracted CD

Track | Start | Length | Start sector | End sector
---------------------------------------------------------
1 | 0:00.00 | 1:32.23 | 0 | 6922
2 | 1:32.23 | 2:54.17 | 6923 | 19989
3 | 4:26.40 | 1:39.67 | 19990 | 27481
4 | 6:06.32 | 2:01.55 | 27482 | 36611
5 | 8:08.12 | 2:39.45 | 36612 | 48581
6 | 10:47.57 | 2:48.38 | 48582 | 61219
7 | 13:36.20 | 3:03.53 | 61220 | 74997
8 | 16:39.73 | 2:18.04 | 74998 | 85351
9 | 18:58.02 | 3:28.05 | 85352 | 100956
10 | 22:26.07 | 1:55.14 | 100957 | 109595
11 | 24:21.21 | 6:33.13 | 109596 | 139083
12 | 30:54.34 | 3:14.69 | 139084 | 153702


Range status and errors

Selected range

Filename D:\Музыка\Lossless\Outrage - A Mute Reminder (2005) flac\Outrage - A Mute Reminder.wav

Peak level 97.8 %
Range quality 99.9 %
Copy CRC 1961BCD6
Copy OK

No errors occurred


AccurateRip summary

Track 1 cannot be verified as accurate (confidence 1) [451BE077], AccurateRip returned [C3F9C111]
Track 2 cannot be verified as accurate (confidence 1) [E67FBD50], AccurateRip returned [CA6798C3]
Track 3 cannot be verified as accurate (confidence 1) [1235701C], AccurateRip returned [04711CDC]
Track 4 cannot be verified as accurate (confidence 1) [A6C27A93], AccurateRip returned [351C9913]
Track 5 cannot be verified as accurate (confidence 1) [28628457], AccurateRip returned [10205857]
Track 6 cannot be verified as accurate (confidence 1) [B2E82FDF], AccurateRip returned [8D7A29DF]
Track 7 cannot be verified as accurate (confidence 1) [BC307FD8], AccurateRip returned [357C1907]
Track 8 cannot be verified as accurate (confidence 1) [E1EBF1A6], AccurateRip returned [368A13FA]
Track 9 cannot be verified as accurate (confidence 1) [11AB79CA], AccurateRip returned [64F4B50A]
Track 10 cannot be verified as accurate (confidence 1) [D81F1542], AccurateRip returned [EFE22DC2]
Track 11 cannot be verified as accurate (confidence 1) [C62486D4], AccurateRip returned [CF256A54]
Track 12 cannot be verified as accurate (confidence 1) [1B6B92F8], AccurateRip returned [4D7034B8]

No tracks could be verified as accurate
You may have a different pressing from the one(s) in the database

End of status report

CUE
REM GENRE "Thrash Metal"
REM DATE 2005
REM DISCID 9B08010C
REM COMMENT "ExactAudioCopy v0.99pb5"
PERFORMER "Outrage"
TITLE "A Mute Reminder"
FILE "Outrage - A Mute Reminder.flac" WAVE
TRACK 01 AUDIO
TITLE "Mr Black Archer"
PERFORMER "Outrage"
INDEX 01 00:00:00
TRACK 02 AUDIO
TITLE "The Proclaimer"
PERFORMER "Outrage"
INDEX 01 01:32:23
TRACK 03 AUDIO
TITLE "Epilogue: The Legend"
PERFORMER "Outrage"
INDEX 01 04:26:40
TRACK 04 AUDIO
TITLE "Sword Against The Kingdom"
PERFORMER "Outrage"
INDEX 01 06:06:32
TRACK 05 AUDIO
TITLE "The Prey I"
PERFORMER "Outrage"
INDEX 01 08:08:12
TRACK 06 AUDIO
TITLE "Farewell To Hell"
PERFORMER "Outrage"
INDEX 01 10:47:57
TRACK 07 AUDIO
TITLE "Rigor Mortis"
PERFORMER "Outrage"
INDEX 01 13:36:20
TRACK 08 AUDIO
TITLE "Room 13"
PERFORMER "Outrage"
INDEX 01 16:39:73
TRACK 09 AUDIO
TITLE "3797"
PERFORMER "Outrage"
INDEX 01 18:58:02
TRACK 10 AUDIO
TITLE "The Prey II (Hand Of Fate)"
PERFORMER "Outrage"
INDEX 01 22:26:07
TRACK 11 AUDIO
TITLE "Infernal Recruite"
PERFORMER "Outrage"
INDEX 01 24:21:21
TRACK 12 AUDIO
TITLE "The Why People"
PERFORMER "Outrage"
INDEX 01 30:54:34

Spectrum
Image


mp3@320
FLAC

Не очень скоростной, с блэковым вокалом трэш. Сграно неплохо, хотя не могу сказать что с первого раза какая-то из песен зацепила, но по прослушиванию ещё нескольких раз, альбом всё больше нравится. Пока фаворитом является The Proclaimer)
P.S. Просьба по возможности кому понравится, поддержать музыкантов и купить пару дисков, стоят они 5 евро с оф. сайта. плюс 5 евро доставка. А то ребята по крайней мере до альбома Conspirator выпускались на обычной CDr с накленной на него бумагой. Conspirator уже хотя бы на pro-printed cd идёт) ну и вообще просто группа неплохая)


Top
 Profile E-mail  
 
 
PostPosted: 23 Dec 2012 
ТрэшЭрос
User avatar
Joined: 18 Jul 2011
Posts: 2296
Lоcаtion: Гулькевичи
Age: 43
Name: Александр
:thanx: Спасибо, Дим! У меня их тёзки-япошки только были...

_________________
Thrash no trash!!!


Top
 Profile E-mail  
 
 
PostPosted: 27 Mar 2013 
Работнечег
User avatar
Joined: 28 Aug 2007
Posts: 5409
Lоcаtion: г. Москва
Age: 29
Name: Дима
Outrage - 7 Is 1 Take One (2006)

Image

Band: Outrage
Album: 7 Is 1 Take One
Year: 2006
Label: Self-released
Genre: Thrash Metal
Coutry: Germany
Format: Flac + Log + Cue + Covers/ Mp3@320 kbps + Covers
Size: 245 Mb / 83 Mb

Line-Up:
Udo F. "The Bringer of Doom" - Guitars
Kevin Lukitsch "Anal Zombie" - Bass (ex-Warcry, ex-Heiligs Blechle)
Frank P. "The Voice of Hell" - Vocals
Alex Güntner "Major Moehrdock" - Drums and Percussion


Tracklist:
1. Beneath A Dying Sun 01:49
2. Hot On The Trail 03:18
3. Mystery Song 02:02
4. The Mind Untarnished 05:10
5. Baphomet 03:27
6. Intensity 06:43
7. Where The Dark Rivers Flow 03:09
8. The Night When The Accuser Came 03:01
9. Astaroth 03:02
10. No Unique Thing 04:47
11. The Inner Contract 03:08
12. Metal Religion 03:51
13. Coloured Visions 03:57

LOG
Exact Audio Copy V0.99 prebeta 5 from 4. May 2009

EAC extraction logfile from 18. March 2013, 20:21

Outrage / 7 Is 1 Take One

Used drive : PIONEER DVD-RW DVR-116D Adapter: 0 ID: 0

Read mode : Secure
Utilize accurate stream : Yes
Defeat audio cache : Yes
Make use of C2 pointers : No

Read offset correction : 96
Overread into Lead-In and Lead-Out : No
Fill up missing offset samples with silence : Yes
Delete leading and trailing silent blocks : No
Null samples used in CRC calculations : Yes
Used interface : Native Win32 interface for Win NT & 2000

Used output format : User Defined Encoder
Selected bitrate : 32 kBit/s
Quality : High
Add ID3 tag : No
Command line compressor : C:\Program Files\Exact Audio Copy\Flac\flac.exe
Additional command line options : -6 -V %s


TOC of the extracted CD

Track | Start | Length | Start sector | End sector
---------------------------------------------------------
1 | 0:00.00 | 1:51.14 | 0 | 8338
2 | 1:51.14 | 3:20.11 | 8339 | 23349
3 | 5:11.25 | 2:04.55 | 23350 | 32704
4 | 7:16.05 | 5:12.33 | 32705 | 56137
5 | 12:28.38 | 3:29.57 | 56138 | 71869
6 | 15:58.20 | 6:46.02 | 71870 | 102321
7 | 22:44.22 | 3:11.53 | 102322 | 116699
8 | 25:56.00 | 3:03.71 | 116700 | 130495
9 | 28:59.71 | 3:04.08 | 130496 | 144303
10 | 32:04.04 | 4:49.39 | 144304 | 166017
11 | 36:53.43 | 3:10.46 | 166018 | 180313
12 | 40:04.14 | 3:53.11 | 180314 | 197799
13 | 43:57.25 | 3:57.49 | 197800 | 215623


Range status and errors

Selected range

Filename D:\Музыка\Lossless\Outrage - 7 Is 1 Take One (2006)\Outrage - 7 Is 1 Take One.wav

Peak level 98.8 %
Range quality 99.9 %
Copy CRC 1381608D
Copy OK

No errors occurred


AccurateRip summary

Track 1 cannot be verified as accurate (confidence 1) [FAAFD7A2], AccurateRip returned [71AB2E30]
Track 2 cannot be verified as accurate (confidence 1) [0EED8DAA], AccurateRip returned [CB4DFE15]
Track 3 cannot be verified as accurate (confidence 1) [7DBFD137], AccurateRip returned [FFEF7A8D]
Track 4 cannot be verified as accurate (confidence 1) [10E3DD7B], AccurateRip returned [017002B9]
Track 5 cannot be verified as accurate (confidence 1) [8AA82D70], AccurateRip returned [C8283F2A]
Track 6 cannot be verified as accurate (confidence 1) [166D2187], AccurateRip returned [0EA191E9]
Track 7 cannot be verified as accurate (confidence 1) [85985EDC], AccurateRip returned [0CA6F105]
Track 8 cannot be verified as accurate (confidence 1) [37FB0EFD], AccurateRip returned [EC362990]
Track 9 cannot be verified as accurate (confidence 1) [C4DCE894], AccurateRip returned [B1CE2865]
Track 10 cannot be verified as accurate (confidence 1) [090C1CB6], AccurateRip returned [312AEEF0]
Track 11 cannot be verified as accurate (confidence 1) [8CB09E9E], AccurateRip returned [F04D7A36]
Track 12 cannot be verified as accurate (confidence 1) [FBB80660], AccurateRip returned [DD87AEAB]
Track 13 cannot be verified as accurate (confidence 1) [1DA112C0], AccurateRip returned [91DE4917]

No tracks could be verified as accurate
You may have a different pressing from the one(s) in the database

End of status report

CUE
REM GENRE "Thrash Metal"
REM DATE 2006
REM DISCID A40B3A0D
REM COMMENT "ExactAudioCopy v0.99pb5"
PERFORMER "Outrage"
TITLE "7 Is 1 Take One"
FILE "Outrage - 7 Is 1 Take One.flac" WAVE
TRACK 01 AUDIO
TITLE "Beneath A Dying Sun"
PERFORMER "Outrage"
INDEX 01 00:00:00
TRACK 02 AUDIO
TITLE "Hot On The Trail"
PERFORMER "Outrage"
INDEX 01 01:51:14
TRACK 03 AUDIO
TITLE "Mystery Song"
PERFORMER "Outrage"
INDEX 01 05:11:25
TRACK 04 AUDIO
TITLE "The Mind Untarnished"
PERFORMER "Outrage"
INDEX 01 07:16:05
TRACK 05 AUDIO
TITLE "Baphomet"
PERFORMER "Outrage"
INDEX 01 12:28:38
TRACK 06 AUDIO
TITLE "Intensity"
PERFORMER "Outrage"
INDEX 01 15:58:20
TRACK 07 AUDIO
TITLE "Where The Dark Rivers Flow"
PERFORMER "Outrage"
INDEX 01 22:44:22
TRACK 08 AUDIO
TITLE "The Night When The Accuser Came"
PERFORMER "Outrage"
INDEX 01 25:56:00
TRACK 09 AUDIO
TITLE "Astaroth"
PERFORMER "Outrage"
INDEX 01 28:59:71
TRACK 10 AUDIO
TITLE "No Unique Thing"
PERFORMER "Outrage"
INDEX 01 32:04:04
TRACK 11 AUDIO
TITLE "The Inner Contract"
PERFORMER "Outrage"
INDEX 01 36:53:43
TRACK 12 AUDIO
TITLE "Metal Religion"
PERFORMER "Outrage"
INDEX 01 40:04:14
TRACK 13 AUDIO
TITLE "Coloured Visions"
PERFORMER "Outrage"
INDEX 01 43:57:25

Spectrum
Image


FLAC
MP3@320

Более зрелый альбом, по сравнению с A Mute Reminder, рекомендовано к ознакомлению :true: Единственное, что мне не очень у эих немцев нравится, так это вокал, хотя Вовка Глот наскоко помнится такой как раз любил :true:
P.S. Поддерживаем по возможности группу, покупкой официального стаффа)
P.P.S. Песня The Inner Contract взята с демки The Book Of The Seven Seals (1987), а песни Metal Religion и Astaroth были сочинены ещё в 1983-1984 гг., но насколько я понял, записаны никогда не были, и увидели свет только на этом альбоме.


Top
 Profile E-mail  
 
 
PostPosted: 27 Mar 2013 
Доктор энтомологии
User avatar
Joined: 22 Jan 2009
Posts: 9328
Lоcаtion: Даугавпилс
Age: 43
Name: Алексей
Спасибке Дима за сыромятинку :true: :thanx: Слуханём :meloman:


Top
 Profile  
 
 
PostPosted: 28 Mar 2013 
Генеральный thrasher
User avatar
Joined: 03 Oct 2008
Posts: 3449
Lоcаtion: Ханты-Мансийский АО
Age: 43
Name: Сергей
Спасибо,Дим!Ознакомимся с :losik: :true:


Top
 Profile  
 
 
PostPosted: 28 Mar 2013 
Работнечег
User avatar
Joined: 28 Aug 2007
Posts: 5409
Lоcаtion: г. Москва
Age: 29
Name: Дима
Другой лось пока тут:
viewtopic.php?f=188&t=11165
Потом должен в эту темку перенестись)


Top
 Profile E-mail  
 
 
PostPosted: 28 Mar 2013 
А может смените мне статус?..
User avatar
Joined: 28 Jul 2008
Posts: 907
Lоcаtion: Украина---Днепропетровск
Age: 44
Name: Александр
Спасибо Дима :true:

_________________
Музыка в которой я растворяюсь многих угнетает......


Top
 Profile  
 
 
PostPosted: 29 Mar 2013 
Хиппей (support team)
User avatar
Joined: 30 Jul 2007
Posts: 106449
Lоcаtion: Киев (Kyiv, UA)
Age: 45
Name: Andrey
Димка, спасибо :thanx: И музыкантам тем паче :thanx: :shok: :shok: :shok:


Темки объединены.

_________________


Top
 Profile E-mail  
 
 
PostPosted: 06 Apr 2013 
Хиппей (support team)
User avatar
Joined: 30 Jul 2007
Posts: 106449
Lоcаtion: Киев (Kyiv, UA)
Age: 45
Name: Andrey
Outrage - 2005 - A Mute Reminder [flac]

mirror: F-Bit l Narod

_________________


Top
 Profile E-mail  
 
 
PostPosted: 06 Apr 2013 
Хиппей (support team)
User avatar
Joined: 30 Jul 2007
Posts: 106449
Lоcаtion: Киев (Kyiv, UA)
Age: 45
Name: Andrey
Outrage - 2006 - 7 Is 1 Take One [flac]

mirror: M-Bit l Narod

_________________


Top
 Profile E-mail  
 
 
PostPosted: 02 Aug 2013 
Зарегился вот...
Joined: 06 Apr 2013
Posts: 2
Lоcаtion: Уфа
Age: 39
Name: Кристофер
Перезалейте, пожалуйста, первые две демки группы...
Был бы очень признателен, очень уж у них материал хорош :)


Top
 Profile E-mail  
 
 
PostPosted: 06 Aug 2013 
Работнечег
User avatar
Joined: 28 Aug 2007
Posts: 5409
Lоcаtion: г. Москва
Age: 29
Name: Дима
http://rusfolder.com/37518064
2 демки в одном флаконе ;)


Top
 Profile E-mail  
 
 
PostPosted: 07 Aug 2013 
Хиппей (support team)
User avatar
Joined: 30 Jul 2007
Posts: 106449
Lоcаtion: Киев (Kyiv, UA)
Age: 45
Name: Andrey
:thanx: Утягиваю оба плафона :bodun:

mirror: F-Bit l Narod

_________________


Top
 Profile E-mail  
 
 
PostPosted: 07 Aug 2013 
Зарегился вот...
Joined: 06 Apr 2013
Posts: 2
Lоcаtion: Уфа
Age: 39
Name: Кристофер
Спасибо большое, Дим :thanx:


Top
 Profile E-mail  
 
Display posts from previous:  Sort by  
Post new topic Reply to topic  [ 79 posts ]  Go to page Previous  1, 2, 3, 4  Next

All times are UTC + 3 hours


Who is online

Users browsing this forum: No registered users and 1 guest


You cannot post new topics in this forum
You cannot reply to topics in this forum
You cannot edit your posts in this forum
You cannot delete your posts in this forum
You cannot post attachments in this forum

Search for:
Яндекс.Метрика
Powered by phpBB © 2000, 2002, 2005, 2007 phpBB Group