\m/ 80's metal \m/

Информационно-аналитический форум "80 см пыли" (In Search We Trust) "У нас никто никуда не спешит"
Me For You - http://me-4u.com
It is currently 16 Feb 2019

All times are UTC + 3 hours

Spoiler
Chat - temporary registration for foreign users (please leave your application here)







Post new topic Reply to topic  [ 7 posts ] 
Author Message
 
PostPosted: 14 Oct 2009 
*** Умер ***
User avatar
Joined: 25 Apr 2009
Posts: 2188
Lоcаtion: Санкт-Петербург
Age: 33
Name: Кирилл
"No Man's Land (US)" - "Just the Beginning" 1990
Image
Demo, P.M.S. Platinum Records
1990

1. Heartache For Heartache
2. American Life
3. Man Of Power
4. Marathon

"No Man's Land (US)" - "Demo" 1993
Image
Demo, P.M.S. Platinum Records
December 1993

1. Stand-Up
2. Fire & Brimstone
3. Waiting Room
Heavy Metal

http://www.metal-archives.com/band.php?id=75523

Вроде как женский вокал.


Top
 Profile E-mail  
 
 
PostPosted: 19 Mar 2012 
Rara avis
User avatar
Joined: 27 Jan 2009
Posts: 4871
Name: .
мне нравится:
phpBB [youtube]

Написала :pavlik:


Top
 Profile E-mail  
 
 
PostPosted: 09 Jul 2018 
Rara avis
User avatar
Joined: 27 Jan 2009
Posts: 4871
Name: .
Был ещё альбом

No Man’s Land - 1991 - We Are Becoming…
Image Image Image


Top
 Profile E-mail  
 
 
PostPosted: 28 Sep 2018 
Работнечег
User avatar
Joined: 28 Aug 2007
Posts: 5710
Lоcаtion: г. Москва
Age: 29
Name: Дима
No Man’s Land - We Are Becoming… (1991) FLAC

Tracklist:
1. Man Of Power
2. ABC
3. Down To Nowhere
4. Hold Your Fire
5. Heartache For Heartache
6. No Man's Land
7. Scream
8. Insulated
9. Serious
10. Green
11. Winds Of Change

LOG
Exact Audio Copy V0.99 prebeta 5 from 4. May 2009

EAC extraction logfile from 30. August 2018, 22:44

No Man's Land / We Are Becoming...

Used drive : PLEXTOR DVDR PX-760A Adapter: 4 ID: 0

Read mode : Secure
Utilize accurate stream : Yes
Defeat audio cache : Yes
Make use of C2 pointers : No

Read offset correction : 30
Overread into Lead-In and Lead-Out : Yes
Fill up missing offset samples with silence : Yes
Delete leading and trailing silent blocks : No
Null samples used in CRC calculations : No
Used interface : Installed external ASPI interface

Used output format : Internal WAV Routines
Sample format : 44.100 Hz; 16 Bit; Stereo


TOC of the extracted CD

Track | Start | Length | Start sector | End sector
---------------------------------------------------------
1 | 0:00.00 | 3:17.03 | 0 | 14777
2 | 3:17.03 | 3:45.65 | 14778 | 31717
3 | 7:02.68 | 3:57.02 | 31718 | 49494
4 | 10:59.70 | 4:50.23 | 49495 | 71267
5 | 15:50.18 | 4:22.20 | 71268 | 90937
6 | 20:12.38 | 3:50.62 | 90938 | 108249
7 | 24:03.25 | 3:56.38 | 108250 | 125987
8 | 27:59.63 | 2:39.62 | 125988 | 137974
9 | 30:39.50 | 3:48.70 | 137975 | 155144
10 | 34:28.45 | 3:15.45 | 155145 | 169814
11 | 37:44.15 | 3:12.25 | 169815 | 184239


Range status and errors

Selected range

Filename C:\Shared\No Man's Land\We Are Becoming\No Man's Land - We Are Becoming....wav

Peak level 100.0 %
Range quality 100.0 %
Copy CRC BC3545A7
Copy OK

No errors occurred

End of status report


Yadi

Спасибо большое Лене за рип и Даше за помощь в покупке, однако по музыке в целом фигня, мне понравилось более-менее 2 песни, заглавная и Scream. Не знаю, стоит ли искать демки.
P.S. Рип потрековый


Top
 Profile E-mail  
 
 
PostPosted: 28 Sep 2018 
Rara avis
User avatar
Joined: 27 Jan 2009
Posts: 4871
Name: .
:true: :thanx:


Top
 Profile E-mail  
 
 
PostPosted: 28 Sep 2018 
спирт 100%
User avatar
Joined: 22 Sep 2008
Posts: 4364
Age: 47
Name: Саня
:thanx:


Top
 Profile  
 
 
PostPosted: 30 Sep 2018 
Персональный статус
Joined: 11 Sep 2010
Posts: 479
Lоcаtion: Тверь
Age: 46
Name: Сергей
:thanx:


Top
 Profile E-mail  
 
Display posts from previous:  Sort by  
Post new topic Reply to topic  [ 7 posts ] 

All times are UTC + 3 hours


Who is online

Users browsing this forum: No registered users and 1 guest


You cannot post new topics in this forum
You cannot reply to topics in this forum
You cannot edit your posts in this forum
You cannot delete your posts in this forum
You cannot post attachments in this forum

Search for:
Яндекс.Метрика
cron
Powered by phpBB © 2000, 2002, 2005, 2007 phpBB Group