\m/ 80's metal \m/

Информационно-аналитический форум "80 см пыли" (In Search We Trust) "У нас никто никуда не спешит"
Me For You - http://me-4u.com
It is currently 18 Apr 2019

All times are UTC + 3 hours

Spoiler
Chat - temporary registration for foreign users (please leave your application here)







Post new topic Reply to topic  [ 9 posts ] 
Author Message
 
PostPosted: 01 Mar 2011 
А может смените мне статус?..
Joined: 11 Nov 2009
Posts: 596
Name: Pasq
Madfly

Get the Silver (1996)
Image

Fire In The Hole
Jealous Baker
I Hate Myself For Loving You The Way I Do
Vicious
The Fabulous Beast
Chains Around My Heart
Soul's Got Wings
Venus Fly Trap
Honeydripper
Queen Bee
Bitter Changes
Fuck The World
Keep Me Driving Away
Happy & Broken
When I'm Down
I Hung On 'til High Noon

White Hot in the Black (1998)

Rat Trap Karma
Honeydripper
Jealous Baker
Red Candles
Join The Madness
Sleep Tonight
Message From The Edge (Of Nowhere)
I Hate Myself For Loving You The Way I Do
The Fabulous Beast
Fire In The Hole
Chains Around My Heart
Flatliner


Top
 Profile E-mail  
 
 
PostPosted: 13 Mar 2011 
А может смените мне статус?..
Joined: 11 Nov 2009
Posts: 596
Name: Pasq
up


Top
 Profile E-mail  
 
 
PostPosted: 13 Nov 2014 
Rara avis
User avatar
Joined: 27 Jan 2009
Posts: 4934
Name: .
У автора явно есть альбом 96-го


Top
 Profile E-mail  
 
 
PostPosted: 09 Feb 2016 
Rara avis
User avatar
Joined: 27 Jan 2009
Posts: 4934
Name: .
Madfly - 1998 - White Hot in the Black
http://rockafu.blogspot.com.by/2015/01/ ... black.html

Перелила https://yadi.sk/d/D-hIu3FPpuxbd


Top
 Profile E-mail  
 
 
PostPosted: 18 Dec 2018 
Хиппей (support team)
User avatar
Joined: 30 Jul 2007
Posts: 111660
Lоcаtion: Киев (Kyiv, UA)
Age: 45
Name: Andrey

:thanx:

Image Image

mirror: Uloz l Drop l Narod l M-Cloud

_________________


Top
 Profile E-mail  
 
 
PostPosted: 18 Dec 2018 
Хиппей (support team)
User avatar
Joined: 30 Jul 2007
Posts: 111660
Lоcаtion: Киев (Kyiv, UA)
Age: 45
Name: Andrey
Madfly - 1996 - Get The Silver [flacs]

Image Image

mirror: Uloz l Drop l Narod l M-Cloud

Нудноватый Hard Rock с блюзовыми фишками. Музыка для любителей рока 70-х.


5/10

cue
REM GENRE Rock
REM DATE 1996
REM DISCID FC0FD610
REM COMMENT "ExactAudioCopy v1.3"
PERFORMER "Madfly"
TITLE "Get The Silver"
REM COMPOSER ""
FILE "01 - Fire In The Hole.wav" WAVE
TRACK 01 AUDIO
TITLE "Fire In The Hole"
PERFORMER "Madfly"
REM COMPOSER ""
FLAGS DCP
PREGAP 00:00:43
INDEX 01 00:00:00
FILE "02 - Jealous Baker.wav" WAVE
TRACK 02 AUDIO
TITLE "Jealous Baker"
PERFORMER "Madfly"
REM COMPOSER ""
FLAGS DCP
INDEX 01 00:00:00
FILE "03 - I Hate Myself For Loving You The Way I Do.wav" WAVE
TRACK 03 AUDIO
TITLE "I Hate Myself For Loving You The Way I Do"
PERFORMER "Madfly"
REM COMPOSER ""
FLAGS DCP
INDEX 01 00:00:00
FILE "04 - Vicious.wav" WAVE
TRACK 04 AUDIO
TITLE "Vicious"
PERFORMER "Madfly"
REM COMPOSER ""
FLAGS DCP
INDEX 01 00:00:00
FILE "05 - The Fabulous Beast.wav" WAVE
TRACK 05 AUDIO
TITLE "The Fabulous Beast"
PERFORMER "Madfly"
REM COMPOSER ""
FLAGS DCP
INDEX 01 00:00:00
FILE "06 - Chains Around My Heart.wav" WAVE
TRACK 06 AUDIO
TITLE "Chains Around My Heart"
PERFORMER "Madfly"
REM COMPOSER ""
FLAGS DCP
INDEX 01 00:00:00
FILE "07 - Soul's Got Wings.wav" WAVE
TRACK 07 AUDIO
TITLE "Soul's Got Wings"
PERFORMER "Madfly"
REM COMPOSER ""
FLAGS DCP
INDEX 01 00:00:00
FILE "08 - Venus Fly Trap.wav" WAVE
TRACK 08 AUDIO
TITLE "Venus Fly Trap"
PERFORMER "Madfly"
REM COMPOSER ""
FLAGS DCP
INDEX 01 00:00:00
FILE "09 - Honeydripper.wav" WAVE
TRACK 09 AUDIO
TITLE "Honeydripper"
PERFORMER "Madfly"
REM COMPOSER ""
FLAGS DCP
INDEX 01 00:00:00
FILE "10 - Queen Bee.wav" WAVE
TRACK 10 AUDIO
TITLE "Queen Bee"
PERFORMER "Madfly"
REM COMPOSER ""
FLAGS DCP
INDEX 01 00:00:00
FILE "11 - Bitter Changes.wav" WAVE
TRACK 11 AUDIO
TITLE "Bitter Changes"
PERFORMER "Madfly"
REM COMPOSER ""
FLAGS DCP
INDEX 01 00:00:00
FILE "12 - Fuck The World.wav" WAVE
TRACK 12 AUDIO
TITLE "Fuck The World"
PERFORMER "Madfly"
REM COMPOSER ""
FLAGS DCP
INDEX 01 00:00:00
FILE "13 - Keep Driving Me Away.wav" WAVE
TRACK 13 AUDIO
TITLE "Keep Driving Me Away"
PERFORMER "Madfly"
REM COMPOSER ""
FLAGS DCP
INDEX 01 00:00:00
FILE "14 - Happy & Broken.wav" WAVE
TRACK 14 AUDIO
TITLE "Happy & Broken"
PERFORMER "Madfly"
REM COMPOSER ""
FLAGS DCP
INDEX 01 00:00:00
FILE "15 - When I'm Down.wav" WAVE
TRACK 15 AUDIO
TITLE "When I'm Down"
PERFORMER "Madfly"
REM COMPOSER ""
FLAGS DCP
INDEX 01 00:00:00
FILE "16 - I Hung On Til High Noon.wav" WAVE
TRACK 16 AUDIO
TITLE "I Hung On Til High Noon"
PERFORMER "Madfly"
REM COMPOSER ""
FLAGS DCP
INDEX 01 00:00:00



За альбома спасибо Hasche :thanx:

Image

_________________


Top
 Profile E-mail  
 
 
PostPosted: 18 Dec 2018 
Хиппей (support team)
User avatar
Joined: 30 Jul 2007
Posts: 111660
Lоcаtion: Киев (Kyiv, UA)
Age: 45
Name: Andrey
Опа. На втором альбоме группа сменила и стиль (уклон в фанк и альтернативку), заиграла ярче, (насколько я понял по двум первым песням) и явно вокалиста тоже заменила? :scratch:

_________________


Top
 Profile E-mail  
 
 
PostPosted: 18 Dec 2018 
Хиппей (support team)
User avatar
Joined: 30 Jul 2007
Posts: 111660
Lоcаtion: Киев (Kyiv, UA)
Age: 45
Name: Andrey
Не-а, такой же стиль и остался, просто на альбоме имеются несколько весьма активных песен.
Ну и записан он качественнее и теперь не так сильно "пахнет" 70-ми.

5+/10

_________________


Top
 Profile E-mail  
 
 
PostPosted: 18 Dec 2018 
Хиппей (support team)
User avatar
Joined: 30 Jul 2007
Posts: 111660
Lоcаtion: Киев (Kyiv, UA)
Age: 45
Name: Andrey
Ага, в 99-м году группа расформировалась Дювалем и был создан проект Comes with the Fall.
Сам же Уильям Дюваль стал вокалистом некоего коллектива.. Alice In Chains.

_________________


Top
 Profile E-mail  
 
Display posts from previous:  Sort by  
Post new topic Reply to topic  [ 9 posts ] 

All times are UTC + 3 hours


Who is online

Users browsing this forum: No registered users and 3 guests


You cannot post new topics in this forum
You cannot reply to topics in this forum
You cannot edit your posts in this forum
You cannot delete your posts in this forum
You cannot post attachments in this forum

Search for:
Яндекс.Метрика
Powered by phpBB © 2000, 2002, 2005, 2007 phpBB Group