\m/ 80's metal \m/

Информационно-аналитический форум "80 см пыли" (In Search We Trust) "У нас никто никуда не спешит"
Me For You - http://me-4u.com
It is currently 23 Oct 2018

All times are UTC + 3 hours

Spoiler
Chat - temporary registration for foreign users (please leave your application here)







Post new topic Reply to topic  [ 11 posts ] 
Author Message
 
PostPosted: 05 Mar 2009 
10cm
User avatar
Joined: 26 Aug 2007
Posts: 93
Lоcаtion: Москва
Age: 46
Ищу Motley Crue - Quaternary в любом лосслесс формате (FLAC, WV, APE - не принципиально). В mp3 сразу прошу не предлагать - в mp3 оно есть у меня в 320. Спасибо!

_________________
how does it make you feel?


Last edited by vevenza on 29 Mar 2009, edited 1 time in total.

Top
 Profile  
 
 
PostPosted: 29 Mar 2009 
10cm
User avatar
Joined: 26 Aug 2007
Posts: 93
Lоcаtion: Москва
Age: 46
Image

Year: 1994
Genre: Heavy Metal
Country: U.S.A.
Format: FLAC (tracks) + CUE + LOG
Size: 133 mb (+5% recovery information)

Official site: http://www.motley.com/

Line Up:
John Corabi - Vocals
Mick Mars - Guitars
Nikki Sixx - Bass
Tommy Lee - Drums

Track Listing:
1. Planet Boom
2. Bittersuite
3. Father
4. Friends
5. Babykills

Source: waffles.fm

Exact Audio Copy LOG wrote:
Exact Audio Copy V0.99 prebeta 4 from 23. January 2008

EAC extraction logfile from 13. February 2009, 19:22

Mцtley Crьe / Quarternary

Used drive : HP DVD Writer 300n Adapter: 1 ID: 0

Read mode : Secure
Utilize accurate stream : Yes
Defeat audio cache : Yes
Make use of C2 pointers : No

Read offset correction : 48
Overread into Lead-In and Lead-Out : No
Fill up missing offset samples with silence : Yes
Delete leading and trailing silent blocks : No
Null samples used in CRC calculations : Yes
Used interface : Installed external ASPI interface
Gap handling : Appended to previous track

Used output format : User Defined Encoder
Selected bitrate : 320 kBit/s
Quality : High
Add ID3 tag : No
Command line compressor : C:\Program Files\Exact Audio Copy\flac.exe
Additional command line options : -V -8 -T "artist=%a" -T "title=%t" -T "album=%g" -T "date=%y" -T "tracknumber=%n" -T "genre=%m" %s


TOC of the extracted CD

Track | Start | Length | Start sector | End sector
---------------------------------------------------------
1 | 0:00.00 | 3:49.52 | 0 | 17226
2 | 3:49.52 | 3:17.15 | 17227 | 32016
3 | 7:06.67 | 3:58.55 | 32017 | 49921
4 | 11:05.47 | 2:28.58 | 49922 | 61079
5 | 13:34.30 | 5:23.65 | 61080 | 85369


Track 1

Filename D:\EAC Rips\Mцtley Crьe - 1994 - Quarternary\01 - Planet Boom.wav

Pre-gap length 0:00:02.00

Peak level 100.0 %
Track quality 100.0 %
Test CRC 1E6A3189
Copy CRC 1E6A3189
Track not present in AccurateRip database
Copy OK

Track 2

Filename D:\EAC Rips\Mцtley Crьe - 1994 - Quarternary\02 - Bittersuite.wav

Peak level 100.0 %
Track quality 100.0 %
Test CRC 10D5107B
Copy CRC 10D5107B
Track not present in AccurateRip database
Copy OK

Track 3

Filename D:\EAC Rips\Mцtley Crьe - 1994 - Quarternary\03 - Father.wav

Peak level 100.0 %
Track quality 99.9 %
Test CRC E3164F30
Copy CRC E3164F30
Track not present in AccurateRip database
Copy OK

Track 4

Filename D:\EAC Rips\Mцtley Crьe - 1994 - Quarternary\04 - Friends.wav

Peak level 100.0 %
Track quality 99.9 %
Test CRC 150CD463
Copy CRC 150CD463
Track not present in AccurateRip database
Copy OK

Track 5

Filename D:\EAC Rips\Mцtley Crьe - 1994 - Quarternary\05 - Babykills.wav

Peak level 100.0 %
Track quality 99.9 %
Test CRC C3CB2909
Copy CRC C3CB2909
Track not present in AccurateRip database
Copy OK


None of the tracks are present in the AccurateRip database

No errors occurred

End of status report


Dowload: mc-quaternary.rar (no stupid passwords. for whom?)

====================================================================================
Ну вот, собссна, я сам себе и ответил на этот запрос :oops:
Единственное что: это издание включает в себя только 5 песен, а в японском их 9. Так что имейте это ввиду! :meloman:
Хотя лично меня это не сильно обламывает, т.к. весь "сыр-бор" был всего лишь из-за одной песни: Friends :kamrad:

_________________
how does it make you feel?


Top
 Profile  
 
 
PostPosted: 29 Mar 2009 
Хиппей (support team)
User avatar
Joined: 30 Jul 2007
Posts: 107127
Lоcаtion: Киев (Kyiv, UA)
Age: 45
Name: Andrey
Хых, Виталик, спасибо :thanx:

зы. Переименую немного топег и в бухту его :dance:


Top
 Profile E-mail  
 
 
PostPosted: 29 Mar 2009 
А может смените мне статус?..
User avatar
Joined: 08 Nov 2007
Posts: 634
Lоcаtion: Crimea, UA
Age: 32
Name: Анатолий
Спасибо!

А йапонца продолжаем искать :roll:


Top
 Profile  
 
 
PostPosted: 30 Mar 2009 
Хиппей (support team)
User avatar
Joined: 30 Jul 2007
Posts: 107127
Lоcаtion: Киев (Kyiv, UA)
Age: 45
Name: Andrey
Nitro wrote:
йапонца продолжаем искать

В лосике?


Top
 Profile E-mail  
 
 
PostPosted: 30 Mar 2009 
10cm
User avatar
Joined: 26 Aug 2007
Posts: 93
Lоcаtion: Москва
Age: 46
Думаю да, в лосике. В 320 оно есть у меня, так что если кому надо... :oops:

_________________
how does it make you feel?


Top
 Profile  
 
 
PostPosted: 30 Mar 2009 
Хиппей (support team)
User avatar
Joined: 30 Jul 2007
Posts: 107127
Lоcаtion: Киев (Kyiv, UA)
Age: 45
Name: Andrey
Ггг, тогда снова в запросы перенесу :oops:


Top
 Profile E-mail  
 
 
PostPosted: 30 Mar 2009 
10cm
User avatar
Joined: 26 Aug 2007
Posts: 93
Lоcаtion: Москва
Age: 46
Ага, и мне же снова его и искать?! Ну уж нет уж! :stop:

_________________
how does it make you feel?


Top
 Profile  
 
 
PostPosted: 30 Mar 2009 
Хиппей (support team)
User avatar
Joined: 30 Jul 2007
Posts: 107127
Lоcаtion: Киев (Kyiv, UA)
Age: 45
Name: Andrey
vevenza wrote:
Ага, и мне же снова его и искать?!

:crazy: :nunu: Не, ну мало ли, мож как раз сам первый и наткнешься случайно... :oops:


Top
 Profile E-mail  
 
 
PostPosted: 30 Mar 2009 
А может смените мне статус?..
User avatar
Joined: 22 Nov 2008
Posts: 964
Lоcаtion: Schelcovo,Russia
Age: 47
Name: Сергей
Огромное спасибо!


Top
 Profile  
 
 
PostPosted: 02 Apr 2009 
хард н хэвщик (support team)
User avatar
Joined: 02 Jun 2008
Posts: 16880
Lоcаtion: Н.Новгород
Age: 31
Name: Артем
vevenza wrote:
1. Planet Boom

в первый раз послушал эту пластиночку. мдя..... :fingal:


Top
 Profile  
 
Display posts from previous:  Sort by  
Post new topic Reply to topic  [ 11 posts ] 

All times are UTC + 3 hours


Who is online

Users browsing this forum: No registered users and 1 guest


You cannot post new topics in this forum
You cannot reply to topics in this forum
You cannot edit your posts in this forum
You cannot delete your posts in this forum
You cannot post attachments in this forum

Search for:
Яндекс.Метрика
Powered by phpBB © 2000, 2002, 2005, 2007 phpBB Group