\m/ 80's metal \m/

Информационно-аналитический форум "80 см пыли" (In Search We Trust) "У нас никто никуда не спешит"
Me For You - http://me-4u.com
It is currently 18 Sep 2018

All times are UTC + 3 hours

Spoiler
Chat - temporary registration for foreign users (please leave your application here)







Post new topic Reply to topic  [ 23 posts ]  Go to page Previous  1, 2
Author Message
 
PostPosted: 30 Mar 2015 
Partisanen - nicht kapitulieren!!
User avatar
Joined: 25 Dec 2011
Posts: 6727
Lоcаtion: партизанские леса
Age: 45
Name: Владимир
Legacy [USA] - 2000 - Slay the Beast

Image

01. Vampire
02. Stoned to the Bone
03. Sometimes I Feel
04. Shootgun Messiah
05. Spirit Rider
06. Slay the Beast
07. Your Love
08. Keeper of the Game
09. Promise Land

http://www.metal-archives.com/albums/Le ... ast/160979

тыТруп | +


_________________
One more beer and Heavy Metal and I'm just fine!
старовер, куле... слово "блин" - до сих пор через Ъ говорю


Top
 Profile E-mail  
 
 
PostPosted: 11 Feb 2018 
Хиппей (support team)
User avatar
Joined: 30 Jul 2007
Posts: 106301
Lоcаtion: Киев (Kyiv, UA)
Age: 45
Name: Andrey
А я в лосике скачал :kro:

_________________


Top
 Profile E-mail  
 
 
PostPosted: 11 Feb 2018 
Хиппей (support team)
User avatar
Joined: 30 Jul 2007
Posts: 106301
Lоcаtion: Киев (Kyiv, UA)
Age: 45
Name: Andrey
LEGACY.[2003].[CD].Stand.And.Conquer.[EAC-FLAC].BY.Exploded.[MeTaLMaDNeSS.TeaM]

Image Image Image

mirror: Depos l Drop l Narod l M-Cloud

log
EAC extraction logfile from 2. October 2009, 19:04 for CD
Legacy / Stand and Conquer

Used drive : Optiarc DVD RW AD-7200S Adapter: 2 ID: 0
Read mode : Secure with NO C2, accurate stream, disable cache
Read offset correction : 48
Overread into Lead-In and Lead-Out : No

Used output format : C:\Program Files\Exact Audio Copy\FLAC.EXE (User Defined Encoder)
32 kBit/s
Additional command line options : -6 -V %s

Other options :
Fill up missing offset samples with silence : Yes
Delete leading and trailing silent blocks : No
Native Win32 interface for Win NT & 2000


Range status and errors
Selected range
Filename F:\- Newest Rips\Legacy 2003.flac.wav

Peak level 98.8 %
Range quality 100.0 %
CRC FCCF49B4
Copy OK

No errors occured

End of status report

cue
PERFORMER "Legacy"
TITLE "Stand and Conquer"
FILE "Legacy 2003.flac" WAVE
TRACK 01 AUDIO
TITLE "Free to Fly"
PERFORMER "Legacy"
INDEX 01 00:00:00
TRACK 02 AUDIO
TITLE "You Can't Hide"
PERFORMER "Legacy"
INDEX 00 05:01:12
INDEX 01 05:03:42
TRACK 03 AUDIO
TITLE "Stand and Conquer"
PERFORMER "Legacy"
INDEX 00 08:26:68
INDEX 01 08:29:23
TRACK 04 AUDIO
TITLE "Sky Will Burn"
PERFORMER "Legacy"
INDEX 00 12:28:50
INDEX 01 12:31:05
TRACK 05 AUDIO
TITLE "Without You"
PERFORMER "Legacy"
INDEX 01 16:38:36
TRACK 06 AUDIO
TITLE "Sold Your Soul"
PERFORMER "Legacy"
INDEX 00 21:56:52
INDEX 01 21:59:08
TRACK 07 AUDIO
TITLE "Say Your Last Goodbye"
PERFORMER "Legacy"
INDEX 00 26:30:22
INDEX 01 26:32:52
TRACK 08 AUDIO
TITLE "Killing Yourself to Live"
PERFORMER "Legacy"
INDEX 00 30:06:30
INDEX 01 30:08:60
TRACK 09 AUDIO
TITLE "Survival of the Fittest"
PERFORMER "Legacy"
INDEX 00 34:45:72
INDEX 01 34:48:27
TRACK 10 AUDIO
TITLE "Battlecry/The Reckoning"
PERFORMER "Legacy"
INDEX 00 41:02:70
INDEX 01 41:05:25

_________________


Top
 Profile E-mail  
 
 
PostPosted: 12 Feb 2018 
Хиппей (support team)
User avatar
Joined: 30 Jul 2007
Posts: 106301
Lоcаtion: Киев (Kyiv, UA)
Age: 45
Name: Andrey
Scatterbrain wrote:
LEGACY.[2003].[CD].Stand.And.Conquer.

Первые 4 песни не понравились :(
Явно из-за вокала чутка пафосного и дурацких сбивок и среднего темпа.
Затем резко на 6-й выстрелил шедевральный хит и почти до финала альбома группа продолжили играть в таком же ключе :meloman:

По ходу, эту музыку можно назвать Epic Power Stoner Metal.

6+/10

_________________


Top
 Profile E-mail  
 
Display posts from previous:  Sort by  
Post new topic Reply to topic  [ 23 posts ]  Go to page Previous  1, 2

All times are UTC + 3 hours


Who is online

Users browsing this forum: No registered users and 2 guests


You cannot post new topics in this forum
You cannot reply to topics in this forum
You cannot edit your posts in this forum
You cannot delete your posts in this forum
You cannot post attachments in this forum

Search for:
Яндекс.Метрика
Powered by phpBB © 2000, 2002, 2005, 2007 phpBB Group