\m/ 80's metal \m/

Информационно-аналитический форум "80 см пыли" (In Search We Trust) "У нас никто никуда не спешит"
Me For You - http://me-4u.com
It is currently 17 Nov 2018

All times are UTC + 3 hours

Spoiler
Chat - temporary registration for foreign users (please leave your application here)







Post new topic Reply to topic  [ 15 posts ] 
Author Message
 
PostPosted: 12 Oct 2014 
Дежурный по КУПу
User avatar
Joined: 17 Aug 2007
Posts: 5869
Age: 50
Name: Ге
Усилено ищу :pardon:

Lucera - 2013 - Pure Ass

Image

1. Pure Ass 04:11
2. Bazuquero 03:52
3. Unholy Colombian Curving Cock 03:11
4. Heavy Metal Machete 03:10
5. Tea Bagging the Nun 05:13
6. Cum Face 04:51
7. By Beelzebub's Balls 04:22
8. Malleus Cacorrus Maleficarum 03:45
9. Midnight Mover (Accept cover) 03:06
10. Bitch Cocaine 04:37
11. Fist Me Satan 04:36
12. The Hellion / Electric Eye (Judas Priest cover) 04:05

MA

_________________
http://jp-mania.ru/
http://jp-tourdates.ucoz.ru/


Last edited by German on 16 Jul 2015, edited 1 time in total.

Top
 Profile  
 
 
PostPosted: 12 Oct 2014 
Хиппей (support team)
User avatar
Joined: 30 Jul 2007
Posts: 108091
Lоcаtion: Киев (Kyiv, UA)
Age: 45
Name: Andrey
Милое названьице у альбомчика, блин :slo: Присоединяюсь к поискам.

_________________


Top
 Profile E-mail  
 
 
PostPosted: 12 Oct 2014 
Хиппей (support team)
User avatar
Joined: 30 Jul 2007
Posts: 108091
Lоcаtion: Киев (Kyiv, UA)
Age: 45
Name: Andrey


:vic:

_________________


Top
 Profile E-mail  
 
 
PostPosted: 13 Oct 2014 
Доктор энтомологии
User avatar
Joined: 22 Jan 2009
Posts: 9449
Lоcаtion: Даугавпилс
Age: 43
Name: Алексей
миленько :true:


Top
 Profile  
 
 
PostPosted: 13 Oct 2014 
Навечно изгнанный
User avatar
Joined: 04 May 2009
Posts: 488
Lоcаtion: Загорск (Сергиев Посад)
Age: 47
Name: Евгений
Я и от других их релизов не отказался бы :oops:

_________________
"$? -Это не деньги! Рубли давайте!"


Top
 Profile  
 
 
PostPosted: 13 Oct 2014 
Доктор энтомологии
User avatar
Joined: 22 Jan 2009
Posts: 9449
Lоcаtion: Даугавпилс
Age: 43
Name: Алексей
Вокал противный. Напоминает - это:


Top
 Profile  
 
 
PostPosted: 13 Oct 2014 
парень в очёчкXаX!
User avatar
Joined: 15 Aug 2007
Posts: 2353
Lоcаtion: UK'раина, г. ЛондАн Би-Би-Си
Age: 48
Name: Сергей
а там всего то два релиза и эти компакт диски есть у Саши из "Мертвякового центра", он размещает у Андрушки свои объявления...
по девять бакин$$ких рупей их продаёт :fingal:
у них в принципе все грамотно и сам Саша грамотный человек, но там сейчас ситуация непонятная и я даже не знаю отправляет ли он по почте СЕЙЧАС!!!

хдеж стока рупей стырять???
ежели шо, надо хде-та сольди брать, а они есть токо у админа ;)
с ув.
:true:


Top
 Profile  
 
 
PostPosted: 13 Oct 2014 
Хиппей (support team)
User avatar
Joined: 30 Jul 2007
Posts: 108091
Lоcаtion: Киев (Kyiv, UA)
Age: 45
Name: Andrey
attax wrote:
а там всего то два релиза

Чёрный Цуко завтра будет :blak:

_________________


Top
 Profile E-mail  
 
 
PostPosted: 14 Oct 2014 
Хиппей (support team)
User avatar
Joined: 30 Jul 2007
Posts: 108091
Lоcаtion: Киев (Kyiv, UA)
Age: 45
Name: Andrey
LUCERA [2011] [CD] Blackzuco [EAC-FLAC] By DrSatan [MeTaLMaDNeSS.TeaM].rar

Image Image Image

mirror: M-Cloud l Narod

log
Exact Audio Copy V0.99 prebeta 5 from 4. May 2009

EAC extraction logfile from 27. November 2012, 14:41

Lucera / Blackzuco

Used drive : Optiarc DVD RW AD-7243S Adapter: 4 ID: 1

Read mode : Secure
Utilize accurate stream : Yes
Defeat audio cache : Yes
Make use of C2 pointers : No

Read offset correction : 48
Overread into Lead-In and Lead-Out : No
Fill up missing offset samples with silence : Yes
Delete leading and trailing silent blocks : No
Null samples used in CRC calculations : Yes
Used interface : Installed external ASPI interface

Used output format : User Defined Encoder
Selected bitrate : 40 kBit/s
Quality : High
Add ID3 tag : Yes
Command line compressor : C:\Program Files (x86)\Exact Audio Copy\FLAC.EXE
Additional command line options : -6 -V %s


TOC of the extracted CD

Track | Start | Length | Start sector | End sector
---------------------------------------------------------
1 | 0:00.00 | 2:29.74 | 0 | 11248
2 | 2:29.74 | 4:43.30 | 11249 | 32503
3 | 7:13.29 | 3:31.28 | 32504 | 48356
4 | 10:44.57 | 3:54.74 | 48357 | 65980
5 | 14:39.56 | 5:25.46 | 65981 | 90401
6 | 20:05.27 | 4:45.43 | 90402 | 111819
7 | 24:50.70 | 4:12.36 | 111820 | 130755
8 | 29:03.31 | 3:54.49 | 130756 | 148354
9 | 32:58.05 | 5:10.48 | 148355 | 171652
10 | 38:08.53 | 2:13.51 | 171653 | 181678
11 | 40:22.29 | 4:29.73 | 181679 | 201926


Range status and errors

Selected range

Filename E:\Rips\LUCERA [2011] [CD] Blackzuco [EAC-FLAC] By DrSatan [MeTaLMaDNeSS.TeaM]\Lucera - Blackzuco.wav

Peak level 100.0 %
Range quality 99.9 %
Copy CRC 779AE21B
Copy OK

No errors occurred


AccurateRip summary

Track 1 not present in database
Track 2 not present in database
Track 3 not present in database
Track 4 not present in database
Track 5 not present in database
Track 6 not present in database
Track 7 not present in database
Track 8 not present in database
Track 9 not present in database
Track 10 not present in database
Track 11 not present in database

None of the tracks are present in the AccurateRip database

End of status report

cue
REM GENRE "Black Metal"
REM DATE 2011
REM DISCID 8C0A840B
REM COMMENT "ExactAudioCopy v0.99pb5"
PERFORMER "Lucera"
TITLE "Blackzuco"
FILE "Lucera - Blackzuco.flac" WAVE
TRACK 01 AUDIO
TITLE "Intro (Edison's burial) "
PERFORMER "Lucera"
INDEX 01 00:00:00
TRACK 02 AUDIO
TITLE "Muсequiado (Assassinated) "
PERFORMER "Lucera"
INDEX 01 02:29:74
TRACK 03 AUDIO
TITLE "White Gold "
PERFORMER "Lucera"
INDEX 01 07:13:29
TRACK 04 AUDIO
TITLE "Perico, Bazuco, & Rock'n'Roll "
PERFORMER "Lucera"
INDEX 01 10:44:57
TRACK 05 AUDIO
TITLE "Colombian Necktie"
PERFORMER "Lucera"
INDEX 00 14:39:54
INDEX 01 14:39:56
TRACK 06 AUDIO
TITLE "Danny Queer "
PERFORMER "Lucera"
INDEX 01 20:05:27
TRACK 07 AUDIO
TITLE "Magnificent Ritual Killer "
PERFORMER "Lucera"
INDEX 01 24:50:70
TRACK 08 AUDIO
TITLE "Satanic Paramilitary Chainsaw Massacre "
PERFORMER "Lucera"
INDEX 01 29:03:31
TRACK 09 AUDIO
TITLE "Blackzuco "
PERFORMER "Lucera"
INDEX 01 32:58:05
TRACK 10 AUDIO
TITLE "Chocha & Cock "
PERFORMER "Lucera"
INDEX 01 38:08:53
TRACK 11 AUDIO
TITLE "Peinilla Law "
PERFORMER "Lucera"
INDEX 01 40:22:29

_________________


Top
 Profile E-mail  
 
 
PostPosted: 14 Oct 2014 
Хиппей (support team)
User avatar
Joined: 30 Jul 2007
Posts: 108091
Lоcаtion: Киев (Kyiv, UA)
Age: 45
Name: Andrey
Фу, какая гадысть :yyy:
Это не музыка, а кал. По типу ленивого репа :pardon:

_________________


Top
 Profile E-mail  
 
 
PostPosted: 12 Jul 2015 
спирт 100%
User avatar
Joined: 22 Sep 2008
Posts: 4312
Age: 47
Name: Саня
http://www.computergamesforum.com/holly ... ewish.html
Надо писать письмо :smile:


Top
 Profile  
 
 
PostPosted: 16 Jul 2015 
Персональный статус
Joined: 11 Sep 2010
Posts: 455
Lоcаtion: Тверь
Age: 45
Name: Сергей
Lucera - Pure Ass (2013)
https://mega.co.nz/#!nYl3GDBC!4ZPX3U5g6 ... Gn8IRrO_-c


Top
 Profile E-mail  
 
 
PostPosted: 16 Jul 2015 
Partisanen - nicht kapitulieren!!
User avatar
Joined: 25 Dec 2011
Posts: 6755
Lоcаtion: партизанские леса
Age: 46
Name: Владимир
какие сурьозные дядьки :shok:
Image

_________________
One more beer and Heavy Metal and I'm just fine!
старовер, куле... слово "блин" - до сих пор через Ъ говорю


Top
 Profile E-mail  
 
 
PostPosted: 16 Jul 2015 
Дежурный по КУПу
User avatar
Joined: 17 Aug 2007
Posts: 5869
Age: 50
Name: Ге

Спасибо, качаю :true: :true: :true:

_________________
http://jp-mania.ru/
http://jp-tourdates.ucoz.ru/


Top
 Profile  
 
 
PostPosted: 16 Jul 2015 
Я набрал 1000 сообщений!
User avatar
Joined: 22 Jun 2011
Posts: 1381
Lоcаtion: Украина, Донецк.
Age: 48
Name: Сергей
если смотреть на шрифт логотипа, то стиль блуталь детх? :crazy:


Top
 Profile E-mail  
 
Display posts from previous:  Sort by  
Post new topic Reply to topic  [ 15 posts ] 

All times are UTC + 3 hours


Who is online

Users browsing this forum: No registered users and 3 guests


You cannot post new topics in this forum
You cannot reply to topics in this forum
You cannot edit your posts in this forum
You cannot delete your posts in this forum
You cannot post attachments in this forum

Search for:
Яндекс.Метрика
Powered by phpBB © 2000, 2002, 2005, 2007 phpBB Group