\m/ 80's metal \m/

Информационно-аналитический форум "80 см пыли" (In Search We Trust) "У нас никто никуда не спешит"
Me For You - http://me-4u.com
It is currently 20 Jan 2019

All times are UTC + 3 hours

Spoiler
Chat - temporary registration for foreign users (please leave your application here)







Post new topic Reply to topic  [ 10 posts ] 
Author Message
 
PostPosted: 05 Dec 2009 
хард н хэвщик (support team)
User avatar
Joined: 02 Jun 2008
Posts: 16880
Lоcаtion: Н.Новгород
Age: 31
Name: Артем
KNIGHT CRAWLER - World Of Make Believe

Image

1. World of Make Believe (4:23)
2. If U Want Me 2 (4:04)
3. Ship of Dreams (3:30)
4. Tumblin' Dice (4:36)
5. Sweet Mary (6:20)
6. Paint Me a Picture (2:55)
7. Leave It Where It Is (3:17)
8. City Boy (5:39)
9. Seventh Son (2:17)
10. Heartbreaker (3:28)
11. Stealin' (5:26)


ImageImage

KNIGHT CRAWLER - Second Nature

1. Rock 'n Roll Knight 3:43
2. Paparazzi 4:07
3. The Viking 1:25
4. Don't Ask 4:29
5. 13 Different Shades of Blue 4:25
6. Warp Factor Nine 2:46
7. Jane 2:48
8. Whiskey Baby 5:55
9. Bela 5:29
10. Second Nature 1:45
11. July Morning 8:52
12. Rock 'n Roll Knight Reprise 0:34

http://heavyharmonies.com/cgi-bin/band.cgi?BandNum=1116


Top
 Profile  
 
 
PostPosted: 05 Dec 2009 
спирт 100%
User avatar
Joined: 22 Sep 2008
Posts: 4351
Age: 47
Name: Саня
KNIGHT CRAWLER - World Of Make Believe 2001 - 320
ЗДЕСЬ:

http://hard-rock-house.blogspot.com/200 ... lieve.html


Top
 Profile  
 
 
PostPosted: 05 Dec 2009 
хард н хэвщик (support team)
User avatar
Joined: 02 Jun 2008
Posts: 16880
Lоcаtion: Н.Новгород
Age: 31
Name: Артем
что-то карма сегодня не на моей стороне :fingal:
спасибо Сань :ula:


Top
 Profile  
 
 
PostPosted: 30 Nov 2011 
хард н хэвщик (support team)
User avatar
Joined: 02 Jun 2008
Posts: 16880
Lоcаtion: Н.Новгород
Age: 31
Name: Артем
spryt777 wrote:
KNIGHT CRAWLER - World Of Make Believe 2001 - 320

по ошибке купил его на ибэе :oops: чет думал, у нас как раз этого не хватает :oops:


Top
 Profile  
 
 
PostPosted: 30 Nov 2011 
Хиппей (support team)
User avatar
Joined: 30 Jul 2007
Posts: 109684
Lоcаtion: Киев (Kyiv, UA)
Age: 45
Name: Andrey
Продавай обратно :true:

_________________


Top
 Profile E-mail  
 
 
PostPosted: 30 Jun 2013 
Работнечег
User avatar
Joined: 28 Aug 2007
Posts: 5657
Lоcаtion: г. Москва
Age: 29
Name: Дима
Image

Band: Knight Crawler
Album: Second Nature
Label: WBMG
Genre: Classic Rock
Country: USA
Format: Flac + Log + Cue + Covers
Size: 329 Mb

Line-Up:
Dave Wing - Guitars & Vocals
Roger Anderson - Keyboards
Rick Gingerelli - Vocals
Billy Thayer - Drums & Cymbals
Bobby Thayer - Bass & Vocals


Tracklist:
1. Rock 'n Roll Knight 3:43
2. Paparazzi 4:07
3. The Viking 1:25
4. Don't Ask 4:29
5. 13 Different Shades of Blue 4:25
6. Warp Factor Nine 2:46
7. Jane 2:48
8. Whiskey Baby 5:55
9. Bela 5:29
10. Second Nature 1:45
11. July Morning 8:52
12. Rock 'n Roll Knight Reprise 0:34

LOG
Exact Audio Copy V0.99 prebeta 5 from 4. May 2009

EAC extraction logfile from 29. June 2013, 16:25

Knight Crawler / Second Nature

Used drive : PIONEER DVD-RW DVR-116D Adapter: 0 ID: 0

Read mode : Secure
Utilize accurate stream : Yes
Defeat audio cache : Yes
Make use of C2 pointers : No

Read offset correction : 96
Overread into Lead-In and Lead-Out : No
Fill up missing offset samples with silence : Yes
Delete leading and trailing silent blocks : No
Null samples used in CRC calculations : Yes
Used interface : Native Win32 interface for Win NT & 2000

Used output format : User Defined Encoder
Selected bitrate : 32 kBit/s
Quality : High
Add ID3 tag : No
Command line compressor : C:\Program Files\Exact Audio Copy\Flac\flac.exe
Additional command line options : -6 -V %s


TOC of the extracted CD

Track | Start | Length | Start sector | End sector
---------------------------------------------------------
1 | 0:00.00 | 3:47.32 | 0 | 17056
2 | 3:47.32 | 4:09.47 | 17057 | 35778
3 | 7:57.04 | 1:25.60 | 35779 | 42213
4 | 9:22.64 | 4:32.39 | 42214 | 62652
5 | 13:55.28 | 4:28.22 | 62653 | 82774
6 | 18:23.50 | 2:45.17 | 82775 | 95166
7 | 21:08.67 | 2:50.11 | 95167 | 107927
8 | 23:59.03 | 5:58.46 | 107928 | 134823
9 | 29:57.49 | 5:29.21 | 134824 | 159519
10 | 35:26.70 | 1:47.28 | 159520 | 167572
11 | 37:14.23 | 8:48.51 | 167573 | 207223
12 | 46:02.74 | 0:36.06 | 207224 | 209929


Range status and errors

Selected range

Filename D:\Музыка\Lossless\Knight Crawler - Second Nature (2001)\Knight Crawler - Second Nature.wav

Peak level 99.4 %
Range quality 100.0 %
Copy CRC 7EC61F07
Copy OK

No errors occurred


AccurateRip summary

Track 1 not present in database
Track 2 not present in database
Track 3 not present in database
Track 4 not present in database
Track 5 not present in database
Track 6 not present in database
Track 7 not present in database
Track 8 not present in database
Track 9 not present in database
Track 10 not present in database
Track 11 not present in database
Track 12 not present in database

None of the tracks are present in the AccurateRip database

End of status report

CUE
REM GENRE "Hard Rock"
REM DATE 2001
REM DISCID A60AEF0C
REM COMMENT "ExactAudioCopy v0.99pb5"
PERFORMER "Knight Crawler"
TITLE "Second Nature"
FILE "Knight Crawler - Second Nature.flac" WAVE
TRACK 01 AUDIO
TITLE "Rock N' Roll Knight"
PERFORMER "Knight Crawler"
INDEX 01 00:00:00
TRACK 02 AUDIO
TITLE "Paparazzi"
PERFORMER "Knight Crawler"
INDEX 00 03:45:32
INDEX 01 03:47:32
TRACK 03 AUDIO
TITLE "The Viking (Prelude To Don't Ask)"
PERFORMER "Knight Crawler"
INDEX 00 07:55:04
INDEX 01 07:57:04
TRACK 04 AUDIO
TITLE "Don't Ask"
PERFORMER "Knight Crawler"
INDEX 01 09:22:64
TRACK 05 AUDIO
TITLE "13 Different Shades Of Blue"
PERFORMER "Knight Crawler"
INDEX 00 13:53:28
INDEX 01 13:55:28
TRACK 06 AUDIO
TITLE "Warp Factor Nine"
PERFORMER "Knight Crawler"
INDEX 00 18:21:50
INDEX 01 18:23:50
TRACK 07 AUDIO
TITLE "Jane"
PERFORMER "Knight Crawler"
INDEX 01 21:08:67
TRACK 08 AUDIO
TITLE "Whiskey Baby"
PERFORMER "Knight Crawler"
INDEX 00 23:57:03
INDEX 01 23:59:03
TRACK 09 AUDIO
TITLE "Bela"
PERFORMER "Knight Crawler"
INDEX 00 29:55:49
INDEX 01 29:57:49
TRACK 10 AUDIO
TITLE "Second Nature"
PERFORMER "Knight Crawler"
INDEX 01 35:26:70
TRACK 11 AUDIO
TITLE "July Morning"
PERFORMER "Knight Crawler"
INDEX 00 37:12:23
INDEX 01 37:14:23
TRACK 12 AUDIO
TITLE "Rock N' Roll Knight Reprise"
PERFORMER "Knight Crawler"
INDEX 01 46:02:74


Rusfolder.Ru

Хорошая работа, правда после Unscared слушается немного специфично :crazy: За предоставленный диск спасибо Саше spryt777! :thanx:


Top
 Profile E-mail  
 
 
PostPosted: 30 Jun 2013 
Хиппей (support team)
User avatar
Joined: 30 Jul 2007
Posts: 109684
Lоcаtion: Киев (Kyiv, UA)
Age: 45
Name: Andrey
:thanx:

mirror: F-Bit l Narod

Хм... неформатная явно музяка

_________________


Top
 Profile E-mail  
 
 
PostPosted: 30 Jun 2013 
Хиппей (support team)
User avatar
Joined: 30 Jul 2007
Posts: 109684
Lоcаtion: Киев (Kyiv, UA)
Age: 45
Name: Andrey
Ха, группа вполне форматная.
Да, 80% здесь классик-рока, но как минимум три композиции чисто хард-роковые - 2, 6 и 9.

Альбом весьма понравился, спасибо всем :thanx:

6/10

phpBB [youtube]

_________________


Top
 Profile E-mail  
 
 
PostPosted: 30 Jun 2013 
Хиппей (support team)
User avatar
Joined: 30 Jul 2007
Posts: 109684
Lоcаtion: Киев (Kyiv, UA)
Age: 45
Name: Andrey
phpBB [youtube]


С другого альбома баллада. Но тоже видно и слышно, что музыка очень хороша. В духе американской харды 70-х.

_________________


Top
 Profile E-mail  
 
 
PostPosted: 01 Jul 2013 
Я набрал 1000 сообщений!
Joined: 24 Oct 2009
Posts: 2152
Lоcаtion: Оренбург
Age: 55
Name: Юра
Парни Спасибо! :thanx:

_________________
:dash: I am happy!


Top
 Profile E-mail  
 
Display posts from previous:  Sort by  
Post new topic Reply to topic  [ 10 posts ] 

All times are UTC + 3 hours


Who is online

Users browsing this forum: No registered users and 1 guest


You cannot post new topics in this forum
You cannot reply to topics in this forum
You cannot edit your posts in this forum
You cannot delete your posts in this forum
You cannot post attachments in this forum

Search for:
Яндекс.Метрика
Powered by phpBB © 2000, 2002, 2005, 2007 phpBB Group