\m/ 80's metal \m/

Информационно-аналитический форум "80 см пыли" (In Search We Trust) "У нас никто никуда не спешит"
Me For You - http://me-4u.com
It is currently 19 Mar 2019

All times are UTC + 3 hours

Spoiler
Chat - temporary registration for foreign users (please leave your application here)







Post new topic Reply to topic  [ 17 posts ] 
Author Message
 
PostPosted: 27 Sep 2010 
ыыыы
User avatar
Joined: 17 May 2009
Posts: 952
Lоcаtion: Пушкино, МО
Age: 40
Name: Дмитрий
Image


Жанр: Shred/Hard Rock
Происхождение исполнителя: США
Год издания: 1993
Год издания данного носителя: 1993
Страна-производитель носителя: Япония
Аудио кодек: FLAC
Тип рипа: image+.cue
Битрейт аудио: lossless
Продолжительность: 70:00 + 69:58
Рип: Собственный
Лейбл: RELATIVITY/EPIC
Каталоговый номер: SRCS-6857~8

Диск1
Матрица: DP-6225 1 (SONY)

Треклист:
1. Time Machine 05:07
2. The Mighty Turtle Head 05:12
3. All Alone (a.k.a. Left Alone) 04:23
4. Banana Mango II 06:06
5. Thinking of You 03:58
6. Crazy 04:06
7. Speed of Light 05:14
8. Baroque 02:17
9. Dweller On the Threshold 04:15
10. Banana Mango 02:44
11. Dreaming #11 03:37
12. I am Become Death 03:56
13. Saying Goodbye 02:55
14. Woodstock Jam 16:09


"Куй"
REM GENRE "Hard Rock"
REM DATE 1993
REM DISCID B610670E
REM COMMENT "ExactAudioCopy v0.99pb5"
PERFORMER "Joe Satriani"
TITLE "Time Machine (Disc 1) [SRCS-6857~8]"
FILE "Joe Satriani - Time Machine (Disc 1) [SRCS-6857~8].flac" WAVE
TRACK 01 AUDIO
TITLE "1-01: Time Machine"
PERFORMER "Joe Satriani"
INDEX 01 00:00:00
TRACK 02 AUDIO
TITLE "1-02: The Mighty Turtle Head"
PERFORMER "Joe Satriani"
INDEX 01 05:07:15
TRACK 03 AUDIO
TITLE "1-03: All Alone (also known as Left Alone)"
PERFORMER "Joe Satriani"
INDEX 01 10:19:47
TRACK 04 AUDIO
TITLE "1-04: Banana Mango II"
PERFORMER "Joe Satriani"
INDEX 01 14:42:12
TRACK 05 AUDIO
TITLE "1-05: Thinking of You"
PERFORMER "Joe Satriani"
INDEX 00 20:46:57
INDEX 01 20:48:00
TRACK 06 AUDIO
TITLE "1-06: Crazy"
PERFORMER "Joe Satriani"
INDEX 00 24:44:32
INDEX 01 24:45:70
TRACK 07 AUDIO
TITLE "1-07: Speed of Light"
PERFORMER "Joe Satriani"
INDEX 01 28:51:72
TRACK 08 AUDIO
TITLE "1-08: Baroque"
PERFORMER "Joe Satriani"
INDEX 01 34:06:12
TRACK 09 AUDIO
TITLE "1-09: Dweller on The Threshold"
PERFORMER "Joe Satriani"
INDEX 00 36:21:30
INDEX 01 36:22:67
TRACK 10 AUDIO
TITLE "1-10: Banana Mango"
PERFORMER "Joe Satriani"
INDEX 00 40:34:70
INDEX 01 40:37:72
TRACK 11 AUDIO
TITLE "1-11: Dreaming #11"
PERFORMER "Joe Satriani"
INDEX 01 43:22:05
TRACK 12 AUDIO
TITLE "1-12: I am Become Death"
PERFORMER "Joe Satriani"
INDEX 01 46:59:25
TRACK 13 AUDIO
TITLE "1-13: Saying Goodbye"
PERFORMER "Joe Satriani"
INDEX 01 50:55:42
TRACK 14 AUDIO
TITLE "1-14: Woodstock Jam"
PERFORMER "Joe Satriani"
INDEX 01 53:50:22


"Лог"
Exact Audio Copy V0.99 prebeta 5 from 4. May 2009

Отчёт EAC об извлечении, выполненном 24. сентября 2010, 12:03

Joe Satriani / Time Machine (Disc 1) [SRCS-6857~8]

Дисковод: Optiarc DVD RW AD-7200A Adapter: 1 ID: 0

Режим чтения : Достоверность
Использование точного потока : Да
Отключение кэша аудио : Да
Использование указателей C2 : Нет

Коррекция смещения при чтении : 48
Способность читать области Lead-in и Lead-out : Нет
Заполнение пропущенных сэмплов тишиной : Да
Удаление блоков с тишиной в начале и конце : Нет
При вычислениях CRC использовались нулевые сэмплы : Да
Интерфейс : Встроенный Win32-интерфейс для Win NT/2000

Выходной формат : Пользовательский кодировщик
Выбранный битрейт : 128 kBit/s
Качество : Высокий
Добавление ID3-тэга : Нет
Утилита сжатия : C:\Program Files\Exact Audio Copy\Flac\flac.exe
Дополнительные параметры : -8 -V -T "artist=%a" -T "title=%t" -T "album=%g" -T "date=%y" -T "tracknumber=%n" -T "genre=%m" -T "comment=EAC


TOC извлечённого CD

Трек | Старт | Длительность | Начальный сектор | Конечный сектор
---------------------------------------------------------------------
1 | 0:00.00 | 5:07.15 | 0 | 23039
2 | 5:07.15 | 5:12.32 | 23040 | 46471
3 | 10:19.47 | 4:22.40 | 46472 | 66161
4 | 14:42.12 | 6:05.63 | 66162 | 93599
5 | 20:48.00 | 3:57.70 | 93600 | 111444
6 | 24:45.70 | 4:06.02 | 111445 | 129896
7 | 28:51.72 | 5:14.15 | 129897 | 153461
8 | 34:06.12 | 2:16.55 | 153462 | 163716
9 | 36:22.67 | 4:15.05 | 163717 | 182846
10 | 40:37.72 | 2:44.08 | 182847 | 195154
11 | 43:22.05 | 3:37.20 | 195155 | 211449
12 | 46:59.25 | 3:56.17 | 211450 | 229166
13 | 50:55.42 | 2:54.55 | 229167 | 242271
14 | 53:50.22 | 16:09.28 | 242272 | 314974


Характеристики диапазона извлечения и сообщения об ошибках

Выбранный диапазон

Имя файла Y:\Музыка\Joe Satriani\1993 Time Machine\Disk 1\Joe Satriani - Time Machine (Disc 1) [SRCS-6857~8].wav

Пиковый уровень 98.4 %
Качество диапазона 100.0 %
CRC копии 5B46CB50
Копирование... OK

Ошибок не произошло


AccurateRip: сводка

Трек 1 точное извлечение (доверие 1) [7E06CBAB]
Трек 2 точное извлечение (доверие 1) [919F28FA]
Трек 3 точное извлечение (доверие 1) [29C989A7]
Трек 4 точное извлечение (доверие 1) [A1664897]
Трек 5 точное извлечение (доверие 1) [66FA432A]
Трек 6 точное извлечение (доверие 1) [B9FBEDE2]
Трек 7 точное извлечение (доверие 1) [6F083026]
Трек 8 точное извлечение (доверие 1) [147F966F]
Трек 9 точное извлечение (доверие 1) [9A156340]
Трек 10 точное извлечение (доверие 1) [9C9CE679]
Трек 11 точное извлечение (доверие 1) [3F98F2FD]
Трек 12 точное извлечение (доверие 1) [AE4606C7]
Трек 13 точное извлечение (доверие 1) [8809B0B1]
Трек 14 точное извлечение (доверие 1) [6E47B649]

Все треки извлечены точно

Конец отчёта


Диск2
Матрица: DP-6226 1 (SONY)

Треклист:
1. Satch Boogie 03:59
2. Summer Song 06:01
3. Flying in a Blue Dream 05:24
4. Cryin' 06:26
5. The Crush of Love 05:48
6. Tears in the Rain 01:51
7. Always with Me, Always with You 03:40
8. Big Bad Moon 05:23
9. Surfing with the Alien 04:39
10. Rubina 06:44
11. Circles 04:14
12. Drum Solo (played by Jonathan Mover) 02:15
13. Lords of Karma 05:43
14. Echo 07:51


"Куй"
REM GENRE "Hard Rock"
REM DATE 1993
REM DISCID C910650E
REM COMMENT "ExactAudioCopy v0.99pb5"
PERFORMER "Joe Satriani"
TITLE "Time Machine (Disc 2) [SRCS-6857~8]"
FILE "Joe Satriani - Time Machine (Disc 2) [SRCS-6857~8].flac" WAVE
TRACK 01 AUDIO
TITLE "2-01: Satch Boogie"
PERFORMER "Joe Satriani"
INDEX 01 00:00:00
TRACK 02 AUDIO
TITLE "2-02: Summer Song"
PERFORMER "Joe Satriani"
INDEX 01 03:58:47
TRACK 03 AUDIO
TITLE "2-03: Flying in a Blue Dream"
PERFORMER "Joe Satriani"
INDEX 01 09:59:30
TRACK 04 AUDIO
TITLE "2-04: Cryin'"
PERFORMER "Joe Satriani"
INDEX 01 15:23:50
TRACK 05 AUDIO
TITLE "2-05: The Crush of Love"
PERFORMER "Joe Satriani"
INDEX 01 21:49:37
TRACK 06 AUDIO
TITLE "2-06: Tears in The Rain"
PERFORMER "Joe Satriani"
INDEX 01 27:37:00
TRACK 07 AUDIO
TITLE "2-07: Always with Me, Always with You"
PERFORMER "Joe Satriani"
INDEX 01 29:28:22
TRACK 08 AUDIO
TITLE "2-08: Big Bad Moon"
PERFORMER "Joe Satriani"
INDEX 01 33:07:67
TRACK 09 AUDIO
TITLE "2-09: Surfing with The Alien"
PERFORMER "Joe Satriani"
INDEX 01 38:30:57
TRACK 10 AUDIO
TITLE "2-10: Rubina"
PERFORMER "Joe Satriani"
INDEX 01 43:10:02
TRACK 11 AUDIO
TITLE "2-11: Circles"
PERFORMER "Joe Satriani"
INDEX 00 49:52:32
INDEX 01 49:54:32
TRACK 12 AUDIO
TITLE "2-12: Drum Solo"
PERFORMER "Joe Satriani"
INDEX 01 54:08:40
TRACK 13 AUDIO
TITLE "2-13: Lords of Karma"
PERFORMER "Joe Satriani"
INDEX 01 56:23:15
TRACK 14 AUDIO
TITLE "2-14: Echo"
PERFORMER "Joe Satriani"
INDEX 01 62:06:45


"Лог"
Exact Audio Copy V0.99 prebeta 5 from 4. May 2009

Отчёт EAC об извлечении, выполненном 24. сентября 2010, 11:41

Joe Satriani / Time Machine (Disc 2) [SRCS-6857~8]

Дисковод: Optiarc DVD RW AD-7200A Adapter: 1 ID: 0

Режим чтения : Достоверность
Использование точного потока : Да
Отключение кэша аудио : Да
Использование указателей C2 : Нет

Коррекция смещения при чтении : 48
Способность читать области Lead-in и Lead-out : Нет
Заполнение пропущенных сэмплов тишиной : Да
Удаление блоков с тишиной в начале и конце : Нет
При вычислениях CRC использовались нулевые сэмплы : Да
Интерфейс : Встроенный Win32-интерфейс для Win NT/2000

Выходной формат : Пользовательский кодировщик
Выбранный битрейт : 128 kBit/s
Качество : Высокий
Добавление ID3-тэга : Нет
Утилита сжатия : C:\Program Files\Exact Audio Copy\Flac\flac.exe
Дополнительные параметры : -8 -V -T "artist=%a" -T "title=%t" -T "album=%g" -T "date=%y" -T "tracknumber=%n" -T "genre=%m" -T "comment=EAC


TOC извлечённого CD

Трек | Старт | Длительность | Начальный сектор | Конечный сектор
---------------------------------------------------------------------
1 | 0:00.00 | 3:58.47 | 0 | 17896
2 | 3:58.47 | 6:00.58 | 17897 | 44954
3 | 9:59.30 | 5:24.20 | 44955 | 69274
4 | 15:23.50 | 6:25.62 | 69275 | 98211
5 | 21:49.37 | 5:47.38 | 98212 | 124274
6 | 27:37.00 | 1:51.22 | 124275 | 132621
7 | 29:28.22 | 3:39.45 | 132622 | 149091
8 | 33:07.67 | 5:22.65 | 149092 | 173306
9 | 38:30.57 | 4:39.20 | 173307 | 194251
10 | 43:10.02 | 6:44.30 | 194252 | 224581
11 | 49:54.32 | 4:14.08 | 224582 | 243639
12 | 54:08.40 | 2:14.50 | 243640 | 253739
13 | 56:23.15 | 5:43.30 | 253740 | 279494
14 | 62:06.45 | 7:51.17 | 279495 | 314836


Характеристики диапазона извлечения и сообщения об ошибках

Выбранный диапазон

Имя файла Y:\Музыка\Joe Satriani\1993 Time Machine\Disc 2\Joe Satriani - Time Machine (Disc 2) [SRCS-6857~8].wav

Пиковый уровень 100.0 %
Качество диапазона 100.0 %
CRC копии 88E3B8FB
Копирование... OK

Ошибок не произошло


AccurateRip: сводка

Трек 1 точное извлечение (доверие 1) [6221DD6B]
Трек 2 точное извлечение (доверие 1) [A2F54857]
Трек 3 точное извлечение (доверие 1) [DBAD8D6E]
Трек 4 точное извлечение (доверие 1) [86570076]
Трек 5 точное извлечение (доверие 1) [4BDD5FB1]
Трек 6 точное извлечение (доверие 1) [5ADF6D7C]
Трек 7 точное извлечение (доверие 1) [010FF2C9]
Трек 8 точное извлечение (доверие 1) [BC809FEC]
Трек 9 точное извлечение (доверие 1) [C99DFAF8]
Трек 10 точное извлечение (доверие 1) [4C91D1D9]
Трек 11 точное извлечение (доверие 1) [40950B92]
Трек 12 точное извлечение (доверие 1) [80222A8E]
Трек 13 точное извлечение (доверие 1) [B37AD0C5]
Трек 14 точное извлечение (доверие 1) [3DBABFC7]

Все треки извлечены точно

Конец отчёта


Состав:
Joe Satriani: Bass, Guitar, Keyboards, Vocals
Tom Coster: Organ
Stuart Hamm: Bass
Matt Bissonette: Bass
Doug Wimbish: Bass
Jeff Campitelli: Percussion, Cymbals, Drums
Gregg Bissonette: Drums
Jonathan Mover: Percussion, Drums
Simon Phillips: Drums

Disk1
Disk2

_________________
Витасу до Даймонда как Алсу до Руссоса | При переразмещении - спрашивать разрешение!!


Top
 Profile  
 
 
PostPosted: 27 Sep 2010 
Хиппей (support team)
User avatar
Joined: 30 Jul 2007
Posts: 111025
Lоcаtion: Киев (Kyiv, UA)
Age: 45
Name: Andrey
:thanx:

Дим, а у тебя их еще много? :oops:

_________________


Top
 Profile E-mail  
 
 
PostPosted: 27 Sep 2010 
ыыыы
User avatar
Joined: 17 May 2009
Posts: 952
Lоcаtion: Пушкино, МО
Age: 40
Name: Дмитрий
вопрос риторический )
phpBB [youtube]
phpBB [youtube]

На All Alone кажется Мувер на барабанах. Что-то они там все небритые какие-то (у девушки-ноги). С похмела что ли? :true:

_________________
Витасу до Даймонда как Алсу до Руссоса | При переразмещении - спрашивать разрешение!!


Top
 Profile  
 
 
PostPosted: 28 Sep 2010 
ыыыы
User avatar
Joined: 17 May 2009
Posts: 952
Lоcаtion: Пушкино, МО
Age: 40
Name: Дмитрий
задник с обишкой
Image

_________________
Витасу до Даймонда как Алсу до Руссоса | При переразмещении - спрашивать разрешение!!


Top
 Profile  
 
 
PostPosted: 28 Sep 2010 
дядя Миша
User avatar
Joined: 17 Oct 2008
Posts: 3094
Lоcаtion: USSR
Age: 56
Name: Khy
Спасибо! Вчера прослушал предыдущий - гуд! - и звук отличный.Ща ,Моцарт с утра , ближе к вечеру Сатриани.


Top
 Profile  
 
 
PostPosted: 28 Sep 2010 
ыыыы
User avatar
Joined: 17 May 2009
Posts: 952
Lоcаtion: Пушкино, МО
Age: 40
Name: Дмитрий
Моцарт с утра , ближе к вечеру Сальери :nunu:

_________________
Витасу до Даймонда как Алсу до Руссоса | При переразмещении - спрашивать разрешение!!


Top
 Profile  
 
 
PostPosted: 22 Oct 2010 
ыыыы
User avatar
Joined: 17 May 2009
Posts: 952
Lоcаtion: Пушкино, МО
Age: 40
Name: Дмитрий
VARVAAR
Метла 84 http://narod.ru/disk/26404998000/1984%2 ... g.rar.html

_________________
Витасу до Даймонда как Алсу до Руссоса | При переразмещении - спрашивать разрешение!!


Top
 Profile  
 
 
PostPosted: 22 Oct 2010 
дядя Миша
User avatar
Joined: 17 Oct 2008
Posts: 3094
Lоcаtion: USSR
Age: 56
Name: Khy
Очень найс! большое спасибо! Сразу буду слушать .


Top
 Profile  
 
 
PostPosted: 22 Oct 2010 
Хиппей (support team)
User avatar
Joined: 30 Jul 2007
Posts: 111025
Lоcаtion: Киев (Kyiv, UA)
Age: 45
Name: Andrey
iezuit wrote:

Дим, спасибо! :thanx:
А чего вдруг не отдельной темой запостил? :vic:

_________________


Top
 Profile E-mail  
 
 
PostPosted: 22 Oct 2010 
ыыыы
User avatar
Joined: 17 May 2009
Posts: 952
Lоcаtion: Пушкино, МО
Age: 40
Name: Дмитрий
да это ж такой боянище!! тем более- уже выкладывали на трэкере и все скачали :fingal: релиз по всей сети разползся

_________________
Витасу до Даймонда как Алсу до Руссоса | При переразмещении - спрашивать разрешение!!


Top
 Profile  
 
 
PostPosted: 22 Oct 2010 
Персональный статус
Joined: 14 May 2010
Posts: 236
Age: 37
Name: Денис
Да. Если кому-то нужно, вот сканы от Джонни. Дмитрий может сделаешь отдельную тему?


Top
 Profile  
 
 
PostPosted: 22 Oct 2010 
ыыыы
User avatar
Joined: 17 May 2009
Posts: 952
Lоcаtion: Пушкино, МО
Age: 40
Name: Дмитрий
Денис - можешь сам сделать?? я щас РасерХ выкладываю а потом домой. Да и рука не поднимается боянить )))

_________________
Витасу до Даймонда как Алсу до Руссоса | При переразмещении - спрашивать разрешение!!


Top
 Profile  
 
 
PostPosted: 22 Oct 2010 
Персональный статус
Joined: 14 May 2010
Posts: 236
Age: 37
Name: Денис
Ок. Сделаю, но не прямо сейчас. У меня поднимется, набояню будь здоров. :true:


Top
 Profile  
 
 
PostPosted: 22 Oct 2010 
Хиппей (support team)
User avatar
Joined: 30 Jul 2007
Posts: 111025
Lоcаtion: Киев (Kyiv, UA)
Age: 45
Name: Andrey
iezuit wrote:
уже выкладывали на трэкере и все скачали :fingal:

Ну я туда раз в полгода хожу, там шо не качал :fingal:
disabled wrote:
отдельную тему?

Вмешиваюсь.
По этому альбому Метлы, или шо?
Если да, то просто последние посты могу отделить в новую тему :pardon:

_________________


Top
 Profile E-mail  
 
 
PostPosted: 22 Oct 2010 
Персональный статус
Joined: 14 May 2010
Posts: 236
Age: 37
Name: Денис
Scatterbrain
Сделал тему viewtopic.php?f=186&t=8801&start=0.

Нужно подчистить комменты и перенести туда.


Top
 Profile  
 
 
PostPosted: 22 Oct 2010 
Хиппей (support team)
User avatar
Joined: 30 Jul 2007
Posts: 111025
Lоcаtion: Киев (Kyiv, UA)
Age: 45
Name: Andrey
disabled wrote:
Нужно подчистить комменты и перенести туда

Денис, а фиг там. Эти ж посты будут в той теме первыми :pardon:
Пусть уже здесь остаются, а нерусскопонимающие иностранцы фигеют и качают Джо с музыкой Метлы :crazy:

_________________


Top
 Profile E-mail  
 
 
PostPosted: 22 Oct 2010 
Персональный статус
Joined: 14 May 2010
Posts: 236
Age: 37
Name: Денис
бардак :fingal:


Top
 Profile  
 
Display posts from previous:  Sort by  
Post new topic Reply to topic  [ 17 posts ] 

All times are UTC + 3 hours


Who is online

Users browsing this forum: No registered users and 1 guest


You cannot post new topics in this forum
You cannot reply to topics in this forum
You cannot edit your posts in this forum
You cannot delete your posts in this forum
You cannot post attachments in this forum

Search for:
Яндекс.Метрика
Powered by phpBB © 2000, 2002, 2005, 2007 phpBB Group