\m/ 80's metal \m/

Информационно-аналитический форум "80 см пыли" (In Search We Trust) "У нас никто никуда не спешит"
Me For You - http://me-4u.com
It is currently 24 Jun 2019

All times are UTC + 3 hours

Spoiler
Chat - temporary registration for foreign users (please leave your application here)







Post new topic Reply to topic  [ 7 posts ] 
Author Message
 
PostPosted: 25 Sep 2010 
ыыыы
User avatar
Joined: 17 May 2009
Posts: 952
Lоcаtion: Пушкино, МО
Age: 40
Name: Дмитрий
Image


Жанр: Shred/Hard Rock
Происхождение исполнителя: США
Год издания: 1992
Год издания данного носителя: 1992
Страна-производитель носителя: Япония
Аудио кодек: FLAC
Тип рипа: image+.cue
Битрейт аудио: lossless
Продолжительность: 52:11
Рип: Собственный
Лейбл: RELATIVITY/EPIC
Каталоговый номер: SRCS-5940
Матрица: DPA-1753 1 (SONY)

Треклист:
1. Friends 03:29
2. The Extremist 03:44
3. War 05:48
4. Cryin 05:43
5. Rubina's Blue Sky Happiness 06:11
6. Summer Song 05:00
7. Tears in the Rain 01:19
8. Why 04:45
9. Motorcycle Driver 04:58
10. New Blues 07:03
11. Crazy 04:09


"Куй"
REM GENRE "Instrumental Rock"
REM DATE 1992
REM DISCID 9D0C3B0B
REM COMMENT "ExactAudioCopy v0.99pb5"
PERFORMER "Joe Satriani"
TITLE "The Extremist [SRCS-5940]"
FILE "Joe Satriani - The Extremist [SRCS-5940].flac" WAVE
TRACK 01 AUDIO
TITLE "Friends"
PERFORMER "Joe Satriani"
INDEX 01 00:00:00
TRACK 02 AUDIO
TITLE "The Extremist"
PERFORMER "Joe Satriani"
INDEX 01 03:29:25
TRACK 03 AUDIO
TITLE "War"
PERFORMER "Joe Satriani"
INDEX 01 07:12:65
TRACK 04 AUDIO
TITLE "Cryin'"
PERFORMER "Joe Satriani"
INDEX 01 13:01:10
TRACK 05 AUDIO
TITLE "Rubina's Blue Sky Happiness"
PERFORMER "Joe Satriani"
INDEX 01 18:44:20
TRACK 06 AUDIO
TITLE "Summer Song"
PERFORMER "Joe Satriani"
INDEX 01 24:55:47
TRACK 07 AUDIO
TITLE "Tears In The Rain"
PERFORMER "Joe Satriani"
INDEX 01 29:56:02
TRACK 08 AUDIO
TITLE "Why"
PERFORMER "Joe Satriani"
INDEX 01 31:14:47
TRACK 09 AUDIO
TITLE "Motorcycle Driver"
PERFORMER "Joe Satriani"
INDEX 01 36:00:07
TRACK 10 AUDIO
TITLE "New Blues"
PERFORMER "Joe Satriani"
INDEX 01 40:58:35
TRACK 11 AUDIO
TITLE "Crazy"
PERFORMER "Joe Satriani"
INDEX 00 47:57:52
INDEX 01 48:01:55


"Лог"
Exact Audio Copy V0.99 prebeta 5 from 4. May 2009

Отчёт EAC об извлечении, выполненном 25. сентября 2010, 21:26

Joe Satriani / The Extremist [SRCS-5940]

Дисковод: MATSHITADVD-RAM UJ-850S Adapter: 0 ID: 0

Режим чтения : Достоверность
Использование точного потока : Да
Отключение кэша аудио : Да
Использование указателей C2 : Нет

Коррекция смещения при чтении : 102
Способность читать области Lead-in и Lead-out : Нет
Заполнение пропущенных сэмплов тишиной : Да
Удаление блоков с тишиной в начале и конце : Нет
При вычислениях CRC использовались нулевые сэмплы : Да
Интерфейс : Установленный внешний ASPI-интерфейс

Выходной формат : Пользовательский кодировщик
Выбранный битрейт : 128 kBit/s
Качество : Высокий
Добавление ID3-тэга : Нет
Утилита сжатия : C:\Program Files\Exact Audio Copy\Flac\flac.exe
Дополнительные параметры : -6 -V -T "artist=%a" -T "title=%t" -T "album=%g" -T "date=%y" -T "tracknumber=%n" -T "genre=%m" -T "comment=EAC 0.99beta5 / FLAC 1.1.0 q6" %s


TOC извлечённого CD

Трек | Старт | Длительность | Начальный сектор | Конечный сектор
---------------------------------------------------------------------
1 | 0:00.00 | 3:29.25 | 0 | 15699
2 | 3:29.25 | 3:43.40 | 15700 | 32464
3 | 7:12.65 | 5:48.20 | 32465 | 58584
4 | 13:01.10 | 5:43.10 | 58585 | 84319
5 | 18:44.20 | 6:11.27 | 84320 | 112171
6 | 24:55.47 | 5:00.30 | 112172 | 134701
7 | 29:56.02 | 1:18.45 | 134702 | 140596
8 | 31:14.47 | 4:45.35 | 140597 | 162006
9 | 36:00.07 | 4:58.28 | 162007 | 184384
10 | 40:58.35 | 7:03.20 | 184385 | 216129
11 | 48:01.55 | 4:09.20 | 216130 | 234824


Характеристики диапазона извлечения и сообщения об ошибках

Выбранный диапазон

Имя файла Y:\Музыка\Joe Satriani\1992 The Extremist\Joe Satriani - The Extremist [SRCS-5940].wav

Пиковый уровень 97.9 %
Качество диапазона 100.0 %
CRC копии BCA79518
Копирование... OK

Ошибок не произошло


AccurateRip: сводка

Трек 1 нет в базе данных
Трек 2 нет в базе данных
Трек 3 нет в базе данных
Трек 4 нет в базе данных
Трек 5 нет в базе данных
Трек 6 нет в базе данных
Трек 7 нет в базе данных
Трек 8 нет в базе данных
Трек 9 нет в базе данных
Трек 10 нет в базе данных
Трек 11 нет в базе данных

Ни одного трека нет в базе AccurateRip

Конец отчёта


Состав:
Joe Satriani: Guitars, banjo, dobro, keyboards, synth, harmonica, bass (8, 10)
Matt Bissonette: Bass
Gregg Bissonette: Drums
Paulinho Da Costa: Percussion (2, 6, 8, 9)
Andy Johns: Organ (2, 9)
Brett Tugle: Organ (4)
Bongo Bob Smith: Electric drums & percussion (8)
Phil Ashley: Synthesized strings & squeeze-box (5), keyboards (6), synthesized trumpet (10)
Simon Phillips: Highland drums & tambourine (5)
Doug Wimbish: Bass (5), Buddy Rich intro (10)
Jeff Campitelli: Cymbals (10)

SRCS-5940

_________________
Витасу до Даймонда как Алсу до Руссоса | При переразмещении - спрашивать разрешение!!


Top
 Profile  
 
 
PostPosted: 25 Sep 2010 
ыыыы
User avatar
Joined: 17 May 2009
Posts: 952
Lоcаtion: Пушкино, МО
Age: 40
Name: Дмитрий
The Extremist- а.к.а Living on the Edge :true: ей-ей, так в буклете написано!

_________________
Витасу до Даймонда как Алсу до Руссоса | При переразмещении - спрашивать разрешение!!


Top
 Profile  
 
 
PostPosted: 26 Sep 2010 
Персональный статус
Joined: 14 May 2010
Posts: 236
Age: 37
Name: Денис
Великолепно! :meloman:

Машина будет?


Top
 Profile  
 
 
PostPosted: 27 Sep 2010 
Хиппей (support team)
User avatar
Joined: 30 Jul 2007
Posts: 113109
Lоcаtion: Киев (Kyiv, UA)
Age: 46
Name: Andrey
:thanx:

А на вокале кто? :umnik:

_________________


Top
 Profile E-mail  
 
 
PostPosted: 27 Sep 2010 
Персональный статус
Joined: 14 May 2010
Posts: 236
Age: 37
Name: Денис
инструментальный музон. на вокале гитарра. :true:


Top
 Profile  
 
 
PostPosted: 27 Sep 2010 
ыыыы
User avatar
Joined: 17 May 2009
Posts: 952
Lоcаtion: Пушкино, МО
Age: 40
Name: Дмитрий
поёт он сам

_________________
Витасу до Даймонда как Алсу до Руссоса | При переразмещении - спрашивать разрешение!!


Top
 Profile  
 
 
PostPosted: 27 Sep 2010 
дядя Миша
User avatar
Joined: 17 Oct 2008
Posts: 3131
Lоcаtion: USSR
Age: 56
Name: Khy
Cпасибочки!!!!!!!


Top
 Profile  
 
Display posts from previous:  Sort by  
Post new topic Reply to topic  [ 7 posts ] 

All times are UTC + 3 hours


Who is online

Users browsing this forum: No registered users and 1 guest


You cannot post new topics in this forum
You cannot reply to topics in this forum
You cannot edit your posts in this forum
You cannot delete your posts in this forum
You cannot post attachments in this forum

Search for:
Яндекс.Метрика
Powered by phpBB © 2000, 2002, 2005, 2007 phpBB Group