\m/ 80's metal \m/

Информационно-аналитический форум "80 см пыли" (In Search We Trust) "У нас никто никуда не спешит"
Me For You - http://me-4u.com
It is currently 22 Mar 2019

All times are UTC + 3 hours

Spoiler
Chat - temporary registration for foreign users (please leave your application here)







Post new topic Reply to topic  [ 9 posts ] 
Author Message
 
PostPosted: 08 Sep 2010 
ыыыы
User avatar
Joined: 17 May 2009
Posts: 952
Lоcаtion: Пушкино, МО
Age: 40
Name: Дмитрий
Image


Жанр: Shed/Hard Rock
Происхождение исполнителя: США
Год издания: 1988
Год издания данного носителя: 1989
Страна-производитель носителя: Япония
Аудио кодек: FLAC
Тип рипа: image+.cue
Битрейт аудио: lossless
Продолжительность: 23:23
Рип: Собственный
Лейбл: RELATIVITY/CBS-SONY
Каталоговый номер: 18DP-5401
Матрица: DPA-731 1 (SONY)

Треклист:
1. The Crush of Love 04:21
2. Ice 9 04:41 (Live)
3. Memories 09:09 (Live)
4. Hordes of Locusts 05:12 (Live)


"Куй"
REM GENRE "Heavy Metal"
REM DATE 1988
REM DISCID 27057A04
REM COMMENT "ExactAudioCopy v0.99pb5"
PERFORMER "Joe Satriani"
TITLE "Dreaming #11 [18DP 5401]"
FILE "Joe Satriani - Dreaming #11 [18DP 5401].flac" WAVE
TRACK 01 AUDIO
TITLE "The Crush Of Love"
PERFORMER "Joe Satriani"
INDEX 01 00:00:00
TRACK 02 AUDIO
TITLE "Ice Nine"
PERFORMER "Joe Satriani"
INDEX 00 04:19:00
INDEX 01 04:21:00
TRACK 03 AUDIO
TITLE "Memories"
PERFORMER "Joe Satriani"
INDEX 01 09:02:20
TRACK 04 AUDIO
TITLE "Hordes Of Locusts"
PERFORMER "Joe Satriani"
INDEX 01 18:11:10


"Лог"
Exact Audio Copy V0.99 prebeta 5 from 4. May 2009

Отчёт EAC об извлечении, выполненном 31. августа 2010, 13:32

Joe Satriani / Dreaming #11 [18DP 5401]

Дисковод: Optiarc DVD RW AD-7200A Adapter: 1 ID: 0

Режим чтения : Достоверность
Использование точного потока : Да
Отключение кэша аудио : Да
Использование указателей C2 : Нет

Коррекция смещения при чтении : 48
Способность читать области Lead-in и Lead-out : Нет
Заполнение пропущенных сэмплов тишиной : Да
Удаление блоков с тишиной в начале и конце : Нет
При вычислениях CRC использовались нулевые сэмплы : Да
Интерфейс : Встроенный Win32-интерфейс для Win NT/2000

Выходной формат : Пользовательский кодировщик
Выбранный битрейт : 128 kBit/s
Качество : Высокий
Добавление ID3-тэга : Нет
Утилита сжатия : C:\Program Files\Exact Audio Copy\Flac\flac.exe
Дополнительные параметры : -8 -V -T "artist=%a" -T "title=%t" -T "album=%g" -T "date=%y" -T "tracknumber=%n" -T "genre=%m" -T "comment=EAC


TOC извлечённого CD

Трек | Старт | Длительность | Начальный сектор | Конечный сектор
---------------------------------------------------------------------
1 | 0:00.00 | 4:21.00 | 0 | 19574
2 | 4:21.00 | 4:41.20 | 19575 | 40669
3 | 9:02.20 | 9:08.65 | 40670 | 81834
4 | 18:11.10 | 5:11.40 | 81835 | 105199


Характеристики диапазона извлечения и сообщения об ошибках

Выбранный диапазон

Имя файла Y:\Музыка\Joe Satriani\1988 Dreaming #11\Joe Satriani - Dreaming #11 [18DP 5401].wav

Пиковый уровень 97.5 %
Качество диапазона 100.0 %
CRC копии 6962A63C
Копирование... OK

Ошибок не произошло


AccurateRip: сводка

Трек 1 нет в базе данных
Трек 2 нет в базе данных
Трек 3 нет в базе данных
Трек 4 нет в базе данных

Ни одного трека нет в базе AccurateRip

Конец отчёта


Состав:
Joe Satriani: Guitar
Stuart Hamm: Bass
Jonathan Mover: Drums

18DP-5401

_________________
Витасу до Даймонда как Алсу до Руссоса | При переразмещении - спрашивать разрешение!!


Top
 Profile  
 
 
PostPosted: 08 Sep 2010 
Персональный статус
Joined: 14 May 2010
Posts: 236
Age: 37
Name: Денис
Дмитрий, как ты в таких условиях выкладываешь что-то?

тыц
Image


Top
 Profile  
 
 
PostPosted: 08 Sep 2010 
ыыыы
User avatar
Joined: 17 May 2009
Posts: 952
Lоcаtion: Пушкино, МО
Age: 40
Name: Дмитрий
В каких??? :shok:

_________________
Витасу до Даймонда как Алсу до Руссоса | При переразмещении - спрашивать разрешение!!


Top
 Profile  
 
 
PostPosted: 08 Sep 2010 
Персональный статус
Joined: 14 May 2010
Posts: 236
Age: 37
Name: Денис
в крупных :crazy:


Top
 Profile  
 
 
PostPosted: 08 Sep 2010 
Хиппей (support team)
User avatar
Joined: 30 Jul 2007
Posts: 111079
Lоcаtion: Киев (Kyiv, UA)
Age: 45
Name: Andrey
Спасибо за Жо! :true:


Ну и скрин рулит. Будет что вспомнить :dance:

_________________


Top
 Profile E-mail  
 
 
PostPosted: 08 Sep 2010 
Прокъмитолист
User avatar
Joined: 12 Aug 2007
Posts: 6535
Lоcаtion: Санктъ-Петербуркъ
Age: 51
Name: Олекъ
О! на кассетке еще такая ипишка была, надоть качнуть. Дим, спасибо! :thanx: :true:

_________________
прокъметол - это музыко, от которово есть прок (ы)


Top
 Profile  
 
 
PostPosted: 08 Sep 2010 
ыыыы
User avatar
Joined: 17 May 2009
Posts: 952
Lоcаtion: Пушкино, МО
Age: 40
Name: Дмитрий
на здоровье всем! ))
будет еще много чего интересного ))

_________________
Витасу до Даймонда как Алсу до Руссоса | При переразмещении - спрашивать разрешение!!


Top
 Profile  
 
 
PostPosted: 08 Sep 2010 
Труъ
User avatar
Joined: 14 Jul 2010
Posts: 104
Lоcаtion: Украина, Донецк
Age: 33
Name: Санёк
спасибо, Джо как всегда в тему :true:

_________________
Rock 'N' Roll is the only thing that keeps me from breaking apart (c)


Top
 Profile E-mail  
 
 
PostPosted: 10 Sep 2010 
Пионэръ
Joined: 08 Mar 2010
Posts: 36
Lоcаtion: Россия
Age: 39
Name: Иван
Спасибо, спасибо, много чего интересного говоришь ... :dance:


Top
 Profile E-mail  
 
Display posts from previous:  Sort by  
Post new topic Reply to topic  [ 9 posts ] 

All times are UTC + 3 hours


Who is online

Users browsing this forum: No registered users and 3 guests


You cannot post new topics in this forum
You cannot reply to topics in this forum
You cannot edit your posts in this forum
You cannot delete your posts in this forum
You cannot post attachments in this forum

Search for:
Яндекс.Метрика
Powered by phpBB © 2000, 2002, 2005, 2007 phpBB Group