\m/ 80's metal \m/

Информационно-аналитический форум "80 см пыли" (In Search We Trust) "У нас никто никуда не спешит"
Me For You - http://me-4u.com
It is currently 18 Mar 2019

All times are UTC + 3 hours

Spoiler
Chat - temporary registration for foreign users (please leave your application here)







Post new topic Reply to topic  [ 15 posts ] 
Author Message
 
PostPosted: 19 Apr 2013 
Труъ
User avatar
Joined: 08 Jul 2009
Posts: 138
Name: Hermes
Image

Tracks
1. Weddddding
2. Kiss A Bride
3. Give Your Smile To Me
4. If You Know What Love Is
5. Don't Go
6. Rock Me
7. Here Comes the Night
8. I Believe
9. Lonely
10. Still the Only Heart
11. Friends

_________________
The Kids Will Rock, So Let Them Rockkkkkkkkkk!!!!


Top
 Profile E-mail  
 
 
PostPosted: 02 Mar 2014 
Rara avis
User avatar
Joined: 27 Jan 2009
Posts: 4894
Name: .
http://www.jackbox-online.de/indexE.htm
http://de.picclick.com/JACKBOX-Kiss-A-B ... 87380.html


Top
 Profile E-mail  
 
 
PostPosted: 19 Nov 2016 
Rara avis
User avatar
Joined: 27 Jan 2009
Posts: 4894
Name: .
http://www.ebay.de/itm/Jackbox-kiss-a-b ... SwA3dYKJrq


Top
 Profile E-mail  
 
 
PostPosted: 08 Mar 2017 
Работнечег
User avatar
Joined: 28 Aug 2007
Posts: 5753
Lоcаtion: г. Москва
Age: 29
Name: Дима
Image

Label: Crossroads Records
Genre: Hard Rock
Coutry: Germany
Format: Flac + Log + Cue + Covers
Size: 321 Mb

Line-Up:
Andreas Pelzer - Lead Vocals, Guitars
Stefan Kirch - Bass, Backing Vocals
Thorsten Behrs - Guitars, Backing Vocals
Lars Subbe - Drums


Tracklist:
1. Weddddding
2. Kiss A Bride
3. Give Your Smile To Me
4. If You Know What Love Is
5. Don't Go
6. Rock Me
7. Here Comes the Night
8. I Believe
9. Lonely
10. Still the Only Heart
11. Friends

LOG
Exact Audio Copy V0.99 prebeta 5 from 4. May 2009

EAC extraction logfile from 3. February 2017, 19:14

Jackbox / Kiss A Bride

Used drive : PIONEER DVD-RW DVR-221 Adapter: 2 ID: 1

Read mode : Secure
Utilize accurate stream : Yes
Defeat audio cache : Yes
Make use of C2 pointers : No

Read offset correction : 6
Overread into Lead-In and Lead-Out : No
Fill up missing offset samples with silence : Yes
Delete leading and trailing silent blocks : No
Null samples used in CRC calculations : Yes
Used interface : Native Win32 interface for Win NT & 2000

Used output format : User Defined Encoder
Selected bitrate : 32 kBit/s
Quality : High
Add ID3 tag : No
Command line compressor : C:\Program Files\Exact Audio Copy\Flac\flac.exe
Additional command line options : -6 -V %s


TOC of the extracted CD

Track | Start | Length | Start sector | End sector
---------------------------------------------------------
1 | 0:00.00 | 0:30.57 | 0 | 2306
2 | 0:30.57 | 2:51.38 | 2307 | 15169
3 | 3:22.20 | 4:03.12 | 15170 | 33406
4 | 7:25.32 | 4:43.35 | 33407 | 54666
5 | 12:08.67 | 5:36.53 | 54667 | 79919
6 | 17:45.45 | 4:41.35 | 79920 | 101029
7 | 22:27.05 | 3:53.07 | 101030 | 118511
8 | 26:20.12 | 5:55.13 | 118512 | 145149
9 | 32:15.25 | 3:47.45 | 145150 | 162219
10 | 36:02.70 | 4:28.05 | 162220 | 182324
11 | 40:31.00 | 4:08.57 | 182325 | 200981


Range status and errors

Selected range

Filename D:\Музыка\Lossless\Jackbox\Kiss A Bride (1994)\Jackbox - Kiss A Bride.wav

Peak level 98.8 %
Range quality 99.9 %
Copy CRC 45C659D3
Copy OK

No errors occurred


AccurateRip summary

Track 1 not present in database
Track 2 not present in database
Track 3 not present in database
Track 4 not present in database
Track 5 not present in database
Track 6 not present in database
Track 7 not present in database
Track 8 not present in database
Track 9 not present in database
Track 10 not present in database
Track 11 not present in database

None of the tracks are present in the AccurateRip database

End of status report

CUE
REM GENRE Rock
REM DATE 1994
REM DISCID 820A770B
REM COMMENT "ExactAudioCopy v0.99pb5"
PERFORMER "Jackbox"
TITLE "Kiss A Bride"
FILE "Jackbox - Kiss A Bride.flac" WAVE
TRACK 01 AUDIO
TITLE "Weddddding"
PERFORMER "Jackbox"
INDEX 01 00:00:00
TRACK 02 AUDIO
TITLE "Kiss A Bride"
PERFORMER "Jackbox"
INDEX 01 00:30:57
TRACK 03 AUDIO
TITLE "Give Your Smile To Me"
PERFORMER "Jackbox"
INDEX 01 03:22:20
TRACK 04 AUDIO
TITLE "If You Know What Love Is"
PERFORMER "Jackbox"
INDEX 01 07:25:32
TRACK 05 AUDIO
TITLE "Don't Go"
PERFORMER "Jackbox"
INDEX 00 12:04:35
INDEX 01 12:08:67
TRACK 06 AUDIO
TITLE "Rock Me"
PERFORMER "Jackbox"
INDEX 01 17:45:45
TRACK 07 AUDIO
TITLE "Here Comes The Night"
PERFORMER "Jackbox"
INDEX 01 22:27:05
TRACK 08 AUDIO
TITLE "I Believe"
PERFORMER "Jackbox"
INDEX 01 26:20:12
TRACK 09 AUDIO
TITLE "Lonely"
PERFORMER "Jackbox"
INDEX 00 32:12:50
INDEX 01 32:15:25
TRACK 10 AUDIO
TITLE "Still The Only Heart"
PERFORMER "Jackbox"
INDEX 01 36:02:70
TRACK 11 AUDIO
TITLE "Friends"
PERFORMER "Jackbox"
INDEX 00 40:27:37
INDEX 01 40:31:00


Yadi

Спасибо за участие в покупке Саше и Даше! :thanx:
Хороший хард, мне даже неожиданно понравился.


Top
 Profile E-mail  
 
 
PostPosted: 08 Mar 2017 
Работнечег
User avatar
Joined: 28 Aug 2007
Posts: 5753
Lоcаtion: г. Москва
Age: 29
Name: Дима
viewtopic.php?f=183&t=13965 :losik:


Top
 Profile E-mail  
 
 
PostPosted: 08 Mar 2017 
Rara avis
User avatar
Joined: 27 Jan 2009
Posts: 4894
Name: .
:thanx:


Top
 Profile E-mail  
 
 
PostPosted: 09 Mar 2017 
спирт 100%
User avatar
Joined: 22 Sep 2008
Posts: 4381
Age: 47
Name: Саня
:thanx: Дима,Спасибо!!! :true:


Top
 Profile  
 
 
PostPosted: 17 Apr 2017 
Труъ
User avatar
Joined: 08 Jul 2009
Posts: 138
Name: Hermes
http://80metal.com/viewtopic.php?f=183&t=13965 :losik:

Thanx man!!! Great add to any collection...

_________________
The Kids Will Rock, So Let Them Rockkkkkkkkkk!!!!


Top
 Profile E-mail  
 
 
PostPosted: 17 Apr 2017 
Хиппей (support team)
User avatar
Joined: 30 Jul 2007
Posts: 111017
Lоcаtion: Киев (Kyiv, UA)
Age: 45
Name: Andrey
:thanx:

mirror: Depos l Narod l M-Cloud

_________________


Top
 Profile E-mail  
 
 
PostPosted: 17 Apr 2017 
Хиппей (support team)
User avatar
Joined: 30 Jul 2007
Posts: 111017
Lоcаtion: Киев (Kyiv, UA)
Age: 45
Name: Andrey
Темы объединены в одну и перенесена в Бухту.

_________________


Top
 Profile E-mail  
 
 
PostPosted: 19 Apr 2017 
Хиппей (support team)
User avatar
Joined: 30 Jul 2007
Posts: 111017
Lоcаtion: Киев (Kyiv, UA)
Age: 45
Name: Andrey
Какое-то недоБорЖоми безголосое с помесью стрит-панка ленивого :pardon:

4/10

_________________


Top
 Profile E-mail  
 
 
PostPosted: 19 Apr 2017 
Хиппей (support team)
User avatar
Joined: 30 Jul 2007
Posts: 111017
Lоcаtion: Киев (Kyiv, UA)
Age: 45
Name: Andrey
Jackbox - Alien Invasion (official Video)


Песня же со свежего альбома нежданно получилась флегматично-активной :lob:

_________________


Top
 Profile E-mail  
 
 
PostPosted: 19 Apr 2017 
Хиппей (support team)
User avatar
Joined: 30 Jul 2007
Posts: 111017
Lоcаtion: Киев (Kyiv, UA)
Age: 45
Name: Andrey
А группа то многогранная и плодовитая :lloo:


_________________


Top
 Profile E-mail  
 
 
PostPosted: 19 Apr 2017 
Хиппей (support team)
User avatar
Joined: 30 Jul 2007
Posts: 111017
Lоcаtion: Киев (Kyiv, UA)
Age: 45
Name: Andrey
По всяких байк-фестам в Германии колесит :dance:

Image

_________________


Top
 Profile E-mail  
 
 
PostPosted: 19 Apr 2017 
Хиппей (support team)
User avatar
Joined: 30 Jul 2007
Posts: 111017
Lоcаtion: Киев (Kyiv, UA)
Age: 45
Name: Andrey
О, даже клип к одноимённому альбому есть :kro:

http://www.jackbox-online.de/index-Date ... 20video.rm

_________________


Top
 Profile E-mail  
 
Display posts from previous:  Sort by  
Post new topic Reply to topic  [ 15 posts ] 

All times are UTC + 3 hours


Who is online

Users browsing this forum: No registered users and 1 guest


You cannot post new topics in this forum
You cannot reply to topics in this forum
You cannot edit your posts in this forum
You cannot delete your posts in this forum
You cannot post attachments in this forum

Search for:
Яндекс.Метрика
Powered by phpBB © 2000, 2002, 2005, 2007 phpBB Group