\m/ 80's metal \m/

Информационно-аналитический форум "80 см пыли" (In Search We Trust) "У нас никто никуда не спешит"
Me For You - http://me-4u.com
It is currently 26 Jan 2020

All times are UTC + 3 hours

Spoiler
Chat - temporary registration for foreign users (please leave your application here)







Post new topic Reply to topic  [ 20 posts ] 
Author Message
 
PostPosted: 02 Dec 2009 
Персональный статус
Joined: 06 Apr 2009
Posts: 376
Lоcаtion: hong kong
Age: 29
Name: andy
Image

Tracks
1. Pellucid Part 1
2. Alien
3. Wings
4. In Your Head
5. Nearly Orgasmic
6. Black And Blue Skies
7. Splitted Hairs
8. Miracle
9. Rainbows And Butterflies
10. Time That Passed
11. Unspoken
12. I Am
13. Unforgiven
14. Pellucid Part 2

http://heavyharmonies.com/cgi-bin/glamc ... CDName=III

_________________
LOVE ROCK


Top
 Profile  
 
 
PostPosted: 02 Dec 2009 
Хиппей (support team)
User avatar
Joined: 30 Jul 2007
Posts: 117140
Lоcаtion: Киев (Kyiv, UA)
Age: 46
Name: Andrey
http://plixid.com/2009/10/30/house-of-s ... i-2000-mp3

_________________


Top
 Profile E-mail  
 
 
PostPosted: 09 Oct 2019 
Хиппей (support team)
User avatar
Joined: 30 Jul 2007
Posts: 117140
Lоcаtion: Киев (Kyiv, UA)
Age: 46
Name: Andrey
House Of Shakira - "Delusion" (Official Music Video)



Новый альбом, по ходу, хрень какая-то будет.. :scratch:

_________________


Top
 Profile E-mail  
 
 
PostPosted: 09 Oct 2019 
Хиппей (support team)
User avatar
Joined: 30 Jul 2007
Posts: 117140
Lоcаtion: Киев (Kyiv, UA)
Age: 46
Name: Andrey
Если что, ответ на запрос лежит здесь :arrow: https://rutracker.org/forum/viewtopic.php?t=5281689

_________________


Top
 Profile E-mail  
 
 
PostPosted: 22 Dec 2019 
Хиппей (support team)
User avatar
Joined: 30 Jul 2007
Posts: 117140
Lоcаtion: Киев (Kyiv, UA)
Age: 46
Name: Andrey
Так и не понял - альбом автору запроса ещё нужен? :lloo:




зы. Явно позже лосей посмотрю в хлевах да на лугах и к нам заманю :kro:

ыз. Ааа, это явно ещё и AOR..

_________________


Top
 Profile E-mail  
 
 
PostPosted: 22 Dec 2019 
Хиппей (support team)
User avatar
Joined: 30 Jul 2007
Posts: 117140
Lоcаtion: Киев (Kyiv, UA)
Age: 46
Name: Andrey
Начал слушать дебютный альбом.
Ну чего - обычный-привычный мелодик хард-рок с некоторым вкраплением AOR'a.
Тема не совсем моя, но для форума более-менее подходит.

Перезалью молча все имеющиеся альбомы, кроме всяких лититед эдишенов и прочих извратов.

_________________


Top
 Profile E-mail  
 
 
PostPosted: 22 Dec 2019 
Хиппей (support team)
User avatar
Joined: 30 Jul 2007
Posts: 117140
Lоcаtion: Киев (Kyiv, UA)
Age: 46
Name: Andrey
House Of Shakira - 1997 - Lint (Japanese Edition) [flac]

Image

scans - https://postimg.cc/gallery/iskwh55c

mirror: Ur-Files l Telega l Uloz l Narod

log
Exact Audio Copy V1.0 beta 3 from 29. August 2011

EAC extraction logfile from 26. August 2016, 17:30

House Of Shakira / Lint

Used drive : SlimtypeDVD A DS8A5SH Adapter: 0 ID: 0

Read mode : Secure
Utilize accurate stream : Yes
Defeat audio cache : Yes
Make use of C2 pointers : No

Read offset correction : 6
Overread into Lead-In and Lead-Out : No
Fill up missing offset samples with silence : Yes
Delete leading and trailing silent blocks : No
Null samples used in CRC calculations : Yes
Used interface : Installed external ASPI interface

Used output format : User Defined Encoder
Selected bitrate : 320 kBit/s
Quality : High
Add ID3 tag : No
Command line compressor : C:\Program Files (x86)\Exact Audio Copy\Flac\flac.exe
Additional command line options : -V -8 -T "Date=%year%" -T "Genre=%genre%" %source%


TOC of the extracted CD

Track | Start | Length | Start sector | End sector
---------------------------------------------------------
1 | 0:00.00 | 3:57.00 | 0 | 17774
2 | 3:57.00 | 4:01.62 | 17775 | 35911
3 | 7:58.62 | 3:23.43 | 35912 | 51179
4 | 11:22.30 | 4:08.07 | 51180 | 69786
5 | 15:30.37 | 4:36.15 | 69787 | 90501
6 | 20:06.52 | 4:40.25 | 90502 | 111526
7 | 24:47.02 | 3:56.58 | 111527 | 129284
8 | 28:43.60 | 4:31.65 | 129285 | 149674
9 | 33:15.50 | 3:28.17 | 149675 | 165291
10 | 36:43.67 | 4:43.03 | 165292 | 186519
11 | 41:26.70 | 5:29.50 | 186520 | 211244
12 | 46:56.45 | 4:24.32 | 211245 | 231076
13 | 53:53.02 | 1:33.13 | 242477 | 249464


Range status and errors

Selected range

Filename D:\My Music\House Of Shakira - 1997 Lint (Japanese Edition)\House Of Shakira - Lint.wav

Peak level 98.2 %
Extraction speed 3.1 X
Range quality 100.0 %
Test CRC DF4FC55F
Copy CRC DF4FC55F
Copy OK

No errors occurred


AccurateRip summary

Track 1 not present in database
Track 2 not present in database
Track 3 not present in database
Track 4 not present in database
Track 5 not present in database
Track 6 not present in database
Track 7 not present in database
Track 8 not present in database
Track 9 not present in database
Track 10 not present in database
Track 11 not present in database
Track 12 not present in database

None of the tracks are present in the AccurateRip database

End of status report

==== Log checksum 77E7C91E8968EFDED0ACC81F7BBAD3158F1150EC774DA78B4F3D115CBD6252D6 ====

cue
REM GENRE "Melodic Hard Rock"
REM DATE 1997
REM DISCID C50CFE0D
REM COMMENT "ExactAudioCopy v1.0b3"
PERFORMER "House Of Shakira"
TITLE "Lint"
FILE "House Of Shakira - Lint.flac" WAVE
TRACK 01 AUDIO
TITLE "Morning Over Marocco"
PERFORMER "House Of Shakira"
INDEX 01 00:00:00
TRACK 02 AUDIO
TITLE "Lint"
PERFORMER "House Of Shakira"
INDEX 01 03:57:00
TRACK 03 AUDIO
TITLE "Method Of Madness"
PERFORMER "House Of Shakira"
INDEX 01 07:58:62
TRACK 04 AUDIO
TITLE "No: 8"
PERFORMER "House Of Shakira"
INDEX 01 11:22:30
TRACK 05 AUDIO
TITLE "Who.s Lying Now"
PERFORMER "House Of Shakira"
INDEX 01 15:30:37
TRACK 06 AUDIO
TITLE "Elephant Gun"
PERFORMER "House Of Shakira"
INDEX 01 20:06:52
TRACK 07 AUDIO
TITLE "Love Was Good"
PERFORMER "House Of Shakira"
INDEX 01 24:47:02
TRACK 08 AUDIO
TITLE "The Story.s The Same"
PERFORMER "House Of Shakira"
INDEX 01 28:43:60
TRACK 09 AUDIO
TITLE "Canned Laughter"
PERFORMER "House Of Shakira"
INDEX 01 33:15:50
TRACK 10 AUDIO
TITLE "Remember"
PERFORMER "House Of Shakira"
INDEX 01 36:43:67
TRACK 11 AUDIO
TITLE "Everything.s Fine"
PERFORMER "House Of Shakira"
INDEX 01 41:26:70
TRACK 12 AUDIO
TITLE "Stone In Love (bonus track)"
PERFORMER "House Of Shakira"
INDEX 01 46:56:45

_________________


Top
 Profile E-mail  
 
 
PostPosted: 22 Dec 2019 
Хиппей (support team)
User avatar
Joined: 30 Jul 2007
Posts: 117140
Lоcаtion: Киев (Kyiv, UA)
Age: 46
Name: Andrey
House Of Shakira - 1998 - On The Verge [flac]

Image

covers - https://postimg.cc/gallery/2igj9vihc

mirror: Ur-Files l Telega l Uloz l Narod

log
Exact Audio Copy V1.0 beta 3 from 29. August 2011

EAC extraction logfile from 5. August 2012, 15:16

House Of Shakira / On The Verge

Used drive : SlimtypeDVD A DS8A5SH Adapter: 0 ID: 1

Read mode : Secure
Utilize accurate stream : Yes
Defeat audio cache : Yes
Make use of C2 pointers : No

Read offset correction : 6
Overread into Lead-In and Lead-Out : No
Fill up missing offset samples with silence : Yes
Delete leading and trailing silent blocks : No
Null samples used in CRC calculations : Yes
Used interface : Native Win32 interface for Win NT & 2000

Used output format : User Defined Encoder
Selected bitrate : 320 kBit/s
Quality : High
Add ID3 tag : No
Command line compressor : C:\Program Files (x86)\Exact Audio Copy\Flac\flac.exe
Additional command line options : -V -8 -T "Date=%year%" -T "Genre=%genre%" %source%


TOC of the extracted CD

Track | Start | Length | Start sector | End sector
---------------------------------------------------------
1 | 0:00.30 | 4:44.32 | 30 | 21361
2 | 4:44.62 | 4:12.36 | 21362 | 40297
3 | 8:57.23 | 3:25.37 | 40298 | 55709
4 | 12:22.60 | 4:28.33 | 55710 | 75842
5 | 16:51.18 | 4:37.32 | 75843 | 96649
6 | 21:28.50 | 4:44.26 | 96650 | 117975
7 | 26:13.01 | 1:09.64 | 117976 | 123214
8 | 27:22.65 | 5:33.19 | 123215 | 148208
9 | 32:56.09 | 4:39.38 | 148209 | 169171
10 | 37:35.47 | 4:53.69 | 169172 | 191215
11 | 42:29.41 | 4:40.37 | 191216 | 212252
12 | 47:10.03 | 4:12.30 | 212253 | 231182
13 | 51:22.33 | 6:19.00 | 231183 | 259607


Range status and errors

Selected range

Filename D:\My Music\House Of Shakira - 1998 On The Verge\House Of Shakira - On The Verge.wav

Peak level 99.9 %
Extraction speed 1.8 X
Range quality 99.9 %
Test CRC 2B2F18AA
Copy CRC 2B2F18AA
Copy OK

No errors occurred


AccurateRip summary

Track 1 accurately ripped (confidence 6) [159A2DAB] (AR v1)
Track 2 accurately ripped (confidence 6) [9141CDFE] (AR v1)
Track 3 accurately ripped (confidence 6) [7F318E5A] (AR v1)
Track 4 accurately ripped (confidence 5) [4334F013] (AR v1)
Track 5 accurately ripped (confidence 5) [3A1D0412] (AR v1)
Track 6 accurately ripped (confidence 6) [E3506535] (AR v1)
Track 7 accurately ripped (confidence 4) [8F80F8C2] (AR v1)
Track 8 accurately ripped (confidence 4) [7FD2B40E] (AR v1)
Track 9 accurately ripped (confidence 6) [B8362120] (AR v1)
Track 10 accurately ripped (confidence 6) [B036A787] (AR v1)
Track 11 accurately ripped (confidence 5) [418DDBAC] (AR v1)
Track 12 accurately ripped (confidence 6) [79B0B4AA] (AR v1)
Track 13 accurately ripped (confidence 5) [85D7759E] (AR v1)

All tracks accurately ripped

End of status report

==== Log checksum EE0BF3E7490696C33433F3D317826C8CAEBE7378719C5EFBEB253E5DB981B3CB ====

cue
REM GENRE "Melodic Hard Rock"
REM DATE 1998
REM DISCID B80D850D
REM COMMENT "ExactAudioCopy v1.0b3"
PERFORMER "House Of Shakira"
TITLE "On The Verge"
FILE "House Of Shakira - On The Verge.flac" WAVE
TRACK 01 AUDIO
TITLE "The Song Remains"
PERFORMER "House Of Shakira"
INDEX 00 00:00:00
INDEX 01 00:00:30
TRACK 02 AUDIO
TITLE "Best Of Times"
PERFORMER "House Of Shakira"
INDEX 01 04:44:62
TRACK 03 AUDIO
TITLE "Time Bomb"
PERFORMER "House Of Shakira"
INDEX 01 08:57:23
TRACK 04 AUDIO
TITLE "Ghost In Town"
PERFORMER "House Of Shakira"
INDEX 01 12:22:60
TRACK 05 AUDIO
TITLE "Yesterday's Gone"
PERFORMER "House Of Shakira"
INDEX 01 16:51:18
TRACK 06 AUDIO
TITLE "Four Reasons"
PERFORMER "House Of Shakira"
INDEX 01 21:28:50
TRACK 07 AUDIO
TITLE "Mbaloumouna"
PERFORMER "House Of Shakira"
INDEX 01 26:13:01
TRACK 08 AUDIO
TITLE "The Chance"
PERFORMER "House Of Shakira"
INDEX 01 27:22:65
TRACK 09 AUDIO
TITLE "Free Your Mind"
PERFORMER "House Of Shakira"
INDEX 01 32:56:09
TRACK 10 AUDIO
TITLE "After The Fall"
PERFORMER "House Of Shakira"
INDEX 01 37:35:47
TRACK 11 AUDIO
TITLE "Warp"
PERFORMER "House Of Shakira"
INDEX 01 42:29:41
TRACK 12 AUDIO
TITLE "Enemy"
PERFORMER "House Of Shakira"
INDEX 01 47:10:03
TRACK 13 AUDIO
TITLE "Separate Ways"
PERFORMER "House Of Shakira"
INDEX 01 51:22:33

_________________


Top
 Profile E-mail  
 
 
PostPosted: 22 Dec 2019 
Хиппей (support team)
User avatar
Joined: 30 Jul 2007
Posts: 117140
Lоcаtion: Киев (Kyiv, UA)
Age: 46
Name: Andrey
House Of Shakira - 2000 - Best Of Two [flac]

Image

covers - https://postimg.cc/gallery/32w0vxsnk

mirror: Ur-Files l Telega l Uloz l Narod

log
Exact Audio Copy V1.0 beta 3 from 29. August 2011

EAC extraction logfile from 25. August 2016, 20:17

House Of Shakira / Best Of Two

Used drive : SlimtypeDVD A DS8A5SH Adapter: 0 ID: 0

Read mode : Secure
Utilize accurate stream : Yes
Defeat audio cache : Yes
Make use of C2 pointers : No

Read offset correction : 6
Overread into Lead-In and Lead-Out : No
Fill up missing offset samples with silence : Yes
Delete leading and trailing silent blocks : No
Null samples used in CRC calculations : Yes
Used interface : Installed external ASPI interface

Used output format : User Defined Encoder
Selected bitrate : 320 kBit/s
Quality : High
Add ID3 tag : No
Command line compressor : C:\Program Files (x86)\Exact Audio Copy\Flac\flac.exe
Additional command line options : -V -8 -T "Date=%year%" -T "Genre=%genre%" %source%


TOC of the extracted CD

Track | Start | Length | Start sector | End sector
---------------------------------------------------------
1 | 0:00.00 | 3:56.14 | 0 | 17713
2 | 3:56.14 | 4:01.48 | 17714 | 35836
3 | 7:57.62 | 3:23.28 | 35837 | 51089
4 | 11:21.15 | 4:07.61 | 51090 | 69675
5 | 15:29.01 | 4:36.15 | 69676 | 90390
6 | 20:05.16 | 4:40.07 | 90391 | 111397
7 | 24:45.23 | 3:58.06 | 111398 | 129253
8 | 28:43.29 | 4:45.62 | 129254 | 150690
9 | 33:29.16 | 4:12.36 | 150691 | 169626
10 | 37:41.52 | 3:26.35 | 169627 | 185111
11 | 41:08.12 | 4:29.31 | 185112 | 205317
12 | 45:37.43 | 5:34.17 | 205318 | 230384
13 | 51:11.60 | 4:41.35 | 230385 | 251494
14 | 55:53.20 | 6:14.68 | 251495 | 279612
15 | 62:08.13 | 5:09.52 | 279613 | 302839
16 | 67:17.65 | 3:36.48 | 302840 | 319087
17 | 70:54.38 | 4:49.72 | 319088 | 340834


Range status and errors

Selected range

Filename D:\My Music\House Of Shakira - 2000 Best Of Two\House Of Shakira - Best Of Two.wav

Peak level 100.0 %
Extraction speed 3.3 X
Range quality 100.0 %
Test CRC 3E4E1DC6
Copy CRC 3E4E1DC6
Copy OK

No errors occurred


AccurateRip summary

Track 1 accurately ripped (confidence 2) [87AA5F3F] (AR v2)
Track 2 accurately ripped (confidence 2) [B24BBCE3] (AR v2)
Track 3 accurately ripped (confidence 2) [D0F757D7] (AR v2)
Track 4 accurately ripped (confidence 2) [39A649D4] (AR v2)
Track 5 accurately ripped (confidence 2) [696C83D6] (AR v2)
Track 6 accurately ripped (confidence 2) [B33B6807] (AR v2)
Track 7 accurately ripped (confidence 2) [300347B2] (AR v2)
Track 8 accurately ripped (confidence 2) [631B2CA2] (AR v2)
Track 9 accurately ripped (confidence 2) [71F4003A] (AR v2)
Track 10 accurately ripped (confidence 2) [E047B49B] (AR v2)
Track 11 accurately ripped (confidence 2) [AC1B81BE] (AR v2)
Track 12 accurately ripped (confidence 2) [D3BE0D9D] (AR v2)
Track 13 accurately ripped (confidence 2) [CC5CF89F] (AR v2)
Track 14 accurately ripped (confidence 2) [AE17640A] (AR v2)
Track 15 accurately ripped (confidence 2) [3A5BB624] (AR v2)
Track 16 accurately ripped (confidence 2) [59B51EE0] (AR v2)
Track 17 accurately ripped (confidence 2) [9D40E937] (AR v2)

All tracks accurately ripped

End of status report

==== Log checksum 6924D75BD8445BF0174BED64C37A4895C63A7DB10B4069A9BD6832C0A8668F2C ====

cue
REM GENRE "Melodic Hard Rock"
REM DATE 2000
REM DISCID EC11C011
REM COMMENT "ExactAudioCopy v1.0b3"
PERFORMER "House Of Shakira"
TITLE "Best Of Two"
FILE "House Of Shakira - Best Of Two.flac" WAVE
TRACK 01 AUDIO
TITLE "Morning Over Morocco"
PERFORMER "House Of Shakira"
INDEX 01 00:00:00
TRACK 02 AUDIO
TITLE "Lint"
PERFORMER "House Of Shakira"
INDEX 00 03:54:14
INDEX 01 03:56:14
TRACK 03 AUDIO
TITLE "Method Of Madness"
PERFORMER "House Of Shakira"
INDEX 01 07:57:62
TRACK 04 AUDIO
TITLE "No: 8"
PERFORMER "House Of Shakira"
INDEX 00 11:19:15
INDEX 01 11:21:15
TRACK 05 AUDIO
TITLE "Who's Lying Now"
PERFORMER "House Of Shakira"
INDEX 00 15:27:01
INDEX 01 15:29:01
TRACK 06 AUDIO
TITLE "Elephant Gun"
PERFORMER "House Of Shakira"
INDEX 00 20:03:16
INDEX 01 20:05:16
TRACK 07 AUDIO
TITLE "Love Was Good"
PERFORMER "House Of Shakira"
INDEX 01 24:45:23
TRACK 08 AUDIO
TITLE "The Song Remains"
PERFORMER "House Of Shakira"
INDEX 00 28:41:29
INDEX 01 28:43:29
TRACK 09 AUDIO
TITLE "Best Of Times"
PERFORMER "House Of Shakira"
INDEX 00 33:27:16
INDEX 01 33:29:16
TRACK 10 AUDIO
TITLE "Time Bomb"
PERFORMER "House Of Shakira"
INDEX 01 37:41:52
TRACK 11 AUDIO
TITLE "Ghost In Time"
PERFORMER "House Of Shakira"
INDEX 00 41:06:12
INDEX 01 41:08:12
TRACK 12 AUDIO
TITLE "The Chance"
PERFORMER "House Of Shakira"
INDEX 00 45:35:43
INDEX 01 45:37:43
TRACK 13 AUDIO
TITLE "Warp"
PERFORMER "House Of Shakira"
INDEX 00 51:09:60
INDEX 01 51:11:60
TRACK 14 AUDIO
TITLE "Separate Ways"
PERFORMER "House Of Shakira"
INDEX 00 55:51:20
INDEX 01 55:53:20
TRACK 15 AUDIO
TITLE "Susan (bonus track)"
PERFORMER "House Of Shakira"
INDEX 00 62:06:13
INDEX 01 62:08:13
TRACK 16 AUDIO
TITLE "You Touched Me (bonus track)"
PERFORMER "House Of Shakira"
INDEX 00 67:15:65
INDEX 01 67:17:65
TRACK 17 AUDIO
TITLE "Antelope (bonus track)"
PERFORMER "House Of Shakira"
INDEX 00 70:52:38
INDEX 01 70:54:38

_________________


Top
 Profile E-mail  
 
 
PostPosted: 22 Dec 2019 
Хиппей (support team)
User avatar
Joined: 30 Jul 2007
Posts: 117140
Lоcаtion: Киев (Kyiv, UA)
Age: 46
Name: Andrey
House Of Shakira - 2000 - III [flac]

Image
Image
Image
Image

mirror: Ur-Files l Telega l Uloz l Narod

Image Image
Image Image

log
Exact Audio Copy V1.0 beta 3 from 29. August 2011

EAC extraction logfile from 25. August 2016, 21:01

House Of Shakira / III

Used drive : SlimtypeDVD A DS8A5SH Adapter: 0 ID: 0

Read mode : Secure
Utilize accurate stream : Yes
Defeat audio cache : Yes
Make use of C2 pointers : No

Read offset correction : 6
Overread into Lead-In and Lead-Out : No
Fill up missing offset samples with silence : Yes
Delete leading and trailing silent blocks : No
Null samples used in CRC calculations : Yes
Used interface : Installed external ASPI interface

Used output format : User Defined Encoder
Selected bitrate : 320 kBit/s
Quality : High
Add ID3 tag : No
Command line compressor : C:\Program Files (x86)\Exact Audio Copy\Flac\flac.exe
Additional command line options : -V -8 -T "Date=%year%" -T "Genre=%genre%" %source%


TOC of the extracted CD

Track | Start | Length | Start sector | End sector
---------------------------------------------------------
1 | 0:00.00 | 1:03.59 | 0 | 4783
2 | 1:03.59 | 3:25.22 | 4784 | 20180
3 | 4:29.06 | 3:48.59 | 20181 | 37339
4 | 8:17.65 | 4:30.27 | 37340 | 57616
5 | 12:48.17 | 4:00.65 | 57617 | 75681
6 | 16:49.07 | 4:08.30 | 75682 | 94311
7 | 20:57.37 | 4:58.30 | 94312 | 116691
8 | 25:55.67 | 5:23.73 | 116692 | 140989
9 | 31:19.65 | 4:57.69 | 140990 | 163333
10 | 36:17.59 | 4:27.44 | 163334 | 183402
11 | 40:45.28 | 3:08.55 | 183403 | 197557
12 | 43:54.08 | 4:45.21 | 197558 | 218953
13 | 48:39.29 | 4:22.10 | 218954 | 238613
14 | 53:01.39 | 4:27.29 | 238614 | 258667


Range status and errors

Selected range

Filename D:\My Music\House Of Shakira - 2000 III\House Of Shakira - III.wav

Peak level 98.8 %
Extraction speed 4.5 X
Range quality 100.0 %
Test CRC 9E39A13D
Copy CRC 9E39A13D
Copy OK

No errors occurred


AccurateRip summary

Track 1 accurately ripped (confidence 3) [92D5082C] (AR v1)
Track 2 accurately ripped (confidence 3) [AF588B0E] (AR v1)
Track 3 accurately ripped (confidence 3) [68271F7C] (AR v1)
Track 4 accurately ripped (confidence 2) [B89D4BBA] (AR v1)
Track 5 accurately ripped (confidence 3) [F25A4251] (AR v1)
Track 6 accurately ripped (confidence 3) [CE138F12] (AR v1)
Track 7 accurately ripped (confidence 3) [FD9C70EC] (AR v1)
Track 8 accurately ripped (confidence 3) [BDA4E153] (AR v1)
Track 9 accurately ripped (confidence 3) [35F06925] (AR v1)
Track 10 accurately ripped (confidence 2) [CF546F15] (AR v1)
Track 11 accurately ripped (confidence 3) [56BEDAFC] (AR v1)
Track 12 accurately ripped (confidence 3) [9B577F3F] (AR v1)
Track 13 accurately ripped (confidence 3) [8B02A7DF] (AR v1)
Track 14 accurately ripped (confidence 2) [15B52768] (AR v1)

All tracks accurately ripped

End of status report

==== Log checksum A91D9D8827D4E6AFDC6A68ACB9B2C7C559BA7CD48578EA72D3C0FDCBE74F19BB ====

cue
REM GENRE "Melodic Hard Rock"
REM DATE 2000
REM DISCID C50D780E
REM COMMENT "ExactAudioCopy v1.0b3"
PERFORMER "House Of Shakira"
TITLE "III"
FILE "House Of Shakira - III.flac" WAVE
TRACK 01 AUDIO
TITLE "Pellucid Part 1"
PERFORMER "House Of Shakira"
INDEX 01 00:00:00
TRACK 02 AUDIO
TITLE "Alien"
PERFORMER "House Of Shakira"
INDEX 01 01:03:59
TRACK 03 AUDIO
TITLE "Wings"
PERFORMER "House Of Shakira"
INDEX 00 04:28:69
INDEX 01 04:29:06
TRACK 04 AUDIO
TITLE "In Your Head"
PERFORMER "House Of Shakira"
INDEX 00 08:15:65
INDEX 01 08:17:65
TRACK 05 AUDIO
TITLE "Nearly Orgasmic"
PERFORMER "House Of Shakira"
INDEX 00 12:46:16
INDEX 01 12:48:17
TRACK 06 AUDIO
TITLE "Black And Blue Skies"
PERFORMER "House Of Shakira"
INDEX 00 16:47:16
INDEX 01 16:49:07
TRACK 07 AUDIO
TITLE "Splitted Hairs"
PERFORMER "House Of Shakira"
INDEX 00 20:55:40
INDEX 01 20:57:37
TRACK 08 AUDIO
TITLE "Miracle"
PERFORMER "House Of Shakira"
INDEX 00 25:54:04
INDEX 01 25:55:67
TRACK 09 AUDIO
TITLE "Rainbows And Butterflies"
PERFORMER "House Of Shakira"
INDEX 00 31:18:04
INDEX 01 31:19:65
TRACK 10 AUDIO
TITLE "Time That Passed"
PERFORMER "House Of Shakira"
INDEX 00 36:16:01
INDEX 01 36:17:59
TRACK 11 AUDIO
TITLE "Unspoken"
PERFORMER "House Of Shakira"
INDEX 00 40:43:33
INDEX 01 40:45:28
TRACK 12 AUDIO
TITLE "I Am"
PERFORMER "House Of Shakira"
INDEX 00 43:52:20
INDEX 01 43:54:08
TRACK 13 AUDIO
TITLE "Unforgiven"
PERFORMER "House Of Shakira"
INDEX 00 48:38:25
INDEX 01 48:39:29
TRACK 14 AUDIO
TITLE "Pellucid Part 2"
PERFORMER "House Of Shakira"
INDEX 00 52:59:46
INDEX 01 53:01:39

_________________


Top
 Profile E-mail  
 
 
PostPosted: 22 Dec 2019 
спирт 100%
User avatar
Joined: 22 Sep 2008
Posts: 4511
Age: 48
Name: Саня
:thanx: Спасибо!


Top
 Profile  
 
 
PostPosted: 23 Dec 2019 
Хиппей (support team)
User avatar
Joined: 30 Jul 2007
Posts: 117140
Lоcаtion: Киев (Kyiv, UA)
Age: 46
Name: Andrey
House Of Shakira - 2004 - First Class [flac]

Image

mirror: Ur-Files l Telega l Uloz l Narod

scans
Image

Image

Image

Image

Image

Image


log
Exact Audio Copy V1.0 beta 3 from 29. August 2011

EAC extraction logfile from 15. March 2012, 23:01

House Of Shakira / First Class

Used drive : SlimtypeDVD A DS8A5SH Adapter: 0 ID: 1

Read mode : Secure
Utilize accurate stream : Yes
Defeat audio cache : Yes
Make use of C2 pointers : No

Read offset correction : 6
Overread into Lead-In and Lead-Out : No
Fill up missing offset samples with silence : Yes
Delete leading and trailing silent blocks : No
Null samples used in CRC calculations : Yes
Used interface : Native Win32 interface for Win NT & 2000

Used output format : User Defined Encoder
Selected bitrate : 320 kBit/s
Quality : High
Add ID3 tag : No
Command line compressor : C:\Program Files (x86)\Exact Audio Copy\Flac\flac.exe
Additional command line options : -V -8 -T "Date=%year%" -T "Genre=%genre%" %source%


TOC of the extracted CD

Track | Start | Length | Start sector | End sector
---------------------------------------------------------
1 | 0:00.00 | 3:36.20 | 0 | 16219
2 | 3:36.20 | 2:34.67 | 16220 | 27836
3 | 6:11.12 | 4:43.30 | 27837 | 49091
4 | 10:54.42 | 3:43.38 | 49092 | 65854
5 | 14:38.05 | 5:07.70 | 65855 | 88949
6 | 19:46.00 | 3:59.25 | 88950 | 106899
7 | 23:45.25 | 4:57.17 | 106900 | 129191
8 | 28:42.42 | 3:53.23 | 129192 | 146689
9 | 32:35.65 | 4:28.17 | 146690 | 166806
10 | 37:04.07 | 4:17.73 | 166807 | 186154
11 | 41:22.05 | 6:15.02 | 186155 | 214281
12 | 47:37.07 | 4:45.63 | 214282 | 235719


Range status and errors

Selected range

Filename D:\My Music\House Of Shakira - 2004 First Class\House Of Shakira - First Class.wav

Peak level 100.0 %
Extraction speed 4.4 X
Range quality 100.0 %
Test CRC C8FABFFA
Copy CRC C8FABFFA
Copy OK

No errors occurred


AccurateRip summary

Track 1 accurately ripped (confidence 2) [A9D55E32] (AR v2)
Track 2 accurately ripped (confidence 2) [B315E773] (AR v2)
Track 3 accurately ripped (confidence 2) [95BAE30E] (AR v2)
Track 4 accurately ripped (confidence 2) [C4A81EDA] (AR v2)
Track 5 accurately ripped (confidence 2) [2D213157] (AR v2)
Track 6 accurately ripped (confidence 2) [837F5207] (AR v2)
Track 7 accurately ripped (confidence 2) [D55144F6] (AR v2)
Track 8 accurately ripped (confidence 2) [63506FC2] (AR v2)
Track 9 accurately ripped (confidence 2) [CEDCFB44] (AR v2)
Track 10 accurately ripped (confidence 2) [008CA722] (AR v2)
Track 11 accurately ripped (confidence 2) [EDF89AA0] (AR v2)
Track 12 accurately ripped (confidence 2) [B49D1148] (AR v2)

All tracks accurately ripped

End of status report

==== Log checksum D7B3E4E736AF96F686D00E24D787981170CEA1CBA2B55B36F67606DCB7853789 ====

cue
REM GENRE "Hard Rock"
REM DATE 2004
REM DISCID B50C460C
REM COMMENT "ExactAudioCopy v1.0b3"
PERFORMER "House Of Shakira"
TITLE "First Class"
FILE "House Of Shakira - First Class.flac" WAVE
TRACK 01 AUDIO
TITLE "Ain't Your Crowd"
PERFORMER "House Of Shakira"
INDEX 01 00:00:00
TRACK 02 AUDIO
TITLE "Uncontrolled"
PERFORMER "House Of Shakira"
INDEX 01 03:36:20
TRACK 03 AUDIO
TITLE "You Are"
PERFORMER "House Of Shakira"
INDEX 01 06:11:12
TRACK 04 AUDIO
TITLE "Hey Lord"
PERFORMER "House Of Shakira"
INDEX 01 10:54:42
TRACK 05 AUDIO
TITLE "Black And Blue Skies"
PERFORMER "House Of Shakira"
INDEX 01 14:38:05
TRACK 06 AUDIO
TITLE "Creep"
PERFORMER "House Of Shakira"
INDEX 01 19:46:00
TRACK 07 AUDIO
TITLE "Black Barn"
PERFORMER "House Of Shakira"
INDEX 01 23:45:25
TRACK 08 AUDIO
TITLE "State Of Grace"
PERFORMER "House Of Shakira"
INDEX 01 28:42:42
TRACK 09 AUDIO
TITLE "Landing"
PERFORMER "House Of Shakira"
INDEX 01 32:35:65
TRACK 10 AUDIO
TITLE "Celebration Bound"
PERFORMER "House Of Shakira"
INDEX 00 37:03:07
INDEX 01 37:04:07
TRACK 11 AUDIO
TITLE "Sunshine Song"
PERFORMER "House Of Shakira"
INDEX 00 41:20:45
INDEX 01 41:22:05
TRACK 12 AUDIO
TITLE "Chicago Blue"
PERFORMER "House Of Shakira"
INDEX 00 47:33:32
INDEX 01 47:37:07

_________________


Top
 Profile E-mail  
 
 
PostPosted: 23 Dec 2019 
Хиппей (support team)
User avatar
Joined: 30 Jul 2007
Posts: 117140
Lоcаtion: Киев (Kyiv, UA)
Age: 46
Name: Andrey
House Of Shakira - 2007 - Retoxed (Japanese Edition) 2CD [flac]

Image

mirror: Ur-Files l Telega l Uloz l Narod

scans
Image

Image

Image

Image

Image

Image

Image

Image

Image

Image

Image

Image

Image


log-CD1
Exact Audio Copy V1.0 beta 3 from 29. August 2011

EAC extraction logfile from 25. August 2016, 22:06

House Of Shakira / Retoxed

Used drive : SlimtypeDVD A DS8A5SH Adapter: 0 ID: 0

Read mode : Secure
Utilize accurate stream : Yes
Defeat audio cache : Yes
Make use of C2 pointers : No

Read offset correction : 6
Overread into Lead-In and Lead-Out : No
Fill up missing offset samples with silence : Yes
Delete leading and trailing silent blocks : No
Null samples used in CRC calculations : Yes
Used interface : Installed external ASPI interface

Used output format : User Defined Encoder
Selected bitrate : 320 kBit/s
Quality : High
Add ID3 tag : No
Command line compressor : C:\Program Files (x86)\Exact Audio Copy\Flac\flac.exe
Additional command line options : -V -8 -T "Date=%year%" -T "Genre=%genre%" %source%


TOC of the extracted CD

Track | Start | Length | Start sector | End sector
---------------------------------------------------------
1 | 0:00.00 | 1:12.10 | 0 | 5409
2 | 1:12.10 | 4:16.65 | 5410 | 24674
3 | 5:29.00 | 4:09.47 | 24675 | 43396
4 | 9:38.47 | 3:47.70 | 43397 | 60491
5 | 13:26.42 | 5:17.18 | 60492 | 84284
6 | 18:43.60 | 4:31.12 | 84285 | 104621
7 | 23:14.72 | 3:51.30 | 104622 | 121976
8 | 27:06.27 | 4:24.05 | 121977 | 141781
9 | 31:30.32 | 5:01.43 | 141782 | 164399
10 | 36:32.00 | 4:35.67 | 164400 | 185091
11 | 41:07.67 | 6:55.38 | 185092 | 216254
12 | 48:03.30 | 4:30.70 | 216255 | 236574
13 | 52:34.25 | 3:53.05 | 236575 | 254054


Range status and errors

Selected range

Filename D:\My Music\House Of Shakira - 2007 Retoxed (Japanese Edition)\CD1 - Retoxed\House Of Shakira - Retoxed.wav

Peak level 98.8 %
Extraction speed 1.9 X
Range quality 99.9 %
Test CRC EEA9E21E
Copy CRC EEA9E21E
Copy OK

No errors occurred


AccurateRip summary

Track 1 accurately ripped (confidence 2) [4F6C969E] (AR v2)
Track 2 accurately ripped (confidence 2) [D68970A7] (AR v2)
Track 3 accurately ripped (confidence 2) [A221666D] (AR v2)
Track 4 accurately ripped (confidence 2) [D5F46D11] (AR v2)
Track 5 accurately ripped (confidence 2) [ADB5A838] (AR v2)
Track 6 accurately ripped (confidence 2) [4A4603FA] (AR v2)
Track 7 accurately ripped (confidence 2) [F7E5372C] (AR v2)
Track 8 accurately ripped (confidence 2) [892232E8] (AR v2)
Track 9 accurately ripped (confidence 2) [C7342CF8] (AR v2)
Track 10 accurately ripped (confidence 2) [E6532579] (AR v2)
Track 11 accurately ripped (confidence 2) [75012FBA] (AR v2)
Track 12 accurately ripped (confidence 2) [761FAAB5] (AR v2)
Track 13 accurately ripped (confidence 2) [648A118D] (AR v2)

All tracks accurately ripped

End of status report

==== Log checksum EA864495E10B99E8688BD24AF8CB053C0B754C8C32AFBBE8B62544805F04BCC7 ====

_________________


Top
 Profile E-mail  
 
 
PostPosted: 23 Dec 2019 
Рарник и трушник
User avatar
Joined: 25 Dec 2009
Posts: 8870
Lоcаtion: Москва
Age: 54
Name: Виталий
Спасибо! :thanx:
До кучи предлагаю добавить в тему дискографию Шакиры. Дом то типа её жеж. :benya:


Top
 Profile  
 
 
PostPosted: 23 Dec 2019 
Хиппей (support team)
User avatar
Joined: 30 Jul 2007
Posts: 117140
Lоcаtion: Киев (Kyiv, UA)
Age: 46
Name: Andrey
И перемешать все песни - кто отличит, тому йолка в подарок :mos1:

Кстати, помалу слушаю альбомы этого коллектива - чёт у них чем взрослее, тем хуже песни :fingal:

_________________


Top
 Profile E-mail  
 
 
PostPosted: 23 Dec 2019 
Хиппей (support team)
User avatar
Joined: 30 Jul 2007
Posts: 117140
Lоcаtion: Киев (Kyiv, UA)
Age: 46
Name: Andrey
House Of Shakira - 2012 - HoS [flac]

Image

mirror: Ur-Files l Telega l Uloz l Narod

scans
Image

Image

Image

Image

Image

Image

Image

Image


log
Exact Audio Copy V1.0 beta 3 from 29. August 2011

EAC extraction logfile from 26. August 2016, 20:11

House Of Shakira / HoS

Used drive : SlimtypeDVD A DS8A5SH Adapter: 0 ID: 0

Read mode : Secure
Utilize accurate stream : Yes
Defeat audio cache : Yes
Make use of C2 pointers : No

Read offset correction : 6
Overread into Lead-In and Lead-Out : No
Fill up missing offset samples with silence : Yes
Delete leading and trailing silent blocks : No
Null samples used in CRC calculations : Yes
Used interface : Installed external ASPI interface

Used output format : User Defined Encoder
Selected bitrate : 320 kBit/s
Quality : High
Add ID3 tag : No
Command line compressor : C:\Program Files (x86)\Exact Audio Copy\Flac\flac.exe
Additional command line options : -V -8 -T "Date=%year%" -T "Genre=%genre%" %source%


TOC of the extracted CD

Track | Start | Length | Start sector | End sector
---------------------------------------------------------
1 | 0:00.00 | 3:45.37 | 0 | 16911
2 | 3:45.37 | 3:30.29 | 16912 | 32690
3 | 7:15.66 | 4:06.53 | 32691 | 51193
4 | 11:22.44 | 4:21.35 | 51194 | 70803
5 | 15:44.04 | 3:22.04 | 70804 | 85957
6 | 19:06.08 | 3:47.56 | 85958 | 103038
7 | 22:53.64 | 4:12.09 | 103039 | 121947
8 | 27:05.73 | 3:42.64 | 121948 | 138661
9 | 30:48.62 | 3:28.00 | 138662 | 154261
10 | 34:16.62 | 4:20.15 | 154262 | 173776
11 | 38:37.02 | 4:27.03 | 173777 | 193804
12 | 43:04.05 | 3:37.31 | 193805 | 210110
13 | 46:41.36 | 2:51.64 | 210111 | 222999


Range status and errors

Selected range

Filename D:\My Music\House Of Shakira - 2012 HoS\House Of Shakira - HoS.wav

Peak level 98.8 %
Extraction speed 1.8 X
Range quality 100.0 %
Test CRC 91A808CC
Copy CRC 91A808CC
Copy OK

No errors occurred


AccurateRip summary

Track 1 accurately ripped (confidence 4) [4D0D5C7D] (AR v2)
Track 2 accurately ripped (confidence 4) [77C02145] (AR v2)
Track 3 accurately ripped (confidence 4) [0260D3E1] (AR v2)
Track 4 accurately ripped (confidence 4) [32B99D9D] (AR v2)
Track 5 accurately ripped (confidence 4) [A7750A91] (AR v2)
Track 6 accurately ripped (confidence 4) [BD725B02] (AR v2)
Track 7 accurately ripped (confidence 4) [9CA179A1] (AR v2)
Track 8 accurately ripped (confidence 4) [BEA21B7B] (AR v2)
Track 9 accurately ripped (confidence 4) [837855FC] (AR v2)
Track 10 accurately ripped (confidence 4) [87292C85] (AR v2)
Track 11 accurately ripped (confidence 4) [3E25A8C8] (AR v2)
Track 12 accurately ripped (confidence 4) [01DCDED4] (AR v2)
Track 13 accurately ripped (confidence 4) [A9A5C778] (AR v2)

All tracks accurately ripped

End of status report

==== Log checksum 025CAF63D8C34EE5438FE6E81A1BA56F79067E91903998AEA6CD908A33E7BDB7 ====

cue
REM GENRE "Melodic Hard Rock"
REM DATE 2012
REM DISCID BC0B9D0D
REM COMMENT "ExactAudioCopy v1.0b3"
PERFORMER "House Of Shakira"
TITLE "HoS"
FILE "House Of Shakira - HoS.flac" WAVE
TRACK 01 AUDIO
TITLE "Brick Wall Falling"
PERFORMER "House Of Shakira"
INDEX 01 00:00:00
TRACK 02 AUDIO
TITLE "Changes In Mind"
PERFORMER "House Of Shakira"
INDEX 00 03:44:37
INDEX 01 03:45:37
TRACK 03 AUDIO
TITLE "Carry My Load"
PERFORMER "House Of Shakira"
INDEX 00 07:14:71
INDEX 01 07:15:66
TRACK 04 AUDIO
TITLE "Zodiac Maniac"
PERFORMER "House Of Shakira"
INDEX 00 11:21:59
INDEX 01 11:22:44
TRACK 05 AUDIO
TITLE "Fractions Of Love"
PERFORMER "House Of Shakira"
INDEX 00 15:43:71
INDEX 01 15:44:04
TRACK 06 AUDIO
TITLE "Midnight Hunger"
PERFORMER "House Of Shakira"
INDEX 00 19:05:38
INDEX 01 19:06:08
TRACK 07 AUDIO
TITLE "Endless Night"
PERFORMER "House Of Shakira"
INDEX 00 22:52:38
INDEX 01 22:53:64
TRACK 08 AUDIO
TITLE "All Aboard"
PERFORMER "House Of Shakira"
INDEX 00 27:04:56
INDEX 01 27:05:73
TRACK 09 AUDIO
TITLE "What Goes Around"
PERFORMER "House Of Shakira"
INDEX 00 30:47:27
INDEX 01 30:48:62
TRACK 10 AUDIO
TITLE "I'll Be Gone"
PERFORMER "House Of Shakira"
INDEX 00 34:15:07
INDEX 01 34:16:62
TRACK 11 AUDIO
TITLE "Voice In The Void"
PERFORMER "House Of Shakira"
INDEX 00 38:35:48
INDEX 01 38:37:02
TRACK 12 AUDIO
TITLE "Lost In Transition"
PERFORMER "House Of Shakira"
INDEX 00 43:02:27
INDEX 01 43:04:05
TRACK 13 AUDIO
TITLE "Out Of My Head"
PERFORMER "House Of Shakira"
INDEX 01 46:41:36

_________________


Top
 Profile E-mail  
 
 
PostPosted: 23 Dec 2019 
Хиппей (support team)
User avatar
Joined: 30 Jul 2007
Posts: 117140
Lоcаtion: Киев (Kyiv, UA)
Age: 46
Name: Andrey
House Of Shakira - 2013 - Pay To Play [flac]

Image

mirror: Ur-Files l Telega l Uloz l Narod

Ой, а этот альбом ну очень хороший и даже мощный :lob: :lob: :lob:

7/10

scans
Image

Image

Image

Image

Image

Image


log
Exact Audio Copy V1.0 beta 3 from 29. August 2011

EAC extraction logfile from 7. December 2013, 11:08

House of Shakira / Pay To Play

Used drive : SlimtypeDVD A DS8A5SH Adapter: 0 ID: 1

Read mode : Secure
Utilize accurate stream : Yes
Defeat audio cache : Yes
Make use of C2 pointers : No

Read offset correction : 6
Overread into Lead-In and Lead-Out : No
Fill up missing offset samples with silence : Yes
Delete leading and trailing silent blocks : No
Null samples used in CRC calculations : Yes
Used interface : Native Win32 interface for Win NT & 2000

Used output format : User Defined Encoder
Selected bitrate : 320 kBit/s
Quality : High
Add ID3 tag : No
Command line compressor : C:\Program Files (x86)\Exact Audio Copy\Flac\flac.exe
Additional command line options : -V -8 -T "Date=%year%" -T "Genre=%genre%" %source%


TOC of the extracted CD

Track | Start | Length | Start sector | End sector
---------------------------------------------------------
1 | 0:00.00 | 3:30.31 | 0 | 15780
2 | 3:30.31 | 3:48.02 | 15781 | 32882
3 | 7:18.33 | 4:08.58 | 32883 | 51540
4 | 11:27.16 | 3:21.07 | 51541 | 66622
5 | 14:48.23 | 3:46.01 | 66623 | 83573
6 | 18:34.24 | 3:35.07 | 83574 | 99705
7 | 22:09.31 | 3:42.24 | 99706 | 116379
8 | 25:51.55 | 3:39.10 | 116380 | 132814
9 | 29:30.65 | 3:35.34 | 132815 | 148973
10 | 33:06.24 | 3:33.16 | 148974 | 164964
11 | 36:39.40 | 4:21.73 | 164965 | 184612
12 | 41:01.38 | 5:27.10 | 184613 | 209147


Range status and errors

Selected range

Filename D:\My Music\House Of Shakira - 2013 Pay To Play\House of Shakira - Pay To Play.wav

Peak level 98.8 %
Extraction speed 4.3 X
Range quality 100.0 %
Test CRC A7E48CF4
Copy CRC A7E48CF4
Copy OK

No errors occurred


AccurateRip summary

Track 1 not present in database
Track 2 not present in database
Track 3 not present in database
Track 4 not present in database
Track 5 not present in database
Track 6 not present in database
Track 7 not present in database
Track 8 not present in database
Track 9 not present in database
Track 10 not present in database
Track 11 not present in database
Track 12 not present in database

None of the tracks are present in the AccurateRip database

End of status report

==== Log checksum 8DBE0BE018AEA0644410B614192FA0054E06B293B2CD68108013D557E516745C ====

cue
REM GENRE "Melodic Hard Rock"
REM DATE 2013
REM DISCID 950AE40C
REM COMMENT "ExactAudioCopy v1.0b3"
PERFORMER "House of Shakira"
TITLE "Pay To Play"
FILE "House of Shakira - Pay To Play.flac" WAVE
TRACK 01 AUDIO
TITLE "Pay To Play"
PERFORMER "House of Shakira"
INDEX 01 00:00:00
TRACK 02 AUDIO
TITLE "Bending The Law"
PERFORMER "House of Shakira"
INDEX 00 03:29:42
INDEX 01 03:30:31
TRACK 03 AUDIO
TITLE "All You Want"
PERFORMER "House of Shakira"
INDEX 00 07:16:55
INDEX 01 07:18:33
TRACK 04 AUDIO
TITLE "WhenThe Cat's Away"
PERFORMER "House of Shakira"
INDEX 00 11:25:47
INDEX 01 11:27:16
TRACK 05 AUDIO
TITLE "Dopamin Junkie"
PERFORMER "House of Shakira"
INDEX 00 14:47:17
INDEX 01 14:48:23
TRACK 06 AUDIO
TITLE "Draw The Line"
PERFORMER "House of Shakira"
INDEX 00 18:33:46
INDEX 01 18:34:24
TRACK 07 AUDIO
TITLE "Dog Eat Dog"
PERFORMER "House of Shakira"
INDEX 00 22:08:10
INDEX 01 22:09:31
TRACK 08 AUDIO
TITLE "Give Me More"
PERFORMER "House of Shakira"
INDEX 00 25:51:25
INDEX 01 25:51:55
TRACK 09 AUDIO
TITLE "Tried And True"
PERFORMER "House of Shakira"
INDEX 00 29:29:39
INDEX 01 29:30:65
TRACK 10 AUDIO
TITLE "Talk Of The Town"
PERFORMER "House of Shakira"
INDEX 00 33:05:22
INDEX 01 33:06:24
TRACK 11 AUDIO
TITLE "Two Things"
PERFORMER "House of Shakira"
INDEX 00 36:38:22
INDEX 01 36:39:40
TRACK 12 AUDIO
TITLE "Same Old Story"
PERFORMER "House of Shakira"
INDEX 00 40:59:61
INDEX 01 41:01:38

_________________


Top
 Profile E-mail  
 
 
PostPosted: 23 Dec 2019 
Хиппей (support team)
User avatar
Joined: 30 Jul 2007
Posts: 117140
Lоcаtion: Киев (Kyiv, UA)
Age: 46
Name: Andrey
House Of Shakira - 2014 - Paid To Play Live! (Official Bootleg)

Image

Эх, немного промазал с альбом. Но.. концерт звучит труйово =) :lob: :lob: :lob:

mirror: Ur-Files l Telega l Uloz l Narod

scans
Image

Image

Image

Image


log
Exact Audio Copy V1.0 beta 3 from 29. August 2011

EAC extraction logfile from 25. August 2016, 19:27

House Of Shakira / Paid To Play Live! (Official Bootleg)

Used drive : SlimtypeDVD A DS8A5SH Adapter: 0 ID: 0

Read mode : Secure
Utilize accurate stream : Yes
Defeat audio cache : Yes
Make use of C2 pointers : No

Read offset correction : 6
Overread into Lead-In and Lead-Out : No
Fill up missing offset samples with silence : Yes
Delete leading and trailing silent blocks : No
Null samples used in CRC calculations : Yes
Used interface : Installed external ASPI interface

Used output format : User Defined Encoder
Selected bitrate : 320 kBit/s
Quality : High
Add ID3 tag : No
Command line compressor : C:\Program Files (x86)\Exact Audio Copy\Flac\flac.exe
Additional command line options : -V -8 -T "Date=%year%" -T "Genre=%genre%" %source%


TOC of the extracted CD

Track | Start | Length | Start sector | End sector
---------------------------------------------------------
1 | 0:00.00 | 3:53.58 | 0 | 17532
2 | 3:53.58 | 3:42.29 | 17533 | 34211
3 | 7:36.12 | 3:23.53 | 34212 | 49489
4 | 10:59.65 | 4:08.19 | 49490 | 68108
5 | 15:08.09 | 3:47.11 | 68109 | 85144
6 | 18:55.20 | 3:46.00 | 85145 | 102094
7 | 22:41.20 | 3:48.36 | 102095 | 119230
8 | 26:29.56 | 4:15.74 | 119231 | 138429
9 | 30:45.55 | 3:30.72 | 138430 | 154251


Range status and errors

Selected range

Filename D:\My Music\House Of Shakira - 2014 Paid To Play Live! (Official Bootleg)\House Of Shakira - Paid To Play Live! (Official Bootleg).wav

Peak level 98.8 %
Extraction speed 4.3 X
Range quality 100.0 %
Test CRC 69497D3B
Copy CRC 69497D3B
Copy OK

No errors occurred


AccurateRip summary

Track 1 not present in database
Track 2 not present in database
Track 3 not present in database
Track 4 not present in database
Track 5 not present in database
Track 6 not present in database
Track 7 not present in database
Track 8 not present in database
Track 9 not present in database

None of the tracks are present in the AccurateRip database

End of status report

==== Log checksum CF788C2C2AEA917B6A0EC71645F9605C2AA826D94BC8366CF977571892DC14AC ====

cue
REM GENRE "Melodic Hard Rock"
REM DATE 2014
REM DISCID 71080809
REM COMMENT "ExactAudioCopy v1.0b3"
PERFORMER "House Of Shakira"
TITLE "Paid To Play Live! (Official Bootleg)"
FILE "House Of Shakira - Paid To Play Live! (Official Bootleg).flac" WAVE
TRACK 01 AUDIO
TITLE "Bending The Law"
PERFORMER "House Of Shakira"
FLAGS DCP
INDEX 01 00:00:00
TRACK 02 AUDIO
TITLE "Pay To Play"
PERFORMER "House Of Shakira"
FLAGS DCP
INDEX 01 03:53:58
TRACK 03 AUDIO
TITLE "When The Cats Away"
PERFORMER "House Of Shakira"
FLAGS DCP
INDEX 01 07:36:12
TRACK 04 AUDIO
TITLE "All You Want"
PERFORMER "House Of Shakira"
FLAGS DCP
INDEX 01 10:59:65
TRACK 05 AUDIO
TITLE "Give Me More"
PERFORMER "House Of Shakira"
FLAGS DCP
INDEX 01 15:08:09
TRACK 06 AUDIO
TITLE "Dopamine Junkie"
PERFORMER "House Of Shakira"
FLAGS DCP
INDEX 01 18:55:20
TRACK 07 AUDIO
TITLE "Draw The Line"
PERFORMER "House Of Shakira"
FLAGS DCP
INDEX 01 22:41:20
TRACK 08 AUDIO
TITLE "Shell Shock (bonus track)"
PERFORMER "House Of Shakira"
FLAGS DCP
INDEX 01 26:29:56
TRACK 09 AUDIO
TITLE "Financial Times (bonus track)"
PERFORMER "House Of Shakira"
FLAGS DCP
INDEX 01 30:45:55

_________________


Top
 Profile E-mail  
 
 
PostPosted: 23 Dec 2019 
Хиппей (support team)
User avatar
Joined: 30 Jul 2007
Posts: 117140
Lоcаtion: Киев (Kyiv, UA)
Age: 46
Name: Andrey
House Of Shakira - 2016 - Sour Grapes [flac]

Image

mirror: Ur-Files l Telega l Uloz l Narod

scans
Image

Image

Image

Image

Image

Image


log
Exact Audio Copy V1.0 beta 3 from 29. August 2011

EAC extraction logfile from 13. September 2016, 18:53

House of Shakira / Sour Grapes

Used drive : SlimtypeDVD A DS8A5SH Adapter: 0 ID: 0

Read mode : Secure
Utilize accurate stream : Yes
Defeat audio cache : Yes
Make use of C2 pointers : No

Read offset correction : 6
Overread into Lead-In and Lead-Out : No
Fill up missing offset samples with silence : Yes
Delete leading and trailing silent blocks : No
Null samples used in CRC calculations : Yes
Used interface : Installed external ASPI interface

Used output format : User Defined Encoder
Selected bitrate : 320 kBit/s
Quality : High
Add ID3 tag : No
Command line compressor : C:\Program Files (x86)\Exact Audio Copy\Flac\flac.exe
Additional command line options : -V -8 -T "Date=%year%" -T "Genre=%genre%" %source%


TOC of the extracted CD

Track | Start | Length | Start sector | End sector
---------------------------------------------------------
1 | 0:01.74 | 4:25.01 | 149 | 20024
2 | 4:27.00 | 3:52.64 | 20025 | 37488
3 | 8:19.64 | 4:04.32 | 37489 | 55820
4 | 12:24.21 | 3:27.46 | 55821 | 71391
5 | 15:51.67 | 5:04.20 | 71392 | 94211
6 | 20:56.12 | 3:26.18 | 94212 | 109679
7 | 24:22.30 | 3:41.43 | 109680 | 126297
8 | 28:03.73 | 4:02.43 | 126298 | 144490
9 | 32:06.41 | 4:34.71 | 144491 | 165111
10 | 36:41.37 | 3:37.56 | 165112 | 181442
11 | 40:19.18 | 5:21.57 | 181443 | 205574


Range status and errors

Selected range

Filename D:\My Music\House Of Shakira - 2016 Sour Grapes\House of Shakira - Sour Grapes.wav

Peak level 99.8 %
Extraction speed 2.7 X
Range quality 99.9 %
Test CRC FE905C04
Copy CRC FE905C04
Copy OK

No errors occurred


AccurateRip summary

Track 1 not present in database
Track 2 not present in database
Track 3 not present in database
Track 4 not present in database
Track 5 not present in database
Track 6 not present in database
Track 7 not present in database
Track 8 not present in database
Track 9 not present in database
Track 10 not present in database
Track 11 not present in database

None of the tracks are present in the AccurateRip database

End of status report

==== Log checksum D297AEE40BA5F5C8F258D30662AEF4766D6501DF89F04BE317C41886F3DC722A ====

cue
REM GENRE "Melodic Hard Rock"
REM DATE 2016
REM DISCID 930AB40B
REM COMMENT "ExactAudioCopy v1.0b3"
PERFORMER "House of Shakira"
TITLE "Sour Grapes"
FILE "House of Shakira - Sour Grapes.flac" WAVE
TRACK 01 AUDIO
TITLE "No Way Out"
PERFORMER "House of Shakira"
INDEX 00 00:00:00
INDEX 01 00:01:74
TRACK 02 AUDIO
TITLE "Nothing Left"
PERFORMER "House of Shakira"
INDEX 00 04:25:18
INDEX 01 04:27:00
TRACK 03 AUDIO
TITLE "Trial By Fire"
PERFORMER "House of Shakira"
INDEX 00 08:18:37
INDEX 01 08:19:64
TRACK 04 AUDIO
TITLE "Waste No Time"
PERFORMER "House of Shakira"
INDEX 00 12:23:65
INDEX 01 12:24:21
TRACK 05 AUDIO
TITLE "My Disaster"
PERFORMER "House of Shakira"
INDEX 00 15:49:66
INDEX 01 15:51:67
TRACK 06 AUDIO
TITLE "Through It All"
PERFORMER "House of Shakira"
INDEX 00 20:54:20
INDEX 01 20:56:12
TRACK 07 AUDIO
TITLE "Bend Of The River"
PERFORMER "House of Shakira"
INDEX 00 24:20:06
INDEX 01 24:22:30
TRACK 08 AUDIO
TITLE "Hopeless Case"
PERFORMER "House of Shakira"
INDEX 00 28:01:14
INDEX 01 28:03:73
TRACK 09 AUDIO
TITLE "Sour Grapes"
PERFORMER "House of Shakira"
INDEX 00 32:05:21
INDEX 01 32:06:41
TRACK 10 AUDIO
TITLE "Stupid Love Song"
PERFORMER "House of Shakira"
INDEX 00 36:39:23
INDEX 01 36:41:37
TRACK 11 AUDIO
TITLE "On The Edge"
PERFORMER "House of Shakira"
INDEX 00 40:16:36
INDEX 01 40:19:18

_________________


Top
 Profile E-mail  
 
 
PostPosted: 23 Dec 2019 
Хиппей (support team)
User avatar
Joined: 30 Jul 2007
Posts: 117140
Lоcаtion: Киев (Kyiv, UA)
Age: 46
Name: Andrey
Ну вот пока и хватит.
Смотреть, было ли что у группы после 16 года окровенно влом =))
Хватит и того что у нас этот "Дом Шакиры" вообще появился на форуме :crazy:

_________________


Top
 Profile E-mail  
 
Display posts from previous:  Sort by  
Post new topic Reply to topic  [ 20 posts ] 

All times are UTC + 3 hours


Who is online

Users browsing this forum: No registered users and 1 guest


You cannot post new topics in this forum
You cannot reply to topics in this forum
You cannot edit your posts in this forum
You cannot delete your posts in this forum
You cannot post attachments in this forum

Search for:
Яндекс.Метрика
Powered by phpBB © 2000, 2002, 2005, 2007 phpBB Group