\m/ 80's metal \m/

Информационно-аналитический форум "80 см пыли" (In Search We Trust) "У нас никто никуда не спешит"
Me For You - http://me-4u.com
It is currently 15 Nov 2019

All times are UTC + 3 hours

Spoiler
Chat - temporary registration for foreign users (please leave your application here)







Post new topic Reply to topic  [ 50 posts ]  Go to page Previous  1, 2, 3
Author Message
 
PostPosted: 13 Nov 2017 
Хиппей (support team)
User avatar
Joined: 30 Jul 2007
Posts: 115537
Lоcаtion: Киев (Kyiv, UA)
Age: 46
Name: Andrey
Подрихтую чуть название темы и стилевые рамки. А то Пашка тоже просто скопировал всё с М-А :pardon:

_________________


Top
 Profile E-mail  
 
 
PostPosted: 21 Feb 2018 
Хиппей (support team)
User avatar
Joined: 30 Jul 2007
Posts: 115537
Lоcаtion: Киев (Kyiv, UA)
Age: 46
Name: Andrey
hawkhunter wrote:
Hammerhawk - Welcome Home, We Expected You

Хороший альбом. Первая половины почти чисто трэшовая и мне не понравилась. А вот вторая почти чисто хардкоровая, очень трушная :lob: :lob: :lob:

6+/10

Скачаю альбом отсюда https://www.deezer.com/ru/album/5971823 позже и перезалью.

_________________


Top
 Profile E-mail  
 
 
PostPosted: 21 Feb 2018 
Хиппей (support team)
User avatar
Joined: 30 Jul 2007
Posts: 115537
Lоcаtion: Киев (Kyiv, UA)
Age: 46
Name: Andrey
Вах. Отмотал на страничку ранее. Дык, есть давно готовый лось :arrow: viewtopic.php?p=315605#p315605 :pardon:

Запрос по данному альбом снимается.

_________________


Top
 Profile E-mail  
 
 
PostPosted: 23 Feb 2018 
Хиппей (support team)
User avatar
Joined: 30 Jul 2007
Posts: 115537
Lоcаtion: Киев (Kyiv, UA)
Age: 46
Name: Andrey
Scatterbrain wrote:
Скачаю альбом отсюда https://www.deezer.com/ru/album/5971823 позже и перезалью.

Там оказался в 320 :(



Володя Варлорд, проверь, плиз, точно там нет лося на Дизере, а только в 320 и 128 мп3? :kro:

_________________


Top
 Profile E-mail  
 
 
PostPosted: 23 Feb 2018 
Partisanen - nicht kapitulieren!!
User avatar
Joined: 25 Dec 2011
Posts: 7180
Lоcаtion: партизанские леса
Age: 47
Name: Владимир
судя по всему - нема сохатого... :vic:

_________________
One more beer and Heavy Metal and I'm just fine!
старовер, куле... слово "блин" - до сих пор через Ъ говорю


Top
 Profile E-mail  
 
 
PostPosted: 23 Feb 2018 
Хиппей (support team)
User avatar
Joined: 30 Jul 2007
Posts: 115537
Lоcаtion: Киев (Kyiv, UA)
Age: 46
Name: Andrey
Ок, пасиб.
Жлобьё там какое-то сидит и вылаживает альбомы :cry:

_________________


Top
 Profile E-mail  
 
 
PostPosted: 24 Feb 2018 
спирт 100%
User avatar
Joined: 22 Sep 2008
Posts: 4480
Age: 48
Name: Саня
Hammerhawk - The Future (Written In The Past) (2000)

Image

1. Fuck To Kill
2. Sickminded
3. God Of Thunder
4. AIDS 1
5. Heavy Metal Forever
6. Hot Human Chilli
7. Let Me Go
8. Little Mean Killing Machine
9. Viscious Execution
10. Raping The Future
11. Blow Up Doll
12. Deep Sea Tragedy
13. AIDS 2
14. Discovery
15. All Of The Days
16. Dead Or Alive
17. Killer
18. Hammerhawk
19. To Be Continued

[192]


Top
 Profile  
 
 
PostPosted: 24 Feb 2018 
Хиппей (support team)
User avatar
Joined: 30 Jul 2007
Posts: 115537
Lоcаtion: Киев (Kyiv, UA)
Age: 46
Name: Andrey
О, Саня, класс-спасибо! :thanx:

mirror: Depos l Drop l Narod l M-Cloud


Запрос закрыт :kro:

_________________


Top
 Profile E-mail  
 
 
PostPosted: 25 Feb 2018 
Хиппей (support team)
User avatar
Joined: 30 Jul 2007
Posts: 115537
Lоcаtion: Киев (Kyiv, UA)
Age: 46
Name: Andrey
spryt777 wrote:
Hammerhawk - The Future (Written In The Past) (2000)

Собственно, на этом сборнике собраны все лучшие песни коллектива :kro:

Но я бы трэшэвые выбросил и оставил лишь чисто хардкоровые :meloman:

_________________


Top
 Profile E-mail  
 
 
PostPosted: 01 Sep 2019 
Работнечег
User avatar
Joined: 28 Aug 2007
Posts: 6061
Lоcаtion: г. Москва
Age: 30
Name: Дима
Hammerhawk - The Future (Written In The Past)(Compilation)



Style: Thrash Metal, Heavy Metal , Hardcore
Year: 1999
Label: HMF Records
Country: Netherlands
Bitrate: Flac + Cue + Log + Covers
Size: 503 Mb

Tracklist:
1. Fuck to Kill 05:10
2. Sickminded 04:39
3. God of Thunder (KISS cover) 03:39
4. AIDS 1 01:29
5. H.M.F. 03:27
6. Hot Human Chilli 03:57
7. Let Me Go 04:02
8. Little Mean Killing Machine 04:49
9. Viscious Execution 06:32
10. Raping the Future 04:13
11. Blow Up Doll 05:22
12. Deep Sea Tragedy 02:58
13. AIDS 2 00:18
14. Discovery 05:49
15. All of the Days 04:53
16. Dead or Alive 03:06
17. Killer 03:54
18. Hammerhawk 04:02
19. To Be Continued 00:31

LOG
Exact Audio Copy V1.3 from 2. September 2016

EAC extraction logfile from 23. April 2019, 16:38

Hammerhawk / The Future (Written In The Past)(Compilation)

Used drive : PIONEER DVD-RW DVR-221 Adapter: 1 ID: 0

Read mode : Secure
Utilize accurate stream : Yes
Defeat audio cache : Yes
Make use of C2 pointers : No

Read offset correction : 6
Overread into Lead-In and Lead-Out : No
Fill up missing offset samples with silence : Yes
Delete leading and trailing silent blocks : No
Null samples used in CRC calculations : Yes
Used interface : Native Win32 interface for Win NT & 2000

Used output format : User Defined Encoder
Selected bitrate : 768 kBit/s
Quality : High
Add ID3 tag : No
Command line compressor : C:\Program Files (x86)\Exact Audio Copy\FLAC\FLAC.EXE
Additional command line options : -6 -V -T "ARTIST=%artist%" -T "TITLE=%title%" -T "ALBUM=%albumtitle%" -T "DATE=%year%" -T "TRACKNUMBER=%tracknr%" -T "GENRE=%genre%" -T "COMMENT=%comment%" -T "BAND=%albuminterpret%" -T "ALBUMARTIST=%albuminterpret%" -T "COMPOSER=%composer%" %haslyrics%--tag-from-file=LYRICS="%lyricsfile%"%haslyrics% -T "DISCNUMBER=%cdnumber%" -T "TOTALDISCS=%totalcds%" -T "TOTALTRACKS=%numtracks%" %hascover%--picture="%coverfile%"%hascover% %source% -o %dest%


TOC of the extracted CD

Track | Start | Length | Start sector | End sector
---------------------------------------------------------
1 | 0:00.00 | 5:10.31 | 0 | 23280
2 | 5:10.31 | 4:39.23 | 23281 | 44228
3 | 9:49.54 | 3:39.53 | 44229 | 60706
4 | 13:29.32 | 1:29.57 | 60707 | 67438
5 | 14:59.14 | 3:27.12 | 67439 | 82975
6 | 18:26.26 | 3:57.44 | 82976 | 100794
7 | 22:23.70 | 4:02.19 | 100795 | 118963
8 | 26:26.14 | 4:49.17 | 118964 | 140655
9 | 31:15.31 | 6:32.64 | 140656 | 170119
10 | 37:48.20 | 4:13.28 | 170120 | 189122
11 | 42:01.48 | 5:22.13 | 189123 | 213285
12 | 47:23.61 | 2:58.05 | 213286 | 226640
13 | 50:21.66 | 0:18.32 | 226641 | 228022
14 | 50:40.23 | 5:49.07 | 228023 | 254204
15 | 56:29.30 | 4:53.61 | 254205 | 276240
16 | 61:23.16 | 3:06.03 | 276241 | 290193
17 | 64:29.19 | 3:54.57 | 290194 | 307800
18 | 68:24.01 | 4:02.16 | 307801 | 325966
19 | 72:26.17 | 0:31.63 | 325967 | 328354


Range status and errors

Selected range

Filename D:\Музыка\Lossless\Hammerhawk - The Future (Written In The Past)(1999)(Compilation)\Hammerhawk - The Future (Written In The Past)(Compilation).wav

Peak level 100.0 %
Extraction speed 6.5 X
Range quality 99.9 %
Copy CRC 1B080410
Copy OK

No errors occurred


AccurateRip summary

Track 1 not present in database
Track 2 not present in database
Track 3 not present in database
Track 4 not present in database
Track 5 not present in database
Track 6 not present in database
Track 7 not present in database
Track 8 not present in database
Track 9 not present in database
Track 10 not present in database
Track 11 not present in database
Track 12 not present in database
Track 13 not present in database
Track 14 not present in database
Track 15 not present in database
Track 16 not present in database
Track 17 not present in database
Track 18 not present in database
Track 19 not present in database

None of the tracks are present in the AccurateRip database

End of status report

---- CUETools DB Plugin V2.1.6

[CTDB TOCID: dOovTvP_86PsUJvDv0EEXQXJqlM-] database access error: Невозможно разрешить удаленное имя: 'db.cuetools.net'

CUE
REM GENRE "Speed Metal"
REM DATE 1999
REM DISCID 02111A13
REM COMMENT "ExactAudioCopy v1.3"
PERFORMER "Hammerhawk"
TITLE "The Future (Written In The Past)(Compilation)"
REM COMPOSER ""
FILE "Hammerhawk - The Future (Written In The Past)(Compilation).flac" WAVE
TRACK 01 AUDIO
TITLE "Fuck To Kill"
PERFORMER "Hammerhawk"
REM COMPOSER ""
INDEX 01 00:00:00
TRACK 02 AUDIO
TITLE "Sickminded"
PERFORMER "Hammerhawk"
REM COMPOSER ""
INDEX 00 05:07:61
INDEX 01 05:10:31
TRACK 03 AUDIO
TITLE "God Of Thunder (Kiss Cover)"
PERFORMER "Hammerhawk"
REM COMPOSER ""
INDEX 00 09:47:09
INDEX 01 09:49:54
TRACK 04 AUDIO
TITLE "AIDS 1"
PERFORMER "Hammerhawk"
REM COMPOSER ""
INDEX 00 13:26:62
INDEX 01 13:29:32
TRACK 05 AUDIO
TITLE "H.M.F."
PERFORMER "Hammerhawk"
REM COMPOSER ""
INDEX 00 14:56:44
INDEX 01 14:59:14
TRACK 06 AUDIO
TITLE "Hot Human Chilli"
PERFORMER "Hammerhawk"
REM COMPOSER ""
INDEX 00 18:23:56
INDEX 01 18:26:26
TRACK 07 AUDIO
TITLE "Let Me Go"
PERFORMER "Hammerhawk"
REM COMPOSER ""
INDEX 00 22:21:25
INDEX 01 22:23:70
TRACK 08 AUDIO
TITLE "Little Mean Killing Machine"
PERFORMER "Hammerhawk"
REM COMPOSER ""
INDEX 00 26:23:44
INDEX 01 26:26:14
TRACK 09 AUDIO
TITLE "Viscious Execution"
PERFORMER "Hammerhawk"
REM COMPOSER ""
INDEX 00 31:12:61
INDEX 01 31:15:31
TRACK 10 AUDIO
TITLE "Raping The Future"
PERFORMER "Hammerhawk"
REM COMPOSER ""
INDEX 00 37:45:50
INDEX 01 37:48:20
TRACK 11 AUDIO
TITLE "Blow Up Doll"
PERFORMER "Hammerhawk"
REM COMPOSER ""
INDEX 00 41:59:03
INDEX 01 42:01:48
TRACK 12 AUDIO
TITLE "Deep Sea Tragedy"
PERFORMER "Hammerhawk"
REM COMPOSER ""
INDEX 00 47:21:16
INDEX 01 47:23:61
TRACK 13 AUDIO
TITLE "AIDS 2"
PERFORMER "Hammerhawk"
REM COMPOSER ""
INDEX 00 50:19:21
INDEX 01 50:21:66
TRACK 14 AUDIO
TITLE "Discovery"
PERFORMER "Hammerhawk"
REM COMPOSER ""
INDEX 00 50:37:53
INDEX 01 50:40:23
TRACK 15 AUDIO
TITLE "All Of The Days"
PERFORMER "Hammerhawk"
REM COMPOSER ""
INDEX 00 56:26:60
INDEX 01 56:29:30
TRACK 16 AUDIO
TITLE "Dead Or Alive"
PERFORMER "Hammerhawk"
REM COMPOSER ""
INDEX 00 61:20:46
INDEX 01 61:23:16
TRACK 17 AUDIO
TITLE "Killer"
PERFORMER "Hammerhawk"
REM COMPOSER ""
INDEX 00 64:26:49
INDEX 01 64:29:19
TRACK 18 AUDIO
TITLE "Hammerhawk"
PERFORMER "Hammerhawk"
REM COMPOSER ""
INDEX 00 68:21:31
INDEX 01 68:24:01
TRACK 19 AUDIO
TITLE "To Be Continued"
PERFORMER "Hammerhawk"
REM COMPOSER ""
INDEX 00 72:23:47
INDEX 01 72:26:17


Yadi


Top
 Profile E-mail  
 
Display posts from previous:  Sort by  
Post new topic Reply to topic  [ 50 posts ]  Go to page Previous  1, 2, 3

All times are UTC + 3 hours


Who is online

Users browsing this forum: No registered users and 4 guests


You cannot post new topics in this forum
You cannot reply to topics in this forum
You cannot edit your posts in this forum
You cannot delete your posts in this forum
You cannot post attachments in this forum

Search for:
Яндекс.Метрика
Powered by phpBB © 2000, 2002, 2005, 2007 phpBB Group