\m/ 80's metal \m/

Информационно-аналитический форум "80 см пыли" (In Search We Trust) "У нас никто никуда не спешит"
Me For You - http://me-4u.com
It is currently 11 Dec 2018

All times are UTC + 3 hours

Spoiler
Chat - temporary registration for foreign users (please leave your application here)







Post new topic Reply to topic  [ 31 posts ]  Go to page Previous  1, 2
Author Message
 
PostPosted: 09 Jun 2009 
Персональный статус
User avatar
Joined: 27 Nov 2008
Posts: 429
Age: 29
Name: Сергей
Scatterbrain
Блин партизан. :pardon:


Top
 Profile  
 
 
PostPosted: 10 Jan 2010 
Metal Hammer collector
User avatar
Joined: 14 Jan 2009
Posts: 1418
Lоcаtion: Крым. Россия
Age: 48
Name: Сергей
Hittman - Metal Sports (demo) 1985

1. Hittman Theme 01:50
2. Metal Sports 03:58
3. Sleepless Nights 03:57
4. Live For Tomorrow 04:21
5. Winds Of Warning 06:48

Line-up :

Vocals : Dirk Kennedy
Guitars : Jim Bachi
Bass : Mike Buccell
Drums : Chuck Kory
Image
http://ifolder.ru/15866635 (320)

_________________
Heavy Metal


Top
 Profile  
 
 
PostPosted: 16 Aug 2015 
Хиппей (support team)
User avatar
Joined: 30 Jul 2007
Posts: 108811
Lоcаtion: Киев (Kyiv, UA)
Age: 45
Name: Andrey
Hittman - 1993 - Vivas Machina [320]

Image Image Image


mirror: iFolder l Narod l M-Cloud

Уже немного не тот стиль, но всё равно музыка очень заводная :dance:

Image Image Image Image

Image Image Image Image

_________________


Top
 Profile E-mail  
 
 
PostPosted: 16 Aug 2015 
Я набрал 1000 сообщений!
Joined: 21 Nov 2009
Posts: 1400
Lоcаtion: praga
Age: 48
Name: Сергей
А лосика с 93 можно закинуть?


Top
 Profile E-mail  
 
 
PostPosted: 16 Aug 2015 
Хиппей (support team)
User avatar
Joined: 30 Jul 2007
Posts: 108811
Lоcаtion: Киев (Kyiv, UA)
Age: 45
Name: Andrey
А можно :dance:
Я даже и не искал. Хотя пережатка в мп3 то с него как раз.
зы. Ой, Серёг, мож и все в лосях есть? А то у нас в "Бухте" немного похерились ссылки.

_________________


Top
 Profile E-mail  
 
 
PostPosted: 16 Aug 2015 
Прокъмитолист
User avatar
Joined: 12 Aug 2007
Posts: 6512
Lоcаtion: Санктъ-Петербуркъ
Age: 51
Name: Олекъ
лосика закину, не вопрос (найду тока). судя по картинкам, сканы как раз из моего релиза.

_________________
прокъметол - это музыко, от которово есть прок (ы)


Top
 Profile  
 
 
PostPosted: 16 Aug 2015 
Прокъмитолист
User avatar
Joined: 12 Aug 2007
Posts: 6512
Lоcаtion: Санктъ-Петербуркъ
Age: 51
Name: Олекъ
забирайте :dance:

Hittman [1993] Vivas Machina

_________________
прокъметол - это музыко, от которово есть прок (ы)


Top
 Profile  
 
 
PostPosted: 16 Aug 2015 
Хиппей (support team)
User avatar
Joined: 30 Jul 2007
Posts: 108811
Lоcаtion: Киев (Kyiv, UA)
Age: 45
Name: Andrey
:thanx: Олеж :lob: :lob: :lob:

_________________


Top
 Profile E-mail  
 
 
PostPosted: 16 Aug 2015 
Я набрал 1000 сообщений!
Joined: 21 Nov 2009
Posts: 1400
Lоcаtion: praga
Age: 48
Name: Сергей
:thanx:


Top
 Profile E-mail  
 
 
PostPosted: 16 Aug 2015 
Хиппей (support team)
User avatar
Joined: 30 Jul 2007
Posts: 108811
Lоcаtion: Киев (Kyiv, UA)
Age: 45
Name: Andrey
Hittman [1993] [CD] Vivas Machina [EAC-FLAC] by spiralarch [MeTaLMaDNeSS.TeaM].rar


Image Image Image


mirror: iFolder l Narod l M-Cloud

Image Image Image Image

Image Image Image Image

log
Exact Audio Copy V1.0 beta 1 from 15. November 2010

EAC extraction logfile from 21. June 2011, 19:09

Hittman / Vivas Machina

Used drive : Optiarc DVD RW AD-7240S Adapter: 2 ID: 0

Read mode : Secure
Utilize accurate stream : Yes
Defeat audio cache : Yes
Make use of C2 pointers : No

Read offset correction : 48
Overread into Lead-In and Lead-Out : No
Fill up missing offset samples with silence : Yes
Delete leading and trailing silent blocks : No
Null samples used in CRC calculations : Yes
Used interface : Native Win32 interface for Win NT & 2000

Used output format : Internal WAV Routines
Sample format : 44.100 Hz; 16 Bit; Stereo


TOC of the extracted CD

Track | Start | Length | Start sector | End sector
---------------------------------------------------------
1 | 0:00.33 | 4:58.25 | 33 | 22407
2 | 4:58.58 | 4:01.20 | 22408 | 40502
3 | 9:00.03 | 3:34.00 | 40503 | 56552
4 | 12:34.03 | 3:41.60 | 56553 | 73187
5 | 16:15.63 | 3:30.47 | 73188 | 88984
6 | 19:46.35 | 6:19.25 | 88985 | 117434
7 | 26:05.60 | 3:59.53 | 117435 | 135412
8 | 30:05.38 | 5:09.55 | 135413 | 158642
9 | 35:15.18 | 5:20.60 | 158643 | 182702
10 | 40:36.03 | 3:51.60 | 182703 | 200087
11 | 44:27.63 | 8:22.65 | 200088 | 237802


Range status and errors

Selected range

Filename D:\spiralarch\Hittman - Vivas Machina.wav

Peak level 100.0 %
Extraction speed 0.6 X
Range quality 100.0 %
Copy CRC 2AD4D2DE
Copy OK

No errors occurred


AccurateRip summary

Track 1 accurately ripped (confidence 2) [8BE9308C]
Track 2 accurately ripped (confidence 2) [5A5666FE]
Track 3 accurately ripped (confidence 2) [988CFC56]
Track 4 accurately ripped (confidence 2) [3C8ABFA7]
Track 5 accurately ripped (confidence 2) [AD2898AD]
Track 6 accurately ripped (confidence 2) [5F9B5CBF]
Track 7 accurately ripped (confidence 2) [989B53DA]
Track 8 accurately ripped (confidence 2) [73554D54]
Track 9 accurately ripped (confidence 2) [F344F843]
Track 10 accurately ripped (confidence 2) [42848CE6]
Track 11 accurately ripped (confidence 2) [6CA08B98]

All tracks accurately ripped

End of status report

==== Log checksum 0EC266C9EF9E0411ECFAD3B80F6F8E5A99CBFCE09A1ACE062500163A8A461643 ====

cue
REM GENRE "Heavy Metal"
REM DATE 1993
REM DISCID A10C620B
REM COMMENT "ExactAudioCopy v1.0b1"
PERFORMER "Hittman"
TITLE "Vivas Machina"
FILE "Hittman - Vivas Machina.flac" WAVE
TRACK 01 AUDIO
TITLE "Radio Waves"
PERFORMER "Hittman"
INDEX 00 00:00:00
INDEX 01 00:00:33
TRACK 02 AUDIO
TITLE "Listen"
PERFORMER "Hittman"
INDEX 01 04:58:58
TRACK 03 AUDIO
TITLE "Say A Prayer For Me"
PERFORMER "Hittman"
INDEX 00 08:58:28
INDEX 01 09:00:03
TRACK 04 AUDIO
TITLE "Words"
PERFORMER "Hittman"
INDEX 00 12:32:38
INDEX 01 12:34:03
TRACK 05 AUDIO
TITLE "If You Can't Dance To It"
PERFORMER "Hittman"
INDEX 00 16:13:55
INDEX 01 16:15:63
TRACK 06 AUDIO
TITLE "Answer My Prayer"
PERFORMER "Hittman"
INDEX 00 19:45:53
INDEX 01 19:46:35
TRACK 07 AUDIO
TITLE "Partners In Crime"
PERFORMER "Hittman"
INDEX 00 26:04:35
INDEX 01 26:05:60
TRACK 08 AUDIO
TITLE "Renegade Man"
PERFORMER "Hittman"
INDEX 00 30:04:65
INDEX 01 30:05:38
TRACK 09 AUDIO
TITLE "Ballad Of Jackson Heights"
PERFORMER "Hittman"
INDEX 00 35:14:48
INDEX 01 35:15:18
TRACK 10 AUDIO
TITLE "Walk That Walk"
PERFORMER "Hittman"
INDEX 00 40:35:58
INDEX 01 40:36:03
TRACK 11 AUDIO
TITLE "Mercy"
PERFORMER "Hittman"
INDEX 00 44:26:55
INDEX 01 44:27:63

_________________


Top
 Profile E-mail  
 
 
PostPosted: 17 Aug 2015 
А может смените мне статус?..
User avatar
Joined: 24 Dec 2008
Posts: 622
Age: 44
Name: Дмитрий
Спасибо! :thanx:


Top
 Profile  
 
Display posts from previous:  Sort by  
Post new topic Reply to topic  [ 31 posts ]  Go to page Previous  1, 2

All times are UTC + 3 hours


Who is online

Users browsing this forum: No registered users and 1 guest


You cannot post new topics in this forum
You cannot reply to topics in this forum
You cannot edit your posts in this forum
You cannot delete your posts in this forum
You cannot post attachments in this forum

Search for:
Яндекс.Метрика
Powered by phpBB © 2000, 2002, 2005, 2007 phpBB Group