\m/ 80's metal \m/

Информационно-аналитический форум "80 см пыли" (In Search We Trust) "У нас никто никуда не спешит"
Me For You - http://me-4u.com
It is currently 12 Nov 2018

All times are UTC + 3 hours

Spoiler
Chat - temporary registration for foreign users (please leave your application here)







Post new topic Reply to topic  [ 15 posts ] 
Author Message
 
PostPosted: 18 Jul 2014 
Partisanen - nicht kapitulieren!!
User avatar
Joined: 25 Dec 2011
Posts: 6755
Lоcаtion: партизанские леса
Age: 46
Name: Владимир
Headquakes 2008 - Headquakes
MA
Image
01. Nexus VI 01:16
02. Sons of Tyrell 03:37
03. Merchant of Souls 04:44
04. A Ziggy's Fault 05:11
05. Lights of Siam 04:35
06. The Curse 03:16
07. Madhatters 04:21
08. Ways 03:50
09. Help! 03:23
10. Mistrak 01:23

11. Winter's Hunter 05:31
TPT 41:07

в прЫнципе - можно обойтись только выделенными треками, битрейт - от 128 и тд...

_________________
One more beer and Heavy Metal and I'm just fine!
старовер, куле... слово "блин" - до сих пор через Ъ говорю


Last edited by 32warlord1 on 18 Jul 2014, edited 1 time in total.

Top
 Profile E-mail  
 
 
PostPosted: 18 Jul 2014 
Хиппей (support team)
User avatar
Joined: 30 Jul 2007
Posts: 107881
Lоcаtion: Киев (Kyiv, UA)
Age: 45
Name: Andrey
Минус "Зигги" https://myspace.com/headquakes/music/al ... es-4718017
https://www.youtube.com/watch?v=CfELq5CCUsk (live)

_________________


Top
 Profile E-mail  
 
 
PostPosted: 18 Jul 2014 
Хиппей (support team)
User avatar
Joined: 30 Jul 2007
Posts: 107881
Lоcаtion: Киев (Kyiv, UA)
Age: 45
Name: Andrey
Ну и Володя первые две демки поскромничал ссылкой тыкнуть http://rutracker.org/forum/viewtopic.php?t=3974750

Полный альбом от 11 года там же ищем, а вот дебютника нигде и не было, по ходу :vic:

_________________


Top
 Profile E-mail  
 
 
PostPosted: 18 Jul 2014 
Partisanen - nicht kapitulieren!!
User avatar
Joined: 25 Dec 2011
Posts: 6755
Lоcаtion: партизанские леса
Age: 46
Name: Владимир
Scatterbrain wrote:
Минус "Зигги"

:thanx: вычоркиваю
вроде смотрел на MS, чойта както пропустил...

Scatterbrain wrote:
Ну и Володя первые две демки поскромничал ссылкой тыкнуть http://rutracker.org/forum/viewtopic.php?t=3974750

чиво? :crazy: какие две?
я ж потому и написал, что выделенных хватит - остальные в демке есть :vic:

_________________
One more beer and Heavy Metal and I'm just fine!
старовер, куле... слово "блин" - до сих пор через Ъ говорю


Top
 Profile E-mail  
 
 
PostPosted: 18 Jul 2014 
Хиппей (support team)
User avatar
Joined: 30 Jul 2007
Posts: 107881
Lоcаtion: Киев (Kyiv, UA)
Age: 45
Name: Andrey
32warlord1 wrote:
какие две?

Пардон, смотрел жёпой. Одна дЭмка :vic:
Ну и полный альбом. В лосе он там в другом разделе пыль создаёт :lloo:

_________________


Top
 Profile E-mail  
 
 
PostPosted: 18 Jul 2014 
спирт 100%
User avatar
Joined: 22 Sep 2008
Posts: 4312
Age: 47
Name: Саня
Headquakes - Headquakes - 2008 [192]

Image

1. Nexus VI 01:16
2. Sons of Tyrell 03:37
3. Merchant of Souls 04:44
4. A Ziggy's Fault 05:11
5. Lights of Siam 04:35
6. The Curse 03:16
7. Madhatters 04:21
8. Ways 03:50
9. Help! 03:23
10. Mistrak 01:23
11. Winter's Hunter


Top
 Profile  
 
 
PostPosted: 18 Jul 2014 
Хиппей (support team)
User avatar
Joined: 30 Jul 2007
Posts: 107881
Lоcаtion: Киев (Kyiv, UA)
Age: 45
Name: Andrey
Ой, красота какая, Сань, спасибо :thanx: :true:

mirror: Narod l M-Cloud

_________________


Top
 Profile E-mail  
 
 
PostPosted: 18 Jul 2014 
Partisanen - nicht kapitulieren!!
User avatar
Joined: 25 Dec 2011
Posts: 6755
Lоcаtion: партизанские леса
Age: 46
Name: Владимир
йошкен кот... внезапно!
премного благодарен!! :thanx:

_________________
One more beer and Heavy Metal and I'm just fine!
старовер, куле... слово "блин" - до сих пор через Ъ говорю


Top
 Profile E-mail  
 
 
PostPosted: 18 Jul 2014 
Partisanen - nicht kapitulieren!!
User avatar
Joined: 25 Dec 2011
Posts: 6755
Lоcаtion: партизанские леса
Age: 46
Name: Владимир
зеркало
Image

_________________
One more beer and Heavy Metal and I'm just fine!
старовер, куле... слово "блин" - до сих пор через Ъ говорю


Top
 Profile E-mail  
 
 
PostPosted: 18 Jul 2014 
Хиппей (support team)
User avatar
Joined: 30 Jul 2007
Posts: 107881
Lоcаtion: Киев (Kyiv, UA)
Age: 45
Name: Andrey
зеркало
Image


Гляжу на эти два слова, и понимаю, что на украинском они здесь явно будут звучать не в тему и весьма забавно - люстерко (люстэрко) и хмарка :crazy:
Почти как... Кржемелек и Вахмурка.

Не обращайте особого внимания, это я шалю :pardon:

_________________


Top
 Profile E-mail  
 
 
PostPosted: 19 Jul 2014 
Работнечег
User avatar
Joined: 28 Aug 2007
Posts: 5493
Lоcаtion: г. Москва
Age: 29
Name: Дима
зеркало
Image


Гляжу на эти два слова, и понимаю, что на украинском они здесь явно будут звучать не в тему и весьма забавно - люстерко (люстэрко) и хмарка :crazy:
Почти как... Кржемелек и Вахмурка.

Не обращайте особого внимания, это я шалю :pardon:

Хах, забавно, да здравствует люстерко :true: :crazy:


Top
 Profile E-mail  
 
 
PostPosted: 06 Sep 2015 
Хиппей (support team)
User avatar
Joined: 30 Jul 2007
Posts: 107881
Lоcаtion: Киев (Kyiv, UA)
Age: 45
Name: Andrey
Модный павер для Егора.
Для меня же противная попытка скопировать Раге :yyy:

HEADQUAKES [2011] [CD] Fallout Diaries [EAC-WV] by FireSnake [MeTaLMaDNeSS.TeaM]

Image Image Image

mirror: iFolder l Narod l M-Cloud

Image Image Image Image

Image Image Image Image

Понравился финальный трэк. С акцентом который диким :dance:

log
Exact Audio Copy V0.99 prebeta 5 from 4. May 2009

EAC extraction logfile from 4. March 2012, 1:16

Headquakes / Fallout Diaries

Used drive : Optiarc DVD RW AD-7260S Adapter: 3 ID: 0

Read mode : Secure
Utilize accurate stream : Yes
Defeat audio cache : Yes
Make use of C2 pointers : No

Read offset correction : 48
Overread into Lead-In and Lead-Out : No
Fill up missing offset samples with silence : Yes
Delete leading and trailing silent blocks : No
Null samples used in CRC calculations : Yes
Used interface : Installed external ASPI interface

Used output format : User Defined Encoder
Selected bitrate : 1024 kBit/s
Quality : High
Add ID3 tag : No
Command line compressor : D:\Program Files\Exact Audio Copy\WavPack\wavpack.exe
Additional command line options : -hhx6 -w "Artist=%a" -w "Album=%g" -w "Year=%y" -w "Genre=%m" -w "Cuesheet=@*.cue" %s %d


TOC of the extracted CD

Track | Start | Length | Start sector | End sector
---------------------------------------------------------
1 | 0:00.00 | 2:11.11 | 0 | 9835
2 | 2:11.11 | 3:51.04 | 9836 | 27164
3 | 6:02.15 | 3:47.46 | 27165 | 44235
4 | 9:49.61 | 4:02.19 | 44236 | 62404
5 | 13:52.05 | 5:16.41 | 62405 | 86145
6 | 19:08.46 | 6:50.53 | 86146 | 116948
7 | 25:59.24 | 4:16.29 | 116949 | 136177
8 | 30:15.53 | 5:52.44 | 136178 | 162621
9 | 36:08.22 | 6:01.28 | 162622 | 189724


Range status and errors

Selected range

Filename H:\HEADQUAKES [2011] [CD] Fallout Diaries [EAC-WV]\Headquakes - Fallout Diaries.wav

Peak level 99.3 %
Range quality 99.9 %
Test CRC F8E1F9AE
Copy CRC F8E1F9AE
Copy OK

No errors occurred


AccurateRip summary

Track 1 not present in database
Track 2 not present in database
Track 3 not present in database
Track 4 not present in database
Track 5 not present in database
Track 6 not present in database
Track 7 not present in database
Track 8 not present in database
Track 9 not present in database

None of the tracks are present in the AccurateRip database

End of status report

cue
REM GENRE "Heavy Metal"
REM DATE 2011
REM DISCID 6309E109
REM COMMENT "ExactAudioCopy v0.99pb5"
PERFORMER "Headquakes"
TITLE "Fallout Diaries"
FILE "Headquakes - Fallout Diaries.wv" WAVE
TRACK 01 AUDIO
TITLE "Vacuum"
PERFORMER "Headquakes"
INDEX 01 00:00:00
TRACK 02 AUDIO
TITLE "Come With Me (...If You Wanna Live)"
PERFORMER "Headquakes"
INDEX 01 02:11:11
TRACK 03 AUDIO
TITLE "Fallout"
PERFORMER "Headquakes"
INDEX 01 06:02:15
TRACK 04 AUDIO
TITLE "Just Eyes"
PERFORMER "Headquakes"
INDEX 00 09:47:61
INDEX 01 09:49:61
TRACK 05 AUDIO
TITLE "Pray Anymore"
PERFORMER "Headquakes"
INDEX 00 13:50:05
INDEX 01 13:52:05
TRACK 06 AUDIO
TITLE "Prophet Of The Century"
PERFORMER "Headquakes"
INDEX 00 19:06:46
INDEX 01 19:08:46
TRACK 07 AUDIO
TITLE "Left Undone"
PERFORMER "Headquakes"
INDEX 00 25:57:24
INDEX 01 25:59:24
TRACK 08 AUDIO
TITLE "Letters From Sector Alpha"
PERFORMER "Headquakes"
INDEX 00 30:13:53
INDEX 01 30:15:53
TRACK 09 AUDIO
TITLE "Gemini Scream"
PERFORMER "Headquakes"
INDEX 00 36:08:06
INDEX 01 36:08:22

_________________


Top
 Profile E-mail  
 
 
PostPosted: 06 Sep 2015 
Хиппей (support team)
User avatar
Joined: 30 Jul 2007
Posts: 107881
Lоcаtion: Киев (Kyiv, UA)
Age: 45
Name: Andrey
spryt777 wrote:
Headquakes - Headquakes - 2008

Такая же хрень оказалась. Но ещё без обилия симфонизмов. Очередной клон группы Rage, етить.
Хотя, да, всё сыграно качественно и хитовенько :dance: Но звучок еще фуфло.

_________________


Top
 Profile E-mail  
 
 
PostPosted: 20 Sep 2015 
Power Metal Maniac
User avatar
Joined: 09 Aug 2008
Posts: 6341
Lоcаtion: Москва
Age: 40
Name: Егор
:thanx:

_________________
Long Live Metal!


Top
 Profile  
 
 
PostPosted: 21 Sep 2015 
Рарник и трушник
User avatar
Joined: 25 Dec 2009
Posts: 8370
Lоcаtion: Москва
Age: 53
Name: Виталий
Повера должно быть много!!!
Андроныч, ты просто в 90-х никада не испытывал ЖАЖДУ!!! А я испытывал, и знаю, что это такое... ;) :benya:


Top
 Profile  
 
Display posts from previous:  Sort by  
Post new topic Reply to topic  [ 15 posts ] 

All times are UTC + 3 hours


Who is online

Users browsing this forum: No registered users and 3 guests


You cannot post new topics in this forum
You cannot reply to topics in this forum
You cannot edit your posts in this forum
You cannot delete your posts in this forum
You cannot post attachments in this forum

Search for:
Яндекс.Метрика
Powered by phpBB © 2000, 2002, 2005, 2007 phpBB Group