\m/ 80's metal \m/

Информационно-аналитический форум "80 см пыли" (In Search We Trust) "У нас никто никуда не спешит"
Железнодорожная биржа - RailAgent
It is currently 24 Oct 2017

All times are UTC + 3 hours

Spoiler
Chat - temporary registration for foreign users (please leave your application here)







Post new topic Reply to topic  [ 45 posts ]  Go to page Previous  1, 2, 3  Next
Author Message
 
PostPosted: 02 Aug 2009 
Просто волшебник
User avatar
Joined: 01 Mar 2008
Posts: 1244
Name: Андрей
> Осталось найти: | Still looking:
Gobra - The First at Last (1990)


Gobra - The First at Last (1990)

Image

Tracklist
1. Mama's Little Angels
2. Cry your Eyes Out
3. Prisoners of Freedom
4. Shadow of Sadness
5. Kiss your Life Goodbye
6. Forgotten Parachute
7. Restless Soul
8. Saga of Silent Soldier
9. Far Far Away

Gobra - Third (1999)

Image

Tracklist
1. Wild Imagination
2. Tube Sight
3. Wise Wisdom
4. Missused Fears
5. Drifting
6. Shaman's Dance
7. Death Row
8. Over The Lands
9. Hot Road Metal
10. Darker Side Of Min

http://www.metal-archives.com/band.php?id=27561


Top
 Profile  
 
 
PostPosted: 11 Apr 2011 
хард н хэвщик (support team)
User avatar
Joined: 02 Jun 2008
Posts: 16879
Lоcаtion: Н.Новгород
Age: 30
Name: Артем
Gobra (Fin) - Shadow Of Sadness 7'' EP (1990) оцифрован и выложен на т-маге, спасибо Локутусу ! :true:


Top
 Profile  
 
 
PostPosted: 11 Apr 2011 
спирт 100%
User avatar
Joined: 22 Sep 2008
Posts: 4112
Age: 46
Name: Саня
:true:


Top
 Profile  
 
 
PostPosted: 08 Nov 2012 
Rara avis
User avatar
Joined: 27 Jan 2009
Posts: 3923
Name: .
Calm Under Ice CD 2012
http://gamma.nic.fi/~gobra/discography_en.htm


Top
 Profile E-mail  
 
 
PostPosted: 08 Nov 2012 
консэрваторъ
Joined: 11 Aug 2007
Posts: 13991
Lоcаtion: Псков
Age: 43
Name: Сергей
Здесь так ничего и не найдено за три года по топ-запросу... :vic:

_________________
THRASH 'EM ALL


Top
 Profile E-mail  
 
 
PostPosted: 28 Jul 2013 
Студентег
User avatar
Joined: 28 Aug 2007
Posts: 4973
Lоcаtion: г. Москва
Age: 28
Name: Дима
Image

Band: Gobra
Album: Third
Label: Flimsy Haze Records
Genre: Hard Rock, Classic Rock
Country: Finland
Format: Flac + Log + Cue + Covers/ Mp3@320 + Covers
Size: 290 Mb/ 97 Mb

Line-Up:
Reno - Drums
Uki - Guitars, Backing Vocals
Samick - Guitars
Tony - Vocals, Bass


Tracklist:
1. Wild Imagination 04:00
2. Tube Sight 03:58
3. Wise Wisdom 03:26
4. Missused Fears 03:55
5. Drifting 04:34
6. Shaman's Dance 03:25
7. Death Row 04:32
8. Over the Lands 04:16
9. Hot Road Metal 03:36
10. Darker Side of Mind 03:37

LOG
Exact Audio Copy V0.99 prebeta 5 from 4. May 2009

EAC extraction logfile from 28. July 2013, 13:21

Gobra / Third

Used drive : PIONEER DVD-RW DVR-116D Adapter: 0 ID: 0

Read mode : Secure
Utilize accurate stream : Yes
Defeat audio cache : Yes
Make use of C2 pointers : No

Read offset correction : 96
Overread into Lead-In and Lead-Out : No
Fill up missing offset samples with silence : Yes
Delete leading and trailing silent blocks : No
Null samples used in CRC calculations : Yes
Used interface : Native Win32 interface for Win NT & 2000

Used output format : User Defined Encoder
Selected bitrate : 32 kBit/s
Quality : High
Add ID3 tag : No
Command line compressor : C:\Program Files\Exact Audio Copy\Flac\flac.exe
Additional command line options : -6 -V %s


TOC of the extracted CD

Track | Start | Length | Start sector | End sector
---------------------------------------------------------
1 | 0:00.00 | 4:00.46 | 0 | 18045
2 | 4:00.46 | 4:01.21 | 18046 | 36141
3 | 8:01.67 | 3:30.48 | 36142 | 51939
4 | 11:32.40 | 3:57.52 | 51940 | 69766
5 | 15:30.17 | 4:35.36 | 69767 | 90427
6 | 20:05.53 | 3:29.41 | 90428 | 106143
7 | 23:35.19 | 4:34.21 | 106144 | 126714
8 | 28:09.40 | 4:23.16 | 126715 | 146455
9 | 32:32.56 | 3:38.21 | 146456 | 162826
10 | 36:11.02 | 3:39.15 | 162827 | 179266


Range status and errors

Selected range

Filename D:\Музыка\Lossless\Gobra - Third (1999) flac\Gobra - Third.wav

Peak level 100.0 %
Range quality 99.9 %
Copy CRC 334686FB
Copy OK

No errors occurred


AccurateRip summary

Track 1 not present in database
Track 2 not present in database
Track 3 not present in database
Track 4 not present in database
Track 5 not present in database
Track 6 not present in database
Track 7 not present in database
Track 8 not present in database
Track 9 not present in database
Track 10 not present in database

None of the tracks are present in the AccurateRip database

End of status report

CUE
REM GENRE "Heavy Metal"
REM DATE 1999
REM DISCID 8209560A
REM COMMENT "ExactAudioCopy v0.99pb5"
PERFORMER "Gobra"
TITLE "Third"
FILE "Gobra - Third.flac" WAVE
TRACK 01 AUDIO
TITLE "Wild Imagination"
PERFORMER "Gobra"
INDEX 01 00:00:00
TRACK 02 AUDIO
TITLE "Tube Sight"
PERFORMER "Gobra"
INDEX 00 03:58:46
INDEX 01 04:00:46
TRACK 03 AUDIO
TITLE "Wise Wisdom"
PERFORMER "Gobra"
INDEX 00 07:59:67
INDEX 01 08:01:67
TRACK 04 AUDIO
TITLE "Missused Fears"
PERFORMER "Gobra"
INDEX 00 11:30:40
INDEX 01 11:32:40
TRACK 05 AUDIO
TITLE "Drifting"
PERFORMER "Gobra"
INDEX 00 15:28:17
INDEX 01 15:30:17
TRACK 06 AUDIO
TITLE "Shaman's Dance"
PERFORMER "Gobra"
INDEX 00 20:03:53
INDEX 01 20:05:53
TRACK 07 AUDIO
TITLE "Death Row"
PERFORMER "Gobra"
INDEX 00 23:33:19
INDEX 01 23:35:19
TRACK 08 AUDIO
TITLE "Over The Lands"
PERFORMER "Gobra"
INDEX 00 28:07:40
INDEX 01 28:09:40
TRACK 09 AUDIO
TITLE "Hot Road Metal"
PERFORMER "Gobra"
INDEX 00 32:30:56
INDEX 01 32:32:56
TRACK 10 AUDIO
TITLE "Darker Side Of Mind"
PERFORMER "Gobra"
INDEX 00 36:09:02
INDEX 01 36:11:02


MP3@320
FLAC

За предоставленный альбом спасибо Саше spryt777! :thanx: Альбом достойный, понравился :true:


Top
 Profile E-mail  
 
 
PostPosted: 28 Jul 2013 
спирт 100%
User avatar
Joined: 22 Sep 2008
Posts: 4112
Age: 46
Name: Саня
:true: :true: :true:


Top
 Profile  
 
 
PostPosted: 30 Jul 2013 
Хиппей (support team)
User avatar
Joined: 30 Jul 2007
Posts: 94467
Lоcаtion: Киев (Kyiv, UA)
Age: 44
Name: Andrey
:thanx:

mirror: F-Bit l Narod

_________________


Top
 Profile E-mail  
 
 
PostPosted: 30 Jul 2013 
Я набрал 1000 сообщений!
Joined: 24 Oct 2009
Posts: 1734
Lоcаtion: Оренбург
Age: 54
Name: Юра
:true: :thanx:

_________________
:dash: I am happy!


Top
 Profile E-mail  
 
 
PostPosted: 07 Aug 2013 
Доктор энтомологии
User avatar
Joined: 22 Jan 2009
Posts: 8187
Lоcаtion: Даугавпилс
Age: 42
Name: Алексей
:thanx:


Top
 Profile  
 
 
PostPosted: 19 Sep 2013 
Персональный статус
User avatar
Joined: 06 Apr 2013
Posts: 466
Lоcаtion: Russia, Orel
Age: 27
Name: Сергей
кто нибудь может перезалить на народ а то ссылки умерли , вроде не плохая группа


Top
 Profile E-mail  
 
 
PostPosted: 20 Sep 2013 
Хиппей (support team)
User avatar
Joined: 30 Jul 2007
Posts: 94467
Lоcаtion: Киев (Kyiv, UA)
Age: 44
Name: Andrey
1999-й аж по двум ссылках жив, а 90-й так и торчит в запросах :pardon:

_________________


Top
 Profile E-mail  
 
 
PostPosted: 20 Sep 2013 
Персональный статус
User avatar
Joined: 06 Apr 2013
Posts: 466
Lоcаtion: Russia, Orel
Age: 27
Name: Сергей
ок все нашел, спасибо


Top
 Profile E-mail  
 
 
PostPosted: 22 Nov 2014 
Персональный статус
User avatar
Joined: 28 Mar 2013
Posts: 416
Lоcаtion: Russia (Bryansk)
Age: 24
Name: Michael
Ищу эти релизы, может кто перельёт? :oops:
Gobra (Fin) - True Tale (1992)
Gobra (Fin) - Shadow Of Sadness 7'' EP (1990)
Gobra (Fin) - Behind the Deadzone [EP] (1989)

И ещё какой пароль на медиафере,не могу скачать этот сингл Gobra (Fin) - The Tryout EP 1985 - 192kbps ? :dash:


ок все нашел, спасибо


А поделиться, если не затруднит? :cry:


Top
 Profile E-mail  
 
 
PostPosted: 02 Dec 2014 
Персональный статус
User avatar
Joined: 28 Mar 2013
Posts: 416
Lоcаtion: Russia (Bryansk)
Age: 24
Name: Michael
Gobra (Fin) - The Tryout EP 1985 - 192kbps

Image

Image


A. - The Tryout
B. - Paid to kill

http://www.mediafire.com/?ol620ma8kezcco7



Пароль правда никто не знает? :umnik:


Top
 Profile E-mail  
 
 
PostPosted: 02 Dec 2014 
спирт 100%
User avatar
Joined: 22 Sep 2008
Posts: 4112
Age: 46
Name: Саня
www.thrashmageddon.com


Top
 Profile  
 
 
PostPosted: 03 Dec 2014 
Персональный статус
User avatar
Joined: 28 Mar 2013
Posts: 416
Lоcаtion: Russia (Bryansk)
Age: 24
Name: Michael
Да в том то и дело, что ничего не подходит. Все известные пароли перепробовал :dash:

Image


Может я что-то не так делаю, перезалейте пожалуйста хотя бы этот сингл, у кого получается скачать :umnik:


Top
 Profile E-mail  
 
 
PostPosted: 03 Dec 2014 
спирт 100%
User avatar
Joined: 22 Sep 2008
Posts: 4112
Age: 46
Name: Саня
Gobra (Fin) - The Tryout EP 1985 [192]


Top
 Profile  
 
 
PostPosted: 03 Dec 2014 
Персональный статус
User avatar
Joined: 28 Mar 2013
Posts: 416
Lоcаtion: Russia (Bryansk)
Age: 24
Name: Michael
:thanx:


Top
 Profile E-mail  
 
 
PostPosted: 06 Dec 2014 
Студентег
User avatar
Joined: 28 Aug 2007
Posts: 4973
Lоcаtion: г. Москва
Age: 28
Name: Дима
Gobra - Behind The Deadzone EP (1989) 192 kbps


Top
 Profile E-mail  
 
 
PostPosted: 06 Dec 2014 
Доктор энтомологии
User avatar
Joined: 22 Jan 2009
Posts: 8187
Lоcаtion: Даугавпилс
Age: 42
Name: Алексей
:thanx:


Top
 Profile  
 
Display posts from previous:  Sort by  
Post new topic Reply to topic  [ 45 posts ]  Go to page Previous  1, 2, 3  Next

All times are UTC + 3 hours


Who is online

Users browsing this forum: No registered users and 1 guest


You cannot post new topics in this forum
You cannot reply to topics in this forum
You cannot edit your posts in this forum
You cannot delete your posts in this forum
You cannot post attachments in this forum

Search for:
Яндекс.Метрика
Powered by phpBB © 2000, 2002, 2005, 2007 phpBB Group