\m/ 80's metal \m/

Информационно-аналитический форум "80 см пыли" (In Search We Trust) "У нас никто никуда не спешит"
Me For You - http://me-4u.com
It is currently 16 Oct 2018

All times are UTC + 3 hours

Spoiler
Chat - temporary registration for foreign users (please leave your application here)







Post new topic Reply to topic  [ 36 posts ]  Go to page 1, 2  Next
Author Message
 
PostPosted: 28 Oct 2008 
Просто волшебник
User avatar
Joined: 01 Mar 2008
Posts: 1244
Name: Андрей
Ищу DNA (Cze)

Nomadam EP, 2005
Cesta stínu Full-length, 2006
Zvonobití Full-length, 2008



Удалось найти только Ve jménu Boha Full-length, 2003 и то всего лишь 128Kbs


Top
 Profile  
 
 
PostPosted: 29 Oct 2008 
хард н хэвщик (support team)
User avatar
Joined: 02 Jun 2008
Posts: 16880
Lоcаtion: Н.Новгород
Age: 31
Name: Артем
нашел страничку, но оф.сайт уже удален.. :fingal:
http://rockmag.cz/kapely/d.n.a./mp3/


Top
 Profile  
 
 
PostPosted: 29 Oct 2008 
хард н хэвщик (support team)
User avatar
Joined: 02 Jun 2008
Posts: 16880
Lоcаtion: Н.Новгород
Age: 31
Name: Артем
в общем, пока только куча ревьюшек на все их альбомы на чешских сайтов. ищем дальше...... :razz:


Top
 Profile  
 
 
PostPosted: 29 Oct 2008 
хард н хэвщик (support team)
User avatar
Joined: 02 Jun 2008
Posts: 16880
Lоcаtion: Н.Новгород
Age: 31
Name: Артем
вот тут кое-что:
http://dna.mp3-zdarma-stazeni.cz/
http://free-mp3.cz/katalog/d/146-d-n-a/index.html
http://www.freemusic.cz/dna/kapela_mp3.html


Top
 Profile  
 
 
PostPosted: 29 Oct 2008 
хард н хэвщик (support team)
User avatar
Joined: 02 Jun 2008
Posts: 16880
Lоcаtion: Н.Новгород
Age: 31
Name: Артем
нашел человека, у которого на дисках были два последних альбома, но он не захотел делать копии и предложил купить диски в магазине :crazy:


Top
 Profile  
 
 
PostPosted: 29 Oct 2008 
Хиппей (support team)
User avatar
Joined: 30 Jul 2007
Posts: 106917
Lоcаtion: Киев (Kyiv, UA)
Age: 45
Name: Andrey
Не, это неправильный человек :fingal:


Top
 Profile E-mail  
 
 
PostPosted: 29 Oct 2008 
хард н хэвщик (support team)
User avatar
Joined: 02 Jun 2008
Posts: 16880
Lоcаtion: Н.Новгород
Age: 31
Name: Артем
ну.......... с какой стороны посмотреть. может надо было ему на обмен предложить че нибудь? :crazy: он признался, что наша Ария ему по вкусу...


Top
 Profile  
 
 
PostPosted: 29 Oct 2008 
хард н хэвщик (support team)
User avatar
Joined: 02 Jun 2008
Posts: 16880
Lоcаtion: Н.Новгород
Age: 31
Name: Артем
кстати , могу контакты его дать. мож кто уломает его на эмпэтришки :pardon:


Top
 Profile  
 
 
PostPosted: 29 Oct 2008 
Хиппей (support team)
User avatar
Joined: 30 Jul 2007
Posts: 106917
Lоcаtion: Киев (Kyiv, UA)
Age: 45
Name: Andrey
McKagan wrote:
он признался, что наша Ария ему по вкусу...

Опа. Всё, вечером Кирюху подключим :true:
Сбрось пока в аську координаты этого "продажного" товарища...


Top
 Profile E-mail  
 
 
PostPosted: 29 Oct 2008 
дядя Миша
User avatar
Joined: 17 Oct 2008
Posts: 3060
Lоcаtion: USSR
Age: 56
Name: Khy
Quote:
нашел человека, у которого на дисках были два последних альбома, но он не захотел делать копии и предложил купить диски в магазине


совсем оборзели , как можно потратиться на диск?


Top
 Profile  
 
 
PostPosted: 09 Jan 2010 
хард н хэвщик (support team)
User avatar
Joined: 02 Jun 2008
Posts: 16880
Lоcаtion: Н.Новгород
Age: 31
Name: Артем
Rolf_63 wrote:
Zvonobití Full-length, 2008
обложки лишними не бывают :pardon:
Image Image


Top
 Profile  
 
 
PostPosted: 09 Jan 2010 
спирт 100%
User avatar
Joined: 22 Sep 2008
Posts: 4301
Age: 47
Name: Саня
Здесь, тоже кое что есть: http://www.mp345.cz/pismeno.php?pismeno=D


Top
 Profile  
 
 
PostPosted: 09 Jan 2010 
хард н хэвщик (support team)
User avatar
Joined: 02 Jun 2008
Posts: 16880
Lоcаtion: Н.Новгород
Age: 31
Name: Артем
был там, но у меня ничего не игралось :fingal:


Top
 Profile  
 
 
PostPosted: 09 Jan 2010 
спирт 100%
User avatar
Joined: 22 Sep 2008
Posts: 4301
Age: 47
Name: Саня
Image
Вот ещё картинка - D.N.A. CESTA STINU 2006
http://www.dna.dq.cz/
http://www.dna.dq.cz/index0.php?st=shop
http://bandzone.cz/dna
Немного усилий и может что то найдётся. :true:
http://www.muziker.sk/default.aspx?cont ... ;1602;vyr;


Top
 Profile  
 
 
PostPosted: 23 Oct 2014 
Rara avis
User avatar
Joined: 27 Jan 2009
Posts: 4605
Name: .
http://e-rock.ru/showthread.php?t=6607


Top
 Profile E-mail  
 
 
PostPosted: 23 Oct 2014 
Хиппей (support team)
User avatar
Joined: 30 Jul 2007
Posts: 106917
Lоcаtion: Киев (Kyiv, UA)
Age: 45
Name: Andrey
:thanx: Спёрто отсюда http://oldstones.forumczech.com :thanx:


А мп3 можно отсюда http://www.dna.dq.cz/index.php?st=produkty забрать :dance:

_________________


Top
 Profile E-mail  
 
 
PostPosted: 23 Oct 2014 
Хиппей (support team)
User avatar
Joined: 30 Jul 2007
Posts: 106917
Lоcаtion: Киев (Kyiv, UA)
Age: 45
Name: Andrey
D.N.A. - 2005 - Nomadam (EP) [ape]

Image Image Image
Image Image

mirror: Narod l M-Cloud

log
Exact Audio Copy V1.0 beta 2 from 29. April 2011

EAC extraction logfile from 13. June 2012, 9:31

D.N.A. / Nomadam

Used drive : TSSTcorpCDDVDW SE-S224Q Adapter: 4 ID: 0

Read mode : Secure
Utilize accurate stream : Yes
Defeat audio cache : No
Make use of C2 pointers : Yes

Read offset correction : 6
Overread into Lead-In and Lead-Out : No
Fill up missing offset samples with silence : Yes
Delete leading and trailing silent blocks : No
Null samples used in CRC calculations : Yes
Used interface : Native Win32 interface for Win NT & 2000

Used output format : Monkey's Audio Lossless Encoder
Selected bitrate : Normal Lossless Compression
Quality : High
Add ID3 tag : Yes
Command line compressor : C:\Program Files\Monkey's Audio\MAC.exe


TOC of the extracted CD

Track | Start | Length | Start sector | End sector
---------------------------------------------------------
1 | 0:00.00 | 5:44.24 | 0 | 25823
2 | 5:44.24 | 4:06.46 | 25824 | 44319
3 | 9:50.70 | 4:27.02 | 44320 | 64346
4 | 14:17.72 | 5:53.03 | 64347 | 90824
5 | 20:11.00 | 4:41.35 | 90825 | 111934


Range status and errors

Selected range

Filename C:\Users\oldrock\Desktop\D.N.A. - Nomadam.wav

Peak level 99.6 %
Extraction speed 7.9 X
Range quality 100.0 %
Copy CRC 3CC008DD
Copy OK

No errors occurred


AccurateRip summary

Track 1 not present in database
Track 2 not present in database
Track 3 not present in database
Track 4 not present in database
Track 5 not present in database

None of the tracks are present in the AccurateRip database

End of status report

cue
REM GENRE "Hard Rock"
REM DATE 2005
REM DISCID 3C05D405
REM COMMENT "ExactAudioCopy v1.0b2"
PERFORMER "D.N.A."
TITLE "Nomadam"
FILE "D.N.A. - Nomadam.ape" WAVE
TRACK 01 AUDIO
TITLE "To se stбvб"
PERFORMER "D.N.A."
ISRC 000000000000
INDEX 01 00:00:00
TRACK 02 AUDIO
TITLE "Nomadam"
PERFORMER "D.N.A."
ISRC 000000000000
INDEX 00 05:42:23
INDEX 01 05:44:24
TRACK 03 AUDIO
TITLE "Spн v rщћнch"
PERFORMER "D.N.A."
ISRC 000000000000
INDEX 00 09:48:24
INDEX 01 09:50:70
TRACK 04 AUDIO
TITLE "Hory faraonщ"
PERFORMER "D.N.A."
ISRC 000000000000
INDEX 00 14:15:73
INDEX 01 14:17:72
TRACK 05 AUDIO
TITLE "Svмt se toин dбl"
PERFORMER "D.N.A."
ISRC 000000000000
INDEX 00 20:09:03
INDEX 01 20:11:00


D.N.A. - 2006 - Cesta Stinu [ape]

mirror: Narod l M-Cloud

D.N.A. - 2008 - Zvonobiti [ape]

mirror: Narod l M-Cloud

_________________


Top
 Profile E-mail  
 
 
PostPosted: 24 Oct 2014 
парень в очёчкXаX!
User avatar
Joined: 15 Aug 2007
Posts: 2353
Lоcаtion: UK'раина, г. ЛондАн Би-Би-Си
Age: 48
Name: Сергей
в отличие от тех суМОшедших, у которых полоШки забиты всякими там цыдами, кассетами, дивидишкОми и тьфу ты как его.....пластиношками винильными, у Андрушкявичуса полошки забиты тоже дисками, но чуть другими, причем стоят они у него в альфабетическом порядке, тыщи, несметные тыщи, целый легион -- и имя тому легиону --- Ха-Дэ-Дэ!!! :shok: :horro:


та я давно догадывалси, шо ты HDD-коллекционер-лосятко!!! "...ну сумошедший, что возьмешь.. ©"
:crazy:

pink floyd :true:


Top
 Profile  
 
 
PostPosted: 24 Oct 2014 
Хиппей (support team)
User avatar
Joined: 30 Jul 2007
Posts: 106917
Lоcаtion: Киев (Kyiv, UA)
Age: 45
Name: Andrey
А вот и ниугодал :crazy:

У меня серверы забиты файлами. Дома их не храню :pardon:
Зайди в любую тему, где просят залить что-то или перезалить и сразу поймешь, где я "храню" что-то из форумной музыки :lloo:

зы. Дома в шкапу тока ТРИ (ужэ) мешка каssеток и штук 12 шапок-ушанок из 90-х еще с пулями во лбу. Ну, шалили мы в троллейбусах и трамваях тогда... :oops:

Сид Вишез Баррет (с)

_________________


Top
 Profile E-mail  
 
 
PostPosted: 24 Oct 2014 
парень в очёчкXаX!
User avatar
Joined: 15 Aug 2007
Posts: 2353
Lоcаtion: UK'раина, г. ЛондАн Би-Би-Си
Age: 48
Name: Сергей

12 шапок-ушанок из 90-х еще с пулями во лбу. Ну, шалили мы в троллейбусах и трамваях тогда...

да ты страшный человек :shok: шапошник ты $$$ ............ вот :fingal:

Роджер Jolly Уотерс ©


Top
 Profile  
 
Display posts from previous:  Sort by  
Post new topic Reply to topic  [ 36 posts ]  Go to page 1, 2  Next

All times are UTC + 3 hours


Who is online

Users browsing this forum: No registered users and 3 guests


You cannot post new topics in this forum
You cannot reply to topics in this forum
You cannot edit your posts in this forum
You cannot delete your posts in this forum
You cannot post attachments in this forum

Search for:
Яндекс.Метрика
Powered by phpBB © 2000, 2002, 2005, 2007 phpBB Group