\m/ 80's metal \m/

Информационно-аналитический форум "80 см пыли" (In Search We Trust) "У нас никто никуда не спешит"
Железнодорожная биржа - RailAgent
It is currently 19 Aug 2018

All times are UTC + 3 hours

Spoiler
Chat - temporary registration for foreign users (please leave your application here)







Post new topic Reply to topic  [ 15 posts ] 
Author Message
 
PostPosted: 08 Apr 2015 
Труъ
User avatar
Joined: 28 Mar 2013
Posts: 149
Lоcаtion: Parana-Brazil
Age: 53
Name: Pedro Gabriel Lanza
Damascus [GBR, Liverpool] - Cold Horizon 2012 (Com)

Image

Band: Damascus
Album: Cold Horizon
Album type: compilation
Genre: NWOBHM
Year: 2012
Country: UK
Label: High Roller Records
Catalog ID: HRR, 192
Format: 12" vinyl (33⅓ RPM)
Limitation: 500 copies
Version desc: Limited edition (Germany)

Tracklist
1. Open Your Eyes
2. Looking For Daylight
3. Another Rainy Day
4. Midnight Train
5. Dreamer
6. Goodbye Harry
7. Something On My Mind
8. Cold Horizon
9. Women In Black

Matthias Mader: Liner notes
Mike Booth: Bass
André Tueroff: Design, Layout
Patrick W. Engel: Remastering
Bill Campion: Drums
Kevin Duncalf: Bass
Paul Ryan: Drums
Dave Bridge: Guitars
Billy Downs: Vocals

Anybody has this rare compilation in good format áudio (rip CD or Vinyl in lossless or mp3 320 kbp/s) to share for we?

These are all the details that I found to compilation. Here in my country has not to buy it. Torrent files I don't get download in my Internet server unfortunately.


Last edited by Pelu on 09 Apr 2015, edited 1 time in total.

Top
 Profile E-mail  
 
 
PostPosted: 08 Apr 2015 
Partisanen - nicht kapitulieren!!
User avatar
Joined: 25 Dec 2011
Posts: 6647
Lоcаtion: партизанские леса
Age: 45
Name: Владимир
this is what you need?

Image

_________________
One more beer and Heavy Metal and I'm just fine!
старовер, куле... слово "блин" - до сих пор через Ъ говорю


Top
 Profile E-mail  
 
 
PostPosted: 09 Apr 2015 
консэрваторъ
Joined: 11 Aug 2007
Posts: 15797
Lоcаtion: Псков
Age: 44
Name: Сергей
WTF!? :dash: Да Вы что сговорились?.. Эври морнинг по одному кривому requestу... Чесслово я скоро начну молча выкидывать такие топы на мусорку ДП..

Pelu, convincingly I ask to read the rules of making requests! viewforum.php?f=3
Quote:
It is necessary to list the following things: which album and track-list we are searching for, what quality will suit (probably you are looking for an original record or the Japanese, American/Russian reedition?), we insert the picture (to 300х300 px), we copy track-list (the edition you are searching for!). It will be useful if you point out some information about the group and quality of a required product (a size, bitrate). Before the inquiry have a forum search.php
...
If the information above is unclear for you, have a look at the following example viewtopic.php?p=35554#p35554

Опять приходится заниматься не поиском релиза, а поиском инфы, что же ищется нЪа... :dash:

_________________
THRASH 'EM ALL


Top
 Profile E-mail  
 
 
PostPosted: 09 Apr 2015 
Хиппей (support team)
User avatar
Joined: 30 Jul 2007
Posts: 105667
Lоcаtion: Киев (Kyiv, UA)
Age: 45
Name: Andrey
http://my-melodik-metal-collection.mool ... ation.html было здесь
Просите перезалить, если что.


Pelu

Ещё один подобный запрос, и splatty тебя заблокирует :meloman:
Извинись и оформи нормально своё сообщение.

_________________


Top
 Profile E-mail  
 
 
PostPosted: 09 Apr 2015 
Partisanen - nicht kapitulieren!!
User avatar
Joined: 25 Dec 2011
Posts: 6647
Lоcаtion: партизанские леса
Age: 45
Name: Владимир
Scatterbrain wrote:
http://my-melodik-metal-collection.mool ... ation.html было здесьПросите перезалить, если что.

дык то ж Вити Бегемота док... думаешь перельют?

_________________
One more beer and Heavy Metal and I'm just fine!
старовер, куле... слово "блин" - до сих пор через Ъ говорю


Top
 Profile E-mail  
 
 
PostPosted: 09 Apr 2015 
Хиппей (support team)
User avatar
Joined: 30 Jul 2007
Posts: 105667
Lоcаtion: Киев (Kyiv, UA)
Age: 45
Name: Andrey
Более чем уверен.
Только по личкам просить надо.
Но это уже после того, как Pelu оформит качественно запрос.
Бюрократия и порядок прежде всего :pavlik:

_________________


Top
 Profile E-mail  
 
 
PostPosted: 09 Apr 2015 
Partisanen - nicht kapitulieren!!
User avatar
Joined: 25 Dec 2011
Posts: 6647
Lоcаtion: партизанские леса
Age: 45
Name: Владимир
да я его с ваты быстрей скачаю, если это то, что нужно :vic:
Scatterbrain wrote:
Бюрократия и порядок прежде всего

ну так-то да, хтож спорит-то...

_________________
One more beer and Heavy Metal and I'm just fine!
старовер, куле... слово "блин" - до сих пор через Ъ говорю


Top
 Profile E-mail  
 
 
PostPosted: 09 Apr 2015 
Хиппей (support team)
User avatar
Joined: 30 Jul 2007
Posts: 105667
Lоcаtion: Киев (Kyiv, UA)
Age: 45
Name: Andrey
32warlord1 wrote:
если это то, что нужно

А вот Пелу его ж знает :vic:

_________________


Top
 Profile E-mail  
 
 
PostPosted: 09 Apr 2015 
Труъ
User avatar
Joined: 28 Mar 2013
Posts: 149
Lоcаtion: Parana-Brazil
Age: 53
Name: Pedro Gabriel Lanza
With this information you can to understand? I think there is only the germany edition to compilation. All what I have found about it I described! Sorry by my silliness!


Top
 Profile E-mail  
 
 
PostPosted: 09 Apr 2015 
Partisanen - nicht kapitulieren!!
User avatar
Joined: 25 Dec 2011
Posts: 6647
Lоcаtion: партизанские леса
Age: 45
Name: Владимир
Well, again ... you've read the topic at all??
this is what you need?

Image

_________________
One more beer and Heavy Metal and I'm just fine!
старовер, куле... слово "блин" - до сих пор через Ъ говорю


Top
 Profile E-mail  
 
 
PostPosted: 09 Apr 2015 
консэрваторъ
Joined: 11 Aug 2007
Posts: 15797
Lоcаtion: Псков
Age: 44
Name: Сергей
Pelu wrote:
Sorry

Норм... Good... только обложку забыл... дооформил... Look again and remember how I edited your message!.. Please... Send the request something like this...

_________________
THRASH 'EM ALL


Top
 Profile E-mail  
 
 
PostPosted: 09 Apr 2015 
Partisanen - nicht kapitulieren!!
User avatar
Joined: 25 Dec 2011
Posts: 6647
Lоcаtion: партизанские леса
Age: 45
Name: Владимир
снимайте рекса

Damascus [CD] [2012] - Cold Horizon [FLAC]
Image

Tracks : 9
Playtime : 00:39:17
Size : 248.9 MB
Codec : FLAC/877 kbps

Tracklist :
01. Open Your Eyes (03:46)
02. Looking for Daylight (04:33)
03. Another Rainy Day (04:35)
04. Midnight Train (03:44)
05. Dreamer (03:45)
06. Goodbye Harry (04:35)
07. Something on My Mind (04:45)
08. Cold Horizon (05:20)
09. Women in Black (04:09)

XLD log | +
Code:
X Lossless Decoder version 20130127 (142.3)

XLD extraction logfile from 2013-06-09 17:52:59 -0400

Damascus / Cold Horizon

Used drive : MATSHITA DVD-R   UJ-898 (revision HE13)
Media type : Pressed CD

Ripper mode             : XLD Secure Ripper
Disable audio cache     : OK for the drive with a cache less than 1375KiB
Make use of C2 pointers : NO
Read offset correction  : 102
Max retry count         : 100
Gap status              : Analyzed, Appended

TOC of the extracted CD
     Track |   Start  |  Length  | Start sector | End sector
    ---------------------------------------------------------
        1  | 00:00:00 | 03:46:73 |         0    |    17022   
        2  | 03:46:73 | 04:33:67 |     17023    |    37564   
        3  | 08:20:65 | 04:35:22 |     37565    |    58211   
        4  | 12:56:12 | 03:44:08 |     58212    |    75019   
        5  | 16:40:20 | 03:45:33 |     75020    |    91927   
        6  | 20:25:53 | 04:35:49 |     91928    |   112601   
        7  | 25:01:27 | 04:45:27 |    112602    |   134003   
        8  | 29:46:54 | 05:20:70 |    134004    |   158073   
        9  | 35:07:49 | 04:09:70 |    158074    |   176818   

AccurateRip Summary
    Disc not found in AccurateRip DB.

All Tracks
    Album gain               : -6.34 dB
    Peak                     : 0.980225
    Statistics
        Read error                           : 0
        Jitter error (maybe fixed)           : 0
        Retry sector count                   : 0
        Damaged sector count                 : 0

Track 01
    Filename : /Users/jacobschwartz/Documents/what.cd Uploads/Damascus - Cold Horizon (2012) [FLAC (level 8)]/01 Open Your Eyes.flac
               /Users/jacobschwartz/Documents/what.cd Uploads/Damascus - Cold Horizon (2012) [MP3 320]/01 Open Your Eyes.mp3
               /Users/jacobschwartz/Documents/what.cd Uploads/Damascus - Cold Horizon (2012) [V0]/01 Open Your Eyes.mp3
               /Users/jacobschwartz/Documents/what.cd Uploads/Damascus - Cold Horizon (2012) [V2]/01 Open Your Eyes.mp3
    Pre-gap length : 00:02:00

    Track gain               : -6.16 dB
    Peak                     : 0.970642
    CRC32 hash (test run)    : 9226C47A
    CRC32 hash               : 9226C47A
    CRC32 hash (skip zero)   : 226DC491
    AccurateRip v1 signature : 4636F1C8
    AccurateRip v2 signature : E05F73B1
        ->Track not present in AccurateRip database.
    Statistics
        Read error                           : 0
        Jitter error (maybe fixed)           : 0
        Retry sector count                   : 0
        Damaged sector count                 : 0

Track 02
    Filename : /Users/jacobschwartz/Documents/what.cd Uploads/Damascus - Cold Horizon (2012) [FLAC (level 8)]/02 Looking for Daylight.flac
               /Users/jacobschwartz/Documents/what.cd Uploads/Damascus - Cold Horizon (2012) [MP3 320]/02 Looking for Daylight.mp3
               /Users/jacobschwartz/Documents/what.cd Uploads/Damascus - Cold Horizon (2012) [V0]/02 Looking for Daylight.mp3
               /Users/jacobschwartz/Documents/what.cd Uploads/Damascus - Cold Horizon (2012) [V2]/02 Looking for Daylight.mp3
    Pre-gap length : 00:02:00

    Track gain               : -7.15 dB
    Peak                     : 0.970642
    CRC32 hash (test run)    : 506E9983
    CRC32 hash               : 506E9983
    CRC32 hash (skip zero)   : 9B566808
    AccurateRip v1 signature : 82DB0873
    AccurateRip v2 signature : 82349214
        ->Track not present in AccurateRip database.
    Statistics
        Read error                           : 0
        Jitter error (maybe fixed)           : 0
        Retry sector count                   : 0
        Damaged sector count                 : 0

Track 03
    Filename : /Users/jacobschwartz/Documents/what.cd Uploads/Damascus - Cold Horizon (2012) [FLAC (level 8)]/03 Another Rainy Day.flac
               /Users/jacobschwartz/Documents/what.cd Uploads/Damascus - Cold Horizon (2012) [MP3 320]/03 Another Rainy Day.mp3
               /Users/jacobschwartz/Documents/what.cd Uploads/Damascus - Cold Horizon (2012) [V0]/03 Another Rainy Day.mp3
               /Users/jacobschwartz/Documents/what.cd Uploads/Damascus - Cold Horizon (2012) [V2]/03 Another Rainy Day.mp3
    Pre-gap length : 00:02:00

    Track gain               : -6.38 dB
    Peak                     : 0.970612
    CRC32 hash (test run)    : 20B1A4CE
    CRC32 hash               : 20B1A4CE
    CRC32 hash (skip zero)   : C04396BF
    AccurateRip v1 signature : 9FB60E73
    AccurateRip v2 signature : 628E41A1
        ->Track not present in AccurateRip database.
    Statistics
        Read error                           : 0
        Jitter error (maybe fixed)           : 0
        Retry sector count                   : 0
        Damaged sector count                 : 0

Track 04
    Filename : /Users/jacobschwartz/Documents/what.cd Uploads/Damascus - Cold Horizon (2012) [FLAC (level 8)]/04 Midnight Train.flac
               /Users/jacobschwartz/Documents/what.cd Uploads/Damascus - Cold Horizon (2012) [MP3 320]/04 Midnight Train.mp3
               /Users/jacobschwartz/Documents/what.cd Uploads/Damascus - Cold Horizon (2012) [V0]/04 Midnight Train.mp3
               /Users/jacobschwartz/Documents/what.cd Uploads/Damascus - Cold Horizon (2012) [V2]/04 Midnight Train.mp3
    Pre-gap length : 00:02:00

    Track gain               : -6.66 dB
    Peak                     : 0.970642
    CRC32 hash (test run)    : 14D5DE7A
    CRC32 hash               : 14D5DE7A
    CRC32 hash (skip zero)   : 98282DA2
    AccurateRip v1 signature : 80C7BED2
    AccurateRip v2 signature : 51D0A253
        ->Track not present in AccurateRip database.
    Statistics
        Read error                           : 0
        Jitter error (maybe fixed)           : 0
        Retry sector count                   : 0
        Damaged sector count                 : 0

Track 05
    Filename : /Users/jacobschwartz/Documents/what.cd Uploads/Damascus - Cold Horizon (2012) [FLAC (level 8)]/05 Dreamer.flac
               /Users/jacobschwartz/Documents/what.cd Uploads/Damascus - Cold Horizon (2012) [MP3 320]/05 Dreamer.mp3
               /Users/jacobschwartz/Documents/what.cd Uploads/Damascus - Cold Horizon (2012) [V0]/05 Dreamer.mp3
               /Users/jacobschwartz/Documents/what.cd Uploads/Damascus - Cold Horizon (2012) [V2]/05 Dreamer.mp3
    Pre-gap length : 00:02:00

    Track gain               : -6.28 dB
    Peak                     : 0.970612
    CRC32 hash (test run)    : A321ED0D
    CRC32 hash               : A321ED0D
    CRC32 hash (skip zero)   : 9F7BBB77
    AccurateRip v1 signature : B29BABEE
    AccurateRip v2 signature : 1BF97C42
        ->Track not present in AccurateRip database.
    Statistics
        Read error                           : 0
        Jitter error (maybe fixed)           : 0
        Retry sector count                   : 0
        Damaged sector count                 : 0

Track 06
    Filename : /Users/jacobschwartz/Documents/what.cd Uploads/Damascus - Cold Horizon (2012) [FLAC (level 8)]/06 Goodbye Harry.flac
               /Users/jacobschwartz/Documents/what.cd Uploads/Damascus - Cold Horizon (2012) [MP3 320]/06 Goodbye Harry.mp3
               /Users/jacobschwartz/Documents/what.cd Uploads/Damascus - Cold Horizon (2012) [V0]/06 Goodbye Harry.mp3
               /Users/jacobschwartz/Documents/what.cd Uploads/Damascus - Cold Horizon (2012) [V2]/06 Goodbye Harry.mp3
    Pre-gap length : 00:02:00

    Track gain               : -6.46 dB
    Peak                     : 0.970642
    CRC32 hash (test run)    : 61E477B6
    CRC32 hash               : 61E477B6
    CRC32 hash (skip zero)   : 37983ABD
    AccurateRip v1 signature : AC163A53
    AccurateRip v2 signature : A0AEE5E2
        ->Track not present in AccurateRip database.
    Statistics
        Read error                           : 0
        Jitter error (maybe fixed)           : 0
        Retry sector count                   : 0
        Damaged sector count                 : 0

Track 07
    Filename : /Users/jacobschwartz/Documents/what.cd Uploads/Damascus - Cold Horizon (2012) [FLAC (level 8)]/07 Something on My Mind.flac
               /Users/jacobschwartz/Documents/what.cd Uploads/Damascus - Cold Horizon (2012) [MP3 320]/07 Something on My Mind.mp3
               /Users/jacobschwartz/Documents/what.cd Uploads/Damascus - Cold Horizon (2012) [V0]/07 Something on My Mind.mp3
               /Users/jacobschwartz/Documents/what.cd Uploads/Damascus - Cold Horizon (2012) [V2]/07 Something on My Mind.mp3
    Pre-gap length : 00:02:00

    Track gain               : -6.09 dB
    Peak                     : 0.980225
    CRC32 hash (test run)    : 023CC73F
    CRC32 hash               : 023CC73F
    CRC32 hash (skip zero)   : 72674F82
    AccurateRip v1 signature : D9D9A3DC
    AccurateRip v2 signature : 550264BA
        ->Track not present in AccurateRip database.
    Statistics
        Read error                           : 0
        Jitter error (maybe fixed)           : 0
        Retry sector count                   : 0
        Damaged sector count                 : 0

Track 08
    Filename : /Users/jacobschwartz/Documents/what.cd Uploads/Damascus - Cold Horizon (2012) [FLAC (level 8)]/08 Cold Horizon.flac
               /Users/jacobschwartz/Documents/what.cd Uploads/Damascus - Cold Horizon (2012) [MP3 320]/08 Cold Horizon.mp3
               /Users/jacobschwartz/Documents/what.cd Uploads/Damascus - Cold Horizon (2012) [V0]/08 Cold Horizon.mp3
               /Users/jacobschwartz/Documents/what.cd Uploads/Damascus - Cold Horizon (2012) [V2]/08 Cold Horizon.mp3
    Pre-gap length : 00:02:00

    Track gain               : -4.95 dB
    Peak                     : 0.970612
    CRC32 hash (test run)    : 9B7797C4
    CRC32 hash               : 9B7797C4
    CRC32 hash (skip zero)   : 1C787957
    AccurateRip v1 signature : E6606FA0
    AccurateRip v2 signature : 1DA4BD22
        ->Track not present in AccurateRip database.
    Statistics
        Read error                           : 0
        Jitter error (maybe fixed)           : 0
        Retry sector count                   : 0
        Damaged sector count                 : 0

Track 09
    Filename : /Users/jacobschwartz/Documents/what.cd Uploads/Damascus - Cold Horizon (2012) [FLAC (level 8)]/09 Women in Black.flac
               /Users/jacobschwartz/Documents/what.cd Uploads/Damascus - Cold Horizon (2012) [MP3 320]/09 Women in Black.mp3
               /Users/jacobschwartz/Documents/what.cd Uploads/Damascus - Cold Horizon (2012) [V0]/09 Women in Black.mp3
               /Users/jacobschwartz/Documents/what.cd Uploads/Damascus - Cold Horizon (2012) [V2]/09 Women in Black.mp3
    Pre-gap length : 00:02:00

    Track gain               : -6.14 dB
    Peak                     : 0.970642
    CRC32 hash (test run)    : E0C9044A
    CRC32 hash               : E0C9044A
    CRC32 hash (skip zero)   : 6148D16F
    AccurateRip v1 signature : 7CE75B69
    AccurateRip v2 signature : E6CB7D83
        ->Track not present in AccurateRip database.
    Statistics
        Read error                           : 0
        Jitter error (maybe fixed)           : 0
        Retry sector count                   : 0
        Damaged sector count                 : 0

No errors occurred

End of status report


Image

_________________
One more beer and Heavy Metal and I'm just fine!
старовер, куле... слово "блин" - до сих пор через Ъ говорю


Top
 Profile E-mail  
 
 
PostPosted: 09 Apr 2015 
консэрваторъ
Joined: 11 Aug 2007
Posts: 15797
Lоcаtion: Псков
Age: 44
Name: Сергей
Снято... только как бы лось в мп3ишном лесопарке... :oops:

_________________
THRASH 'EM ALL


Top
 Profile E-mail  
 
 
PostPosted: 09 Apr 2015 
Partisanen - nicht kapitulieren!!
User avatar
Joined: 25 Dec 2011
Posts: 6647
Lоcаtion: партизанские леса
Age: 45
Name: Владимир
дык перенесть его куда надо - и все дела :umnik:

_________________
One more beer and Heavy Metal and I'm just fine!
старовер, куле... слово "блин" - до сих пор через Ъ говорю


Top
 Profile E-mail  
 
 
PostPosted: 27 Apr 2015 
Персональный статус
Joined: 23 Sep 2009
Posts: 201
Name: henk
Thanks a lot.


Top
 Profile E-mail  
 
Display posts from previous:  Sort by  
Post new topic Reply to topic  [ 15 posts ] 

All times are UTC + 3 hours


Who is online

Users browsing this forum: No registered users and 2 guests


You cannot post new topics in this forum
You cannot reply to topics in this forum
You cannot edit your posts in this forum
You cannot delete your posts in this forum
You cannot post attachments in this forum

Search for:
Яндекс.Метрика
Powered by phpBB © 2000, 2002, 2005, 2007 phpBB Group