\m/ 80's metal \m/

Информационно-аналитический форум "80 см пыли" (In Search We Trust) "У нас никто никуда не спешит"
Me For You - http://me-4u.com
It is currently 20 Sep 2018

All times are UTC + 3 hours

Spoiler
Chat - temporary registration for foreign users (please leave your application here)







Post new topic Reply to topic  [ 40 posts ]  Go to page Previous  1, 2
Author Message
 
PostPosted: 31 Mar 2009 
10cm
Joined: 28 Feb 2009
Posts: 83
Lоcаtion: Москва
Age: 49
Name: Николай
Bad News - 1987 - Bad News [lossless]

Image

Незнаю можеткто и помнит эту группу??? Я решил её выложить для поднятия что бы у всех было хорошее настроение!!!! :nunu:
А под пивко как слушается!!!! :true:

http://www.metal-archives.com/band.php?id=11085

состав.
Vim Fuego (Adrian Edmondson) - vocals, guitar
Colin Grigson (Rik Mayall) - bass
Den Dennis (Nigel Planer) - guitar
Spider Webb (Peter Richardson) - drums

трек лист.
1: Hey Hey Bad News (5:16)
2: ”We Haven’t Recoded Anything Yet!” (2:03)
3: Warriors of Ghengis Khan (3:25)
4: Excalibur (6:21)
5: Bohemian Rhapsody (take 1) (1:30)
6: Bohemian Rhapsody (take 2) (3:39)
7: The Contract (2:59)
8: Introducing the Band (2:00)
9: Bad News (3:35)
10: Hey Mr. Bassman (4:08)
11: Masturbike (2:20)
12: “What Are You Going To Wear For Top of the Pops?” (3:48)
13: Drink Till I Die (3:35)
14: “Maybe We Should Plug the Guitars in” (1:46)
15: Pretty Woman (2:51)
16: Life With Brian (5:25)
17: Bad Dreams (4:14)
18: A.G.M (4:21)
19: O’Levels (3:24)
20: Double Entendre (3:33)
21: Cashing in on Christmas (dub) (4:26)
22: Cashing in on Christmas (4:07)

160Kbs. сделал специально. размер - 90.9Мб.

http://ifolder.ru/11347743


Top
 Profile  
 
 
PostPosted: 04 Apr 2009 
парень в очёчкXаX!
User avatar
Joined: 15 Aug 2007
Posts: 2353
Lоcаtion: UK'раина, г. ЛондАн Би-Би-Си
Age: 47
Name: Сергей
помню эту комманду, еще как помню..
Если бы сделали в макс. качестве, был бы очень благодарен.
И при возможности еще и родные сканы Вашего издания, тоже бы было просто СУПЕР!
заранее благодарен! :drink:


Top
 Profile  
 
 
PostPosted: 04 Apr 2009 
10cm
Joined: 28 Feb 2009
Posts: 83
Lоcаtion: Москва
Age: 49
Name: Николай
Кирил их ненадо рассматривать их надо слушать!!!

Format: flac+cue+log
Size: 518

http://ifolder.ru/11419022
http://ifolder.ru/11419023
http://ifolder.ru/11419024
http://ifolder.ru/11419025
http://ifolder.ru/11419026
http://ifolder.ru/11419027


Top
 Profile  
 
 
PostPosted: 04 Apr 2009 
Хиппей (support team)
User avatar
Joined: 30 Jul 2007
Posts: 106329
Lоcаtion: Киев (Kyiv, UA)
Age: 45
Name: Andrey
Вауу!! Николай, спасибо :true:


Top
 Profile E-mail  
 
 
PostPosted: 04 Apr 2009 
хард н хэвщик (support team)
User avatar
Joined: 02 Jun 2008
Posts: 16880
Lоcаtion: Н.Новгород
Age: 31
Name: Артем
attax wrote:
родные сканы Вашего издания, тоже бы было просто СУПЕР!

обложечкам также буду рад. может быть сделаешь, Клаус? :oops:
за альбом спасибо


Top
 Profile  
 
 
PostPosted: 04 Apr 2009 
труъ антисионист
User avatar
Joined: 01 Aug 2007
Posts: 4541
Lоcаtion: Откуда и большинство из нас
Age: 37
Name: Дядя Вова
Klaus
Спасибо за лося! :thanx:

_________________
Image
Image


Top
 Profile  
 
 
PostPosted: 04 Apr 2009 
10cm
Joined: 28 Feb 2009
Posts: 83
Lоcаtion: Москва
Age: 49
Name: Николай
Вся бумага и сам диск тута!!!
http://ifolder.ru/11423927
Size: 4.37Mb


Top
 Profile  
 
 
PostPosted: 04 Apr 2009 
хард н хэвщик (support team)
User avatar
Joined: 02 Jun 2008
Posts: 16880
Lоcаtion: Н.Новгород
Age: 31
Name: Артем
благодарю!! :true: :true:


Top
 Profile  
 
 
PostPosted: 04 Apr 2009 
парень в очёчкXаX!
User avatar
Joined: 15 Aug 2007
Posts: 2353
Lоcаtion: UK'раина, г. ЛондАн Би-Би-Си
Age: 47
Name: Сергей
:drink:


Top
 Profile  
 
 
PostPosted: 04 May 2009 
10cm
User avatar
Joined: 26 Aug 2007
Posts: 93
Lоcаtion: Москва
Age: 46
FUCK!!! :dash:
Quote:
Режим чтения : Скоростной

Коррекция смещения при чтении : 48
Способность читать области Lead-in и Lead-out : Нет
Заполнение пропущенных сэмплов тишиной : Да
Удаление блоков с тишиной в начале и конце : Нет
При вычислениях CRC использовались нулевые сэмплы : Нет

Итак, к чему привёл "Режим чтения : Скоростной":
Quote:
Проблемы синхронизации 0:00:37
Проблемы синхронизации 0:02:35
Проблемы синхронизации 0:02:46
Проблемы синхронизации 0:03:08
Проблемы синхронизации 0:03:36
Проблемы синхронизации 0:03:47
Проблемы синхронизации 0:03:54
Проблемы синхронизации 0:04:03
Проблемы синхронизации 0:04:07
Проблемы синхронизации 0:04:17
Проблемы синхронизации 0:04:38
Проблемы синхронизации 0:10:20
Проблемы синхронизации 0:11:52
Проблемы синхронизации 0:12:00
Проблемы синхронизации 0:12:31
Проблемы синхронизации 0:12:34
Проблемы синхронизации 0:12:37
Проблемы синхронизации 0:12:47
Проблемы синхронизации 0:12:50
Проблемы синхронизации 0:12:53
Проблемы синхронизации 0:13:03
Проблемы синхронизации 0:13:08
Проблемы синхронизации 0:15:12
Проблемы синхронизации 0:15:22
Проблемы синхронизации 0:15:38
Проблемы синхронизации 0:15:42
Проблемы синхронизации 0:16:33
Проблемы синхронизации 0:32:11
Проблемы синхронизации 0:48:05
Проблемы синхронизации 1:02:46
... и в результате имеем:

Quote:
[Verification date: 04.05.2009 2:05:02]
[Disc ID: 003cef4c-03cb63de-42128116]
Track [ CRC ] Status
01 [a35c4835] (03/03) Partial match to pressing(s) #1
02 [911c717f] (03/03) Partial match to pressing(s) #1
03 [8a0fc35b] (03/03) Partial match to pressing(s) #1
04 [43dc7bfc] (03/03) Partial match to pressing(s) #1
05 [30f583f0] (03/03) Accurately ripped as in pressing(s) #1
06 [b38de1b4] (03/03) Partial match to pressing(s) #1
07 [8a616669] (03/03) Accurately ripped as in pressing(s) #1
08 [d8bd9f88] (03/03) Accurately ripped as in pressing(s) #1
09 [89c97d75] (03/03) Accurately ripped as in pressing(s) #1
10 [eb2ed8ea] (03/03) Accurately ripped as in pressing(s) #1
11 [e6dc8392] (03/03) Accurately ripped as in pressing(s) #1
12 [a338b3f5] (03/03) Accurately ripped as in pressing(s) #1
13 [0341f84e] (03/03) Partial match to pressing(s) #1
14 [287a595e] (03/03) Accurately ripped as in pressing(s) #1
15 [e6b753eb] (03/03) Accurately ripped as in pressing(s) #1
16 [a7acf3a7] (03/03) Partial match to pressing(s) #1
17 [f37e1f9d] (03/03) Accurately ripped as in pressing(s) #1
18 [bdb4b7a4] (03/03) Partial match to pressing(s) #1
19 [6429aea7] (03/03) Partial match to pressing(s) #1
20 [445e303b] (03/03) Accurately ripped as in pressing(s) #1
21 [0d7ed1a6] (03/03) Accurately ripped as in pressing(s) #1
22 [1cf41ad5] (03/03) Accurately ripped as in pressing(s) #1
Ежу понятно, что у нас там с кэшем привода и С2 творится при таком режиме чтения. Ну и плюс такая мелочь, что вместо заявленного FLAC в архиве (да ещё каком архиве! на кой надо было уже готовый RAR запаковывать TMPacker-ом со шпионским модулем?!) оказался WAV на 797 MB, тут же ужатый мной в вышеупомянутый FLAC до 443 MB - т.е. 354 мегабайт (почти половина) излишней информации. Ну ладно у меня безлимит, но ведь явно что не у всех?

СПАСИБО! :true:

_________________
how does it make you feel?


Top
 Profile  
 
 
PostPosted: 04 May 2009 
парень в очёчкXаX!
User avatar
Joined: 15 Aug 2007
Posts: 2353
Lоcаtion: UK'раина, г. ЛондАн Би-Би-Си
Age: 47
Name: Сергей
ну, да вообще то все так и есть...........блин абЫдно немного
.......правда, если изначально влупить через КУй и не перепрыгивать с трэка на трэк, а просто тупо отслушать альбом от начала до конца не останавливая его, то вроде все как ок! :nunu: .................но все равно АбЫдно.......... :oops:
альбомчик то реально раритетный щас уже, ну и конечно хотелось бы, что бы он был просто и правильно выложен...
пы/сы: со своими 30 кб/с (по паспорту :crazy: ) готов еще раз на подвиг - завалить на свой ХАРД эти пол гига, но уже в правильном варианте..........я даже слово магическое знаю-------------ПОЖАЛУЙСТА!
пы/сы 2: ну а если и не суждено..........то хоть скан задника и самого CD Вашего издания можна-плиз в не урезанном виде, для моей "извращенной :crazy:" картинками коллекции.........
заранее примного благодарен :drink:
Image


Top
 Profile  
 
 
PostPosted: 04 May 2009 
Хиппей (support team)
User avatar
Joined: 30 Jul 2007
Posts: 106329
Lоcаtion: Киев (Kyiv, UA)
Age: 45
Name: Andrey
vevenza wrote:
[Ну и плюс такая мелочь, что вместо заявленного FLAC в архиве (да ещё каком архиве! на кой надо было уже готовый RAR запаковывать TMPacker-ом со шпионским модулем?!)

Это делает сам сервис Ифолдырь, если на него лить файл больше 100 метров.
А что там за модуль? :vic:


Top
 Profile E-mail  
 
 
PostPosted: 04 May 2009 
10cm
User avatar
Joined: 26 Aug 2007
Posts: 93
Lоcаtion: Москва
Age: 46
Scatterbrain wrote:
А что там за модуль? :vic:
на сайте разработчика почитай всё станет понятно чё эт за софт: http://tmaproject.ru/

_________________
how does it make you feel?


Top
 Profile  
 
 
PostPosted: 04 May 2009 
Хиппей (support team)
User avatar
Joined: 30 Jul 2007
Posts: 106329
Lоcаtion: Киев (Kyiv, UA)
Age: 45
Name: Andrey
Ну норм. Партнёра фолдырь сменил. А нам то что с этого. Стало разве хуже? :vic:


Top
 Profile E-mail  
 
 
PostPosted: 04 May 2009 
Хиппей (support team)
User avatar
Joined: 30 Jul 2007
Posts: 106329
Lоcаtion: Киев (Kyiv, UA)
Age: 45
Name: Andrey
Quote:
1. Что это за модуль.
Наш Adware-модуль представляет собой плагин для браузеров Internet Explorer и FireFox, устанавливаемый вместе с продуктом-носителем. В EULA продукта-носителя добавляется раздел об этом, в инсталляроте появляется строчка о том, что модуль TMAgent (так называется наш рекламный модуль) позволяет использовать программу бесплатно, но при этом показывает рекламу.
Модуль автоматически подгружается в браузер и периодически появляется в виде нижнего тулбара (Explorer Bar в IE) при совершении пользователем определённых действий - совершении запроса в поисковых системах, переходе по ссылке содержащей ключевые слова и т.п. В тулбаре показываются контекстные текстовые объявления в формате, привычном любому пользователю интернета - заголовок, небольшое описание, урл. Также тулбар периодически показывает и контекстные графические баннеры. Тулбар можно закрыть, при этом открывается окно-предупреждение, что рекламный модуль позволяет бесплато использовать такую-то программу и избавиться от рекламы можно или удалив программу или заплатив авторам деньги.

Ага, вкурил. Тем, кто юзает Лису и ИЕ это малоприятно :fingal: Кхм, я то под Оперой никакой шняги не вижу :pardon:


Top
 Profile E-mail  
 
 
PostPosted: 22 Feb 2013 
Хиппей (support team)
User avatar
Joined: 30 Jul 2007
Posts: 106329
Lоcаtion: Киев (Kyiv, UA)
Age: 45
Name: Andrey
Кирил их ненадо рассматривать их надо слушать!!!

Format: flac+cue+log
Size: 518

http://ifolder.ru/11419022
http://ifolder.ru/11419023
http://ifolder.ru/11419024
http://ifolder.ru/11419025
http://ifolder.ru/11419026
http://ifolder.ru/11419027

Люди, кто может, обновите, пожалуйста, ссылку на этого лося :thanx:

_________________


Top
 Profile E-mail  
 
 
PostPosted: 02 Sep 2013 
Хиппей (support team)
User avatar
Joined: 30 Jul 2007
Posts: 106329
Lоcаtion: Киев (Kyiv, UA)
Age: 45
Name: Andrey
Кирил их ненадо рассматривать их надо слушать!!!

Format: flac+cue+log
Size: 518

http://ifolder.ru/11419022
http://ifolder.ru/11419023
http://ifolder.ru/11419024
http://ifolder.ru/11419025
http://ifolder.ru/11419026
http://ifolder.ru/11419027

Люди, кто может, обновите, пожалуйста, ссылку на этого лося :thanx:

:thanx:

_________________


Top
 Profile E-mail  
 
 
PostPosted: 18 Oct 2013 
Персональный статус
User avatar
Joined: 06 Apr 2013
Posts: 466
Lоcаtion: Russia, Orel
Age: 28
Name: Сергей
перезалейте пожалуйста в mp3 Bad News - Bad News 1987


Top
 Profile E-mail  
 
 
PostPosted: 20 Sep 2016 
Хиппей (support team)
User avatar
Joined: 30 Jul 2007
Posts: 106329
Lоcаtion: Киев (Kyiv, UA)
Age: 45
Name: Andrey
Bad News - 1987 - Bad News [flac]

Image

mirror: iFolder l Narod l M-Cloud

Image

За всякими разговорами никто так за 7 лет, явно, альбом и не удосужился послушать.
А он, насколько я могу понять, без знания английского языка, лично во мне вызвал лишь кривую усмешку в паре моментов и полное непонимание и вопрос - а шо то було? :scratch:

3/10

Альбом-прикол, пародия, в общем. В чём прикол, попробуйте сами понять.

Рип любезно стырен отсюда :arrow: https://rutracker.org/forum/viewtopic.p ... 8#71426808 :thanx:

log
Started at: iyoieoa, 20. 06. 2008. - 17:22.12
17 files found

01 -===- D:\Bad News\01 - Bad Dreams Rehearsal.flac
Extracted successfully
Conclusion: this track is CDDA with probability 100%
Tempfile successfully deleted.

02 -===- D:\Bad News\02 - A.G.M.flac
Extracted successfully

Process aborted by user!

Finished at: iyoieoa, 20. 06. 2008. - 17:24.36 (operation time: 0:02.24)

-----------------------------------------------------------

Started at: iyoieoa, 20. 06. 2008. - 18:19.23
17 files found

01 -===- D:\Bad News\01 - Bad Dreams Rehearsal.flac
Extracted successfully
Conclusion: this track is CDDA with probability 100%
Tempfile successfully deleted.

02 -===- D:\Bad News\02 - A.G.M.flac
Extracted successfully
Conclusion: could not qualify the source of this track
Tempfile successfully deleted.

03 -===- D:\Bad News\03 - Introducing The Band.flac
Extracted successfully
Conclusion: this track is CDDA with probability 100%
Tempfile successfully deleted.

04 -===- D:\Bad News\04 - Bad News.flac
Extracted successfully
Conclusion: this track is CDDA with probability 100%
Tempfile successfully deleted.

05 -===- D:\Bad News\05 - Hey Mr. Bassman.flac
Extracted successfully
Conclusion: this track is CDDA with probability 100%
Tempfile successfully deleted.

06 -===- D:\Bad News\06 - Hey Mr. Drummer.flac
Extracted successfully
Conclusion: this track is CDDA with probability 100%
Tempfile successfully deleted.

07 -===- D:\Bad News\07 - Masturbike.flac
Extracted successfully
Conclusion: this track is CDDA with probability 62%
Tempfile successfully deleted.

08 -===- D:\Bad News\08 - Trousers.flac
Extracted successfully
Conclusion: this track is CDDA with probability 49%
Tempfile successfully deleted.

09 -===- D:\Bad News\09 - Drink Till I Die.flac
Extracted successfully
Conclusion: this track is CDDA with probability 100%
Tempfile successfully deleted.

10 -===- D:\Bad News\10 - Vim Is Angry.flac
Extracted successfully
Conclusion: this track is CDDA with probability 100%
Tempfile successfully deleted.

11 -===- D:\Bad News\11 - Hey Hey Bad News.flac
Extracted successfully
Conclusion: this track is CDDA with probability 99%
Tempfile successfully deleted.

12 -===- D:\Bad News\12 - Worriors of Ghengis Khan.flac
Extracted successfully
Conclusion: this track is CDDA with probability 100%
Tempfile successfully deleted.

13 -===- D:\Bad News\13 - Excaliber.flac
Extracted successfully
Conclusion: this track is CDDA with probability 58%
Tempfile successfully deleted.

14 -===- D:\Bad News\14 - Bohemian Rhapsody.flac
Extracted successfully
Conclusion: this track is CDDA with probability 100%
Tempfile successfully deleted.

15 -===- D:\Bad News\15 - Double Entendre.flac
Extracted successfully
Conclusion: this track is CDDA with probability 49%
Tempfile successfully deleted.

16 -===- D:\Bad News\16 - Cashing In On Christmas.flac
Extracted successfully
Conclusion: this track is CDDA with probability 49%
Tempfile successfully deleted.

17 -===- D:\Bad News\17 - Dividing Up The Spoils.flac
Extracted successfully
Conclusion: this track is CDDA with probability 92%
Tempfile successfully deleted.


Finished at: iyoieoa, 20. 06. 2008. - 18:35.16 (operation time: 0:15.52)

cue
TITLE "Bad News"
PERFORMER "Bad News"
REM ** Generated by CueMaster v1.6 **
REM Time : 62:47:00
REM Length: 3767 seconds
REM Year : 1989
REM Genre : Rock
REM DiscID: 040eb511
FILE "Bad News - Bad News.flac" WAVE
TRACK 01 AUDIO
TITLE "Bad Dreams Rehearsal"
PREGAP 00:02:00
INDEX 01 00:00:00
TRACK 02 AUDIO
TITLE "A.G.M."
INDEX 01 05:13:60
TRACK 03 AUDIO
TITLE "Introducing the Band"
INDEX 01 09:37:07
TRACK 04 AUDIO
TITLE "Bad News"
INDEX 01 11:56:22
TRACK 05 AUDIO
TITLE "Hey Mr. Bassman"
INDEX 01 15:07:72
TRACK 06 AUDIO
TITLE "Hey Mr. Drummer"
INDEX 01 17:07:27
TRACK 07 AUDIO
TITLE "Masterbike"
INDEX 01 19:22:30
TRACK 08 AUDIO
TITLE "Trousers"
INDEX 01 21:42:47
TRACK 09 AUDIO
TITLE "Drink Till I Die"
INDEX 01 25:31:22
TRACK 10 AUDIO
TITLE "Vim Is Angry"
INDEX 01 30:57:47
TRACK 11 AUDIO
TITLE "Hey Hey Bad News"
INDEX 01 33:06:40
TRACK 12 AUDIO
TITLE "Warriors of Ghengis Khan"
INDEX 01 38:28:10
TRACK 13 AUDIO
TITLE "Excaliber"
INDEX 01 41:55:15
TRACK 14 AUDIO
TITLE "Bohemian Rhapsody"
INDEX 01 48:16:50
TRACK 15 AUDIO
TITLE "Double Entendre"
INDEX 01 52:02:17
TRACK 16 AUDIO
TITLE "Cashing In On Christmas"
INDEX 01 55:37:40
TRACK 17 AUDIO
TITLE "Dividing Up The Spoils"
INDEX 01 59:46:07

_________________


Top
 Profile E-mail  
 
 
PostPosted: 20 Sep 2016 
Рарник и трушник
User avatar
Joined: 25 Dec 2009
Posts: 8031
Lоcаtion: Москва
Age: 53
Name: Виталий
Какая гадость... :shok:


Top
 Profile  
 
 
PostPosted: 20 Sep 2016 
Хиппей (support team)
User avatar
Joined: 30 Jul 2007
Posts: 106329
Lоcаtion: Киев (Kyiv, UA)
Age: 45
Name: Andrey
И тем не менее :meloman:


_________________


Top
 Profile E-mail  
 
Display posts from previous:  Sort by  
Post new topic Reply to topic  [ 40 posts ]  Go to page Previous  1, 2

All times are UTC + 3 hours


Who is online

Users browsing this forum: No registered users and 2 guests


You cannot post new topics in this forum
You cannot reply to topics in this forum
You cannot edit your posts in this forum
You cannot delete your posts in this forum
You cannot post attachments in this forum

Search for:
Яндекс.Метрика
Powered by phpBB © 2000, 2002, 2005, 2007 phpBB Group