\m/ 80's metal \m/

Информационно-аналитический форум "80 см пыли" (In Search We Trust) "У нас никто никуда не спешит"
Me For You - http://me-4u.com
It is currently 21 Nov 2018

All times are UTC + 3 hours

Spoiler
Chat - temporary registration for foreign users (please leave your application here)







Post new topic Reply to topic  [ 8 posts ] 
Author Message
 
PostPosted: 09 Apr 2011 
Пионэръ
User avatar
Joined: 15 Mar 2011
Posts: 17
Lоcаtion: Spain
Name: Tuco Pacífico
Image

Band: Azuzena
Album: Liberación
Year: 1989
Country: Spain
Genre: Heavy Metal
Format: CDRip (APE + CUE + LOG + Covers)
Length: 50:01 min
Size: 343 mb
Release: by Tuco Pacífico[EsparaelMetal]

Image

Image

Tracklist:

1 El oasis del amor
2 Romperás su corazón
3 Super star
4 Una pequeña movida
5 Salvaje y cruel
6 A los dioses del metal
7 Disfruta esta noche
8 Desfilan los años
9 Nacida para matar

BONUS TRACKS:
10 Super star (versión Jomeini)
11 Sin compasión (Live 86)
12 No eres suficiente (Live 86)
13 Reencarnación (Live 86)
14 Colgada de ti (Live Sala Argentina 1989)
15 Romperás su corazón (Live Sala Argentina 1989)

Скачать:
MULTILINK

LOG
Code:
Exact Audio Copy V1.0 beta 1 from 15. November 2010

EAC extraction logfile from 9. April 2011, 10:33

Azuzena / Liberación

Used drive  : TSSTcorpCDDVDW SE-S084F   Adapter: 1  ID: 0

Read mode               : Secure
Utilize accurate stream : Yes
Defeat audio cache      : Yes
Make use of C2 pointers : No

Read offset correction                      : 6
Overread into Lead-In and Lead-Out          : No
Fill up missing offset samples with silence : Yes
Delete leading and trailing silent blocks   : No
Null samples used in CRC calculations       : Yes
Used interface                    : Native Win32 interface for Win NT & 2000

Used output format : Internal WAV Routines
Sample format      : 44.100 Hz; 16 Bit; Stereo

TOC of the extracted CD

       Track |   Start  |  Length  | Start sector | End sector   
      ---------------------------------------------------------
          1  |  0:00.00 |  3:03.32 |         0    |    13756     
          2  |  3:03.32 |  2:38.70 |     13757    |    25676     
          3  |  5:42.27 |  2:18.19 |     25677    |    36045     
          4  |  8:00.46 |  3:08.02 |     36046    |    50147     
          5  | 11:08.48 |  3:46.21 |     50148    |    67118     
          6  | 14:54.69 |  4:43.05 |     67119    |    88348     
          7  | 19:37.74 |  3:03.45 |     88349    |   102118     
          8  | 22:41.44 |  2:30.38 |    102119    |   113406     
          9  | 25:12.07 |  3:12.74 |    113407    |   127880     
         10  | 28:25.06 |  2:22.22 |    127881    |   138552     
         11  | 30:47.28 |  3:41.18 |    138553    |   155145     
         12  | 34:28.46 |  4:25.17 |    155146    |   175037     
         13  | 38:53.63 |  4:43.11 |    175038    |   196273     
         14  | 43:36.74 |  3:08.71 |    196274    |   210444     
         15  | 46:45.70 |  3:14.65 |    210445    |   225059     

Range status and errors

Selected range

       Filename D:\Azuzena\Azuzena - Liberación.wav

       Peak level 100.0 %
       Extraction speed 0.1 X
       Range quality 100.0 %
       Test CRC 31357CE1
       Copy CRC 31357CE1
       Copy OK

No errors occurred

     
AccurateRip summary
     
Track  1  accurately ripped (confidence 1)  [88306AB6]
Track  2  accurately ripped (confidence 1)  [72151D2D]
Track  3  accurately ripped (confidence 1)  [A20D37F6]
Track  4  accurately ripped (confidence 1)  [6FB47A56]
Track  5  accurately ripped (confidence 1)  [52BA5898]
Track  6  accurately ripped (confidence 1)  [4D0CEB79]
Track  7  accurately ripped (confidence 1)  [278F8F67]
Track  8  accurately ripped (confidence 1)  [B0C0869D]
Track  9  accurately ripped (confidence 1)  [CFA51611]
Track 10  accurately ripped (confidence 1)  [F84B6DE3]
Track 11  accurately ripped (confidence 1)  [00122CE9]
Track 12  accurately ripped (confidence 1)  [D7C28128]
Track 13  accurately ripped (confidence 1)  [8DCC71D7]
Track 14  accurately ripped (confidence 1)  [EF37BC30]
Track 15  accurately ripped (confidence 1)  [B0337502]
     
All tracks accurately ripped

End of status report



Last edited by Tuco Pacífico on 09 Apr 2011, edited 1 time in total.

Top
 Profile E-mail  
 
 
PostPosted: 09 Apr 2011 
Пионэръ
User avatar
Joined: 15 Mar 2011
Posts: 17
Lоcаtion: Spain
Name: Tuco Pacífico
Image
:blum:


Top
 Profile E-mail  
 
 
PostPosted: 09 Apr 2011 
Пионэръ
User avatar
Joined: 15 Mar 2011
Posts: 17
Lоcаtion: Spain
Name: Tuco Pacífico
Image

Band: Azuzena
Album: Liberación
Year: 1989
Country: Spain
Genre: Heavy Metal
Format: CDRip (APE + CUE + LOG + Covers)
Length: 50:01 min
Size: 343 mb
Release: by Tuco Pacífico[EsparaelMetal]

Image

Image



Tracklist:

1 El oasis del amor
2 Romperás su corazón
3 Super star
4 Una pequeña movida
5 Salvaje y cruel
6 A los dioses del metal
7 Disfruta esta noche
8 Desfilan los años
9 Nacida para matar

BONUS TRACKS:
10 Super star (versión Jomeini)
11 Sin compasión (Live 86)
12 No eres suficiente (Live 86)
13 Reencarnación (Live 86)
14 Colgada de ti (Live Sala Argentina 1989)
15 Romperás su corazón (Live Sala Argentina 1989)

Скачать:
MULTILINK

LOG
Code:
Exact Audio Copy V1.0 beta 1 from 15. November 2010

EAC extraction logfile from 9. April 2011, 10:33

Azuzena / Liberación

Used drive  : TSSTcorpCDDVDW SE-S084F   Adapter: 1  ID: 0

Read mode               : Secure
Utilize accurate stream : Yes
Defeat audio cache      : Yes
Make use of C2 pointers : No

Read offset correction                      : 6
Overread into Lead-In and Lead-Out          : No
Fill up missing offset samples with silence : Yes
Delete leading and trailing silent blocks   : No
Null samples used in CRC calculations       : Yes
Used interface                    : Native Win32 interface for Win NT & 2000

Used output format : Internal WAV Routines
Sample format      : 44.100 Hz; 16 Bit; Stereo

TOC of the extracted CD

       Track |   Start  |  Length  | Start sector | End sector   
      ---------------------------------------------------------
          1  |  0:00.00 |  3:03.32 |         0    |    13756     
          2  |  3:03.32 |  2:38.70 |     13757    |    25676     
          3  |  5:42.27 |  2:18.19 |     25677    |    36045     
          4  |  8:00.46 |  3:08.02 |     36046    |    50147     
          5  | 11:08.48 |  3:46.21 |     50148    |    67118     
          6  | 14:54.69 |  4:43.05 |     67119    |    88348     
          7  | 19:37.74 |  3:03.45 |     88349    |   102118     
          8  | 22:41.44 |  2:30.38 |    102119    |   113406     
          9  | 25:12.07 |  3:12.74 |    113407    |   127880     
         10  | 28:25.06 |  2:22.22 |    127881    |   138552     
         11  | 30:47.28 |  3:41.18 |    138553    |   155145     
         12  | 34:28.46 |  4:25.17 |    155146    |   175037     
         13  | 38:53.63 |  4:43.11 |    175038    |   196273     
         14  | 43:36.74 |  3:08.71 |    196274    |   210444     
         15  | 46:45.70 |  3:14.65 |    210445    |   225059     

Range status and errors

Selected range

       Filename D:\Azuzena\Azuzena - Liberación.wav

       Peak level 100.0 %
       Extraction speed 0.1 X
       Range quality 100.0 %
       Test CRC 31357CE1
       Copy CRC 31357CE1
       Copy OK

No errors occurred

     
AccurateRip summary
     
Track  1  accurately ripped (confidence 1)  [88306AB6]
Track  2  accurately ripped (confidence 1)  [72151D2D]
Track  3  accurately ripped (confidence 1)  [A20D37F6]
Track  4  accurately ripped (confidence 1)  [6FB47A56]
Track  5  accurately ripped (confidence 1)  [52BA5898]
Track  6  accurately ripped (confidence 1)  [4D0CEB79]
Track  7  accurately ripped (confidence 1)  [278F8F67]
Track  8  accurately ripped (confidence 1)  [B0C0869D]
Track  9  accurately ripped (confidence 1)  [CFA51611]
Track 10  accurately ripped (confidence 1)  [F84B6DE3]
Track 11  accurately ripped (confidence 1)  [00122CE9]
Track 12  accurately ripped (confidence 1)  [D7C28128]
Track 13  accurately ripped (confidence 1)  [8DCC71D7]
Track 14  accurately ripped (confidence 1)  [EF37BC30]
Track 15  accurately ripped (confidence 1)  [B0337502]
     
All tracks accurately ripped

End of status report



Attachment:
14256968.jpg
14256968.jpg [ 54.58 KiB | Viewed 168 times ]


Top
 Profile E-mail  
 
 
PostPosted: 09 Apr 2011 
Пионэръ
Joined: 27 Aug 2010
Posts: 10
Lоcаtion: England
Name: Ken
спасибо


Top
 Profile E-mail  
 
 
PostPosted: 10 Apr 2011 
дядя Миша
User avatar
Joined: 17 Oct 2008
Posts: 3074
Lоcаtion: USSR
Age: 56
Name: Khy
gracias.


Top
 Profile  
 
 
PostPosted: 27 Apr 2011 
Пионэръ
Joined: 22 Jun 2010
Posts: 16
Lоcаtion: Madrid
Name: Xose
Thanks a lot!!!!


Top
 Profile E-mail  
 
 
PostPosted: 27 Apr 2011 
Хиппей (support team)
User avatar
Joined: 30 Jul 2007
Posts: 108243
Lоcаtion: Киев (Kyiv, UA)
Age: 45
Name: Andrey
Thanx Tuco! :thanx:

mirror: MultiUp l Narod

_________________


Top
 Profile E-mail  
 
 
PostPosted: 28 Apr 2011 
Генеральный thrasher
User avatar
Joined: 03 Oct 2008
Posts: 3510
Lоcаtion: Ханты-Мансийский АО
Age: 43
Name: Сергей
Thanks! :true:


Top
 Profile  
 
Display posts from previous:  Sort by  
Post new topic Reply to topic  [ 8 posts ] 

All times are UTC + 3 hours


Who is online

Users browsing this forum: No registered users and 1 guest


You cannot post new topics in this forum
You cannot reply to topics in this forum
You cannot edit your posts in this forum
You cannot delete your posts in this forum
You cannot post attachments in this forum

Search for:
Яндекс.Метрика
Powered by phpBB © 2000, 2002, 2005, 2007 phpBB Group