\m/ 80's metal \m/

Информационно-аналитический форум "80 см пыли" (In Search We Trust) "У нас никто никуда не спешит"
Железнодорожная биржа - RailAgent
It is currently 21 Oct 2017

All times are UTC + 3 hours

Spoiler
Chat - temporary registration for foreign users (please leave your application here)







Post new topic Reply to topic  [ 32 posts ]  Go to page Previous  1, 2
Author Message
 
PostPosted: 25 Feb 2009 
Metal Hammer collector
User avatar
Joined: 14 Jan 2009
Posts: 1418
Lоcаtion: Крым. Россия
Age: 47
Name: Сергей
> Осталось найти: | Still looking:
Crack The Sky - 1984 - The End


Ищу проэкт Crack The Sky - Raw 1986

Image

Released = 1986
Recorded =
Genre = Rock
Length = 38:40
Label = Grudge
Producer = John Palumbo

1.White Girl on Fire" – 5:46
2.Boilermaker" – 4:35
3.Song for Another Year" – 5:10
4.Elvis Was My Daddy!" – 3:53
5.Crime" – 6:32
6.Raw" – 4:13
7.(This Is) The Real Thing" – 4:23
8.The Samaritian" – 4:08

_________________
Heavy Metal


Top
 Profile  
 
 
PostPosted: 06 May 2017 
Хиппей (support team)
User avatar
Joined: 30 Jul 2007
Posts: 94393
Lоcаtion: Киев (Kyiv, UA)
Age: 44
Name: Andrey
Dare-Devilina wrote:
Остался 1984

А он концертник.
Или пусть будет тоже в поиске? :vic:

_________________


Top
 Profile E-mail  
 
 
PostPosted: 06 May 2017 
Хиппей (support team)
User avatar
Joined: 30 Jul 2007
Posts: 94393
Lоcаtion: Киев (Kyiv, UA)
Age: 44
Name: Andrey
И это... Так понимаю, для форума это неформат снова? :fingal:

_________________


Top
 Profile E-mail  
 
 
PostPosted: 07 May 2017 
Хиппей (support team)
User avatar
Joined: 30 Jul 2007
Posts: 94393
Lоcаtion: Киев (Kyiv, UA)
Age: 44
Name: Andrey
Скачал лося 2007 года этой группы. Начал слушать. Ага, неформат.
Но, вдруг чего можно будет засунуть в раздел по AOR'у... :scratch:

_________________


Top
 Profile E-mail  
 
 
PostPosted: 08 May 2017 
Хиппей (support team)
User avatar
Joined: 30 Jul 2007
Posts: 94393
Lоcаtion: Киев (Kyiv, UA)
Age: 44
Name: Andrey
В общем, группа играет почти все направления классического рока - от прог-рока до блюз-рока и даже иногда хард-рок в песенках проскакивал. Но всё равно это неформат и стиль будет в тему вписал как просто - Rock.


А теперь просто перезалью имеющуюся дискографию группы и к едреням закрываем запрос. Окромя того самого ливника от 84 года, ага? =)

_________________


Top
 Profile E-mail  
 
 
PostPosted: 08 May 2017 
Хиппей (support team)
User avatar
Joined: 30 Jul 2007
Posts: 94393
Lоcаtion: Киев (Kyiv, UA)
Age: 44
Name: Andrey
Crack The Sky - 2007 - The Sale [flacs]

Image Image

mirror: Depos l Narod l M-Cloud

log
Exact Audio Copy V1.0 beta 3 from 29. August 2011

EAC extraction logfile from 11. May 2014, 15:27

Crack The Sky / The Sale

Used drive : Optiarc DVD RW AD-7240S Adapter: 0 ID: 2

Read mode : Secure
Utilize accurate stream : Yes
Defeat audio cache : Yes
Make use of C2 pointers : No

Read offset correction : 48
Overread into Lead-In and Lead-Out : No
Fill up missing offset samples with silence : Yes
Delete leading and trailing silent blocks : No
Null samples used in CRC calculations : Yes
Used interface : Native Win32 interface for Win NT & 2000
Gap handling : Appended to previous track

Used output format : User Defined Encoder
Selected bitrate : 1024 kBit/s
Quality : High
Add ID3 tag : No
Command line compressor : C:\Program Files (x86)\Exact Audio Copy\FLAC\FLAC.EXE
Additional command line options : -8 -V -T "ARTIST=%artist%" -T "TITLE=%title%" -T "ALBUM=%albumtitle%" -T "DATE=%year%" -T "TRACKNUMBER=%tracknr%" -T "TOTALTRACKS=%numtracks%" -T "GENRE=%genre%" -T "ALBUMARTIST=%albumartist%" -T "ALBUM ARTIST=%albumartist%" -T "COMMENT=EAC Secure Mode, Test & Copy, AccurateRip, FLAC -8" %source%


TOC of the extracted CD

Track | Start | Length | Start sector | End sector
---------------------------------------------------------
1 | 0:28.00 | 2:37.48 | 2100 | 13922
2 | 3:05.48 | 1:23.20 | 13923 | 20167
3 | 4:28.68 | 3:00.00 | 20168 | 33667
4 | 7:28.68 | 2:42.36 | 33668 | 45853
5 | 10:11.29 | 2:28.14 | 45854 | 56967
6 | 12:39.43 | 3:26.44 | 56968 | 72461
7 | 16:06.12 | 3:59.63 | 72462 | 90449
8 | 20:06.00 | 4:28.37 | 90450 | 110586
9 | 24:34.37 | 3:22.59 | 110587 | 125795
10 | 27:57.21 | 5:52.49 | 125796 | 152244
11 | 33:49.70 | 4:06.05 | 152245 | 170699
12 | 37:56.00 | 8:54.19 | 170700 | 210768
13 | 46:50.19 | 5:01.36 | 210769 | 233379
14 | 51:51.55 | 4:46.22 | 233380 | 254851
15 | 56:38.02 | 6:44.73 | 254852 | 285224


Track 1

Filename C:\Users\Glen & Lisa\Desktop\Crack The Sky - The Sale (2007) [FLAC]\01 - The Sale- Introduction.wav

Pre-gap length 0:00:30.00

Peak level 80.2 %
Extraction speed 2.1 X
Track quality 100.0 %
Test CRC 1C836098
Copy CRC 1C836098
Accurately ripped (confidence 2) [025574D8] (AR v1)
Copy OK

Track 2

Filename C:\Users\Glen & Lisa\Desktop\Crack The Sky - The Sale (2007) [FLAC]\02 - Prelude.wav

Peak level 64.6 %
Extraction speed 1.9 X
Track quality 100.0 %
Test CRC 232AAA6B
Copy CRC 232AAA6B
Accurately ripped (confidence 2) [EF2176CA] (AR v1)
Copy OK

Track 3

Filename C:\Users\Glen & Lisa\Desktop\Crack The Sky - The Sale (2007) [FLAC]\03 - American Refugee.wav

Peak level 92.3 %
Extraction speed 2.4 X
Track quality 100.0 %
Test CRC 25BF83F3
Copy CRC 25BF83F3
Accurately ripped (confidence 2) [84FE035D] (AR v1)
Copy OK

Track 4

Filename C:\Users\Glen & Lisa\Desktop\Crack The Sky - The Sale (2007) [FLAC]\04 - American Refugee Movement 2.wav

Peak level 92.1 %
Extraction speed 2.6 X
Track quality 100.0 %
Test CRC 6385CC4B
Copy CRC 6385CC4B
Accurately ripped (confidence 2) [409FA128] (AR v1)
Copy OK

Track 5

Filename C:\Users\Glen & Lisa\Desktop\Crack The Sky - The Sale (2007) [FLAC]\05 - The Voice of Revolution.wav

Peak level 77.8 %
Extraction speed 2.6 X
Track quality 100.0 %
Test CRC 1DC5F7BF
Copy CRC 1DC5F7BF
Accurately ripped (confidence 2) [F999CB2A] (AR v1)
Copy OK

Track 6

Filename C:\Users\Glen & Lisa\Desktop\Crack The Sky - The Sale (2007) [FLAC]\06 - The Voice of Revolution Movement 2.wav

Peak level 90.5 %
Extraction speed 3.0 X
Track quality 100.0 %
Test CRC 9E90A7EA
Copy CRC 9E90A7EA
Accurately ripped (confidence 2) [86C5021C] (AR v1)
Copy OK

Track 7

Filename C:\Users\Glen & Lisa\Desktop\Crack The Sky - The Sale (2007) [FLAC]\07 - A Letter Home.wav

Peak level 54.0 %
Extraction speed 3.2 X
Track quality 100.0 %
Test CRC 6E0D5DD2
Copy CRC 6E0D5DD2
Accurately ripped (confidence 2) [E94AB966] (AR v1)
Copy OK

Track 8

Filename C:\Users\Glen & Lisa\Desktop\Crack The Sky - The Sale (2007) [FLAC]\08 - Immigration.wav

Peak level 89.3 %
Extraction speed 3.4 X
Track quality 100.0 %
Test CRC 3915A59C
Copy CRC 3915A59C
Accurately ripped (confidence 2) [45F17EB7] (AR v1)
Copy OK

Track 9

Filename C:\Users\Glen & Lisa\Desktop\Crack The Sky - The Sale (2007) [FLAC]\09 - Immigration Movement 2.wav

Peak level 82.9 %
Extraction speed 3.5 X
Track quality 100.0 %
Test CRC 633AE98B
Copy CRC 633AE98B
Accurately ripped (confidence 2) [E029E69A] (AR v1)
Copy OK

Track 10

Filename C:\Users\Glen & Lisa\Desktop\Crack The Sky - The Sale (2007) [FLAC]\10 - A Prayer for the Childern.wav

Pre-gap length 0:00:00.02

Peak level 69.9 %
Extraction speed 3.9 X
Track quality 100.0 %
Test CRC 37B04514
Copy CRC 37B04514
Accurately ripped (confidence 2) [669C472B] (AR v1)
Copy OK

Track 11

Filename C:\Users\Glen & Lisa\Desktop\Crack The Sky - The Sale (2007) [FLAC]\11 - The Voice of Corporation.wav

Peak level 71.0 %
Extraction speed 4.0 X
Track quality 100.0 %
Test CRC A0B4E2DB
Copy CRC A0B4E2DB
Accurately ripped (confidence 2) [82341DBF] (AR v1)
Copy OK

Track 12

Filename C:\Users\Glen & Lisa\Desktop\Crack The Sky - The Sale (2007) [FLAC]\12 - L'Acte de Patriote.wav

Peak level 92.0 %
Extraction speed 4.6 X
Track quality 100.0 %
Test CRC 844607DF
Copy CRC 844607DF
Accurately ripped (confidence 2) [882782FA] (AR v1)
Copy OK

Track 13

Filename C:\Users\Glen & Lisa\Desktop\Crack The Sky - The Sale (2007) [FLAC]\13 - The Kingdom Grows.wav

Peak level 77.9 %
Extraction speed 4.6 X
Track quality 100.0 %
Test CRC 999D9EF3
Copy CRC 999D9EF3
Accurately ripped (confidence 2) [CDE73D67] (AR v1)
Copy OK

Track 14

Filename C:\Users\Glen & Lisa\Desktop\Crack The Sky - The Sale (2007) [FLAC]\14 - The Face of God.wav

Peak level 73.5 %
Extraction speed 4.7 X
Track quality 100.0 %
Test CRC C3881BD3
Copy CRC C3881BD3
Accurately ripped (confidence 2) [922956DC] (AR v1)
Copy OK

Track 15

Filename C:\Users\Glen & Lisa\Desktop\Crack The Sky - The Sale (2007) [FLAC]\15 - The Sale.wav

Peak level 86.1 %
Extraction speed 5.1 X
Track quality 100.0 %
Test CRC 488AB549
Copy CRC 488AB549
Cannot be verified as accurate (confidence 2) [556A51A5], AccurateRip returned [7FB18C70] (AR v2)
Copy OK


14 track(s) accurately ripped
1 track(s) could not be verified as accurate

Some tracks could not be verified as accurate

No errors occurred

End of status report

==== Log checksum 4034DD3F1DF68C36E157B565569AAC89A18EE712E7CD1DDF39D3880536E0D2A4 ====

cue
REM GENRE "Progressive Rock"
REM DATE 2007
REM DISCID BD0EBF0F
REM COMMENT "ExactAudioCopy v1.0b3"
PERFORMER "Crack The Sky"
TITLE "The Sale"
FILE "01 - The Sale- Introduction.wav" WAVE
TRACK 01 AUDIO
TITLE "The Sale: Introduction"
PERFORMER "Crack The Sky"
PREGAP 00:28:00
INDEX 01 00:00:00
FILE "02 - Prelude.wav" WAVE
TRACK 02 AUDIO
TITLE "Prelude"
PERFORMER "Crack The Sky"
INDEX 01 00:00:00
FILE "03 - American Refugee.wav" WAVE
TRACK 03 AUDIO
TITLE "American Refugee"
PERFORMER "Crack The Sky"
INDEX 01 00:00:00
FILE "04 - American Refugee Movement 2.wav" WAVE
TRACK 04 AUDIO
TITLE "American Refugee Movement 2"
PERFORMER "Crack The Sky"
INDEX 01 00:00:00
FILE "05 - The Voice of Revolution.wav" WAVE
TRACK 05 AUDIO
TITLE "The Voice of Revolution"
PERFORMER "Crack The Sky"
INDEX 01 00:00:00
FILE "06 - The Voice of Revolution Movement 2.wav" WAVE
TRACK 06 AUDIO
TITLE "The Voice of Revolution Movement 2"
PERFORMER "Crack The Sky"
INDEX 01 00:00:00
FILE "07 - A Letter Home.wav" WAVE
TRACK 07 AUDIO
TITLE "A Letter Home"
PERFORMER "Crack The Sky"
INDEX 01 00:00:00
FILE "08 - Immigration.wav" WAVE
TRACK 08 AUDIO
TITLE "Immigration"
PERFORMER "Crack The Sky"
INDEX 01 00:00:00
FILE "09 - Immigration Movement 2.wav" WAVE
TRACK 09 AUDIO
TITLE "Immigration Movement 2"
PERFORMER "Crack The Sky"
INDEX 01 00:00:00
TRACK 10 AUDIO
TITLE "A Prayer for the Childern"
PERFORMER "Crack The Sky"
INDEX 00 03:22:57
FILE "10 - A Prayer for the Childern.wav" WAVE
INDEX 01 00:00:00
FILE "11 - The Voice of Corporation.wav" WAVE
TRACK 11 AUDIO
TITLE "The Voice of Corporation"
PERFORMER "Crack The Sky"
INDEX 01 00:00:00
FILE "12 - L'Acte de Patriote.wav" WAVE
TRACK 12 AUDIO
TITLE "L'Acte de Patriote"
PERFORMER "Crack The Sky"
INDEX 01 00:00:00
FILE "13 - The Kingdom Grows.wav" WAVE
TRACK 13 AUDIO
TITLE "The Kingdom Grows"
PERFORMER "Crack The Sky"
INDEX 01 00:00:00
FILE "14 - The Face of God.wav" WAVE
TRACK 14 AUDIO
TITLE "The Face of God"
PERFORMER "Crack The Sky"
INDEX 01 00:00:00
FILE "15 - The Sale.wav" WAVE
TRACK 15 AUDIO
TITLE "The Sale"
PERFORMER "Crack The Sky"
INDEX 01 00:00:00


Image

Image

_________________


Top
 Profile E-mail  
 
 
PostPosted: 09 May 2017 
Хиппей (support team)
User avatar
Joined: 30 Jul 2007
Posts: 94393
Lоcаtion: Киев (Kyiv, UA)
Age: 44
Name: Andrey
Crack The Sky - Studio Albums [mp3]

Image

mirror: Depos l Narod l M-Cloud

_________________


Top
 Profile E-mail  
 
 
PostPosted: 10 May 2017 
Хиппей (support team)
User avatar
Joined: 30 Jul 2007
Posts: 94393
Lоcаtion: Киев (Kyiv, UA)
Age: 44
Name: Andrey
Crack The Sky - Boxset & Compilations [mp3]

Image

mirror: Depos l Narod l M-Cloud

_________________


Top
 Profile E-mail  
 
 
PostPosted: 10 May 2017 
Хиппей (support team)
User avatar
Joined: 30 Jul 2007
Posts: 94393
Lоcаtion: Киев (Kyiv, UA)
Age: 44
Name: Andrey
Crack The Sky - Live Albums [mp3]

Image

mirror: Depos l Narod l M-Cloud

_________________


Top
 Profile E-mail  
 
 
PostPosted: 10 May 2017 
Хиппей (support team)
User avatar
Joined: 30 Jul 2007
Posts: 94393
Lоcаtion: Киев (Kyiv, UA)
Age: 44
Name: Andrey
Несколько альбомов есть на Трахторе в лосях, но у меня пока нет времени, желания и смысла их и к нам переливать :pardon:
Возможно, постепенно и всё оттуда будет здесь. Во всяком случае, спасибо всем, кто расшаривал дискографию группы на сайте RuTracker :thanx: :thanx: :thanx:

_________________


Top
 Profile E-mail  
 
 
PostPosted: 14 May 2017 
спирт 100%
User avatar
Joined: 22 Sep 2008
Posts: 4112
Age: 46
Name: Саня
Crack The Sky - 1984 - The End

Image

A1 Monkey Time
A2 Skin Deep
A3 Ice
B1 Astro Boy
B2 All American Boy
B3 Nuclear Apathy
B4 Hot Razors

[160]


Top
 Profile  
 
 
PostPosted: 14 May 2017 
Хиппей (support team)
User avatar
Joined: 30 Jul 2007
Posts: 94393
Lоcаtion: Киев (Kyiv, UA)
Age: 44
Name: Andrey
:thanx:
Урря, Саня, спасибо :lob: :lob: :lob:

Запрос закрыт :kro:

_________________


Top
 Profile E-mail  
 
 
PostPosted: 14 May 2017 
спирт 100%
User avatar
Joined: 22 Sep 2008
Posts: 4112
Age: 46
Name: Саня
Scatterbrain wrote:
:thanx:
Урря, Саня, спасибо :lob: :lob: :lob:

Запрос закрыт :kro:



Блин, по ходу это не то :pardon:


Top
 Profile  
 
Display posts from previous:  Sort by  
Post new topic Reply to topic  [ 32 posts ]  Go to page Previous  1, 2

All times are UTC + 3 hours


Who is online

Users browsing this forum: No registered users and 1 guest


You cannot post new topics in this forum
You cannot reply to topics in this forum
You cannot edit your posts in this forum
You cannot delete your posts in this forum
You cannot post attachments in this forum

Search for:
Яндекс.Метрика
Powered by phpBB © 2000, 2002, 2005, 2007 phpBB Group