\m/ 80's metal \m/

Информационно-аналитический форум "80 см пыли" (In Search We Trust) "У нас никто никуда не спешит"
Железнодорожная биржа - RailAgent
It is currently 24 Sep 2017

All times are UTC + 3 hours

Spoiler
Chat - temporary registration for foreign users (please leave your application here)







Post new topic Reply to topic  [ 56 posts ]  Go to page Previous  1, 2, 3
Author Message
 
PostPosted: 09 Oct 2013 
\m/ 80 см сала \m/
User avatar
Joined: 12 Mar 2012
Posts: 2466
Age: 24
Name: Nick
Ресемплированная версия будет утром - только домой вернулся и нет сил ждать пока загрузится :pardon:
Мне именно мейнстримным, слащавым звучанием он и приглянулся, что-то вроде "почувствуй дух эпохи". Возможно, это связанно с тем, что последнюю неделю я гонял в плеере трэш\дез, и резкая перемена к более "спокойной" музыке пошла на пользу ушам и мозгам :true:

_________________
1990 AUROPHON BRAINSTORM (Germany) - lossless
1994 MAUSOLEUM CLASSIX (Belgium-Germany) - lossless
1998 VA - GRIM HARVEST - Complete Metal Massacre Volumes I-XII


Top
 Profile E-mail  
 
 
PostPosted: 11 Oct 2013 
\m/ 80 см сала \m/
User avatar
Joined: 12 Mar 2012
Posts: 2466
Age: 24
Name: Nick
Не прошло и недели :benya:
viewtopic.php?f=162&t=11832

_________________
1990 AUROPHON BRAINSTORM (Germany) - lossless
1994 MAUSOLEUM CLASSIX (Belgium-Germany) - lossless
1998 VA - GRIM HARVEST - Complete Metal Massacre Volumes I-XII


Top
 Profile E-mail  
 
 
PostPosted: 11 Oct 2013 
Хиппей (support team)
User avatar
Joined: 30 Jul 2007
Posts: 93243
Lоcаtion: Киев (Kyiv, UA)
Age: 44
Name: Andrey
Everhard wrote:
Не прошло и недели :benya:

И... по-моему, даром парился :vic:

_________________


Top
 Profile E-mail  
 
 
PostPosted: 11 Dec 2015 
Хиппей (support team)
User avatar
Joined: 30 Jul 2007
Posts: 93243
Lоcаtion: Киев (Kyiv, UA)
Age: 44
Name: Andrey
Объединю обе темки...

_________________


Top
 Profile E-mail  
 
 
PostPosted: 11 Dec 2015 
Хиппей (support team)
User avatar
Joined: 30 Jul 2007
Posts: 93243
Lоcаtion: Киев (Kyiv, UA)
Age: 44
Name: Andrey
Слепил две, а ещё две нашлось в разделе для лосей :crazy:

Ну, пусть теперь и здесь в виде ссылок поторчат:

:arrow: viewtopic.php?f=176&t=11816
:arrow: viewtopic.php?f=162&t=11832

_________________


Top
 Profile E-mail  
 
 
PostPosted: 12 Dec 2015 
консэрваторъ
Joined: 11 Aug 2007
Posts: 13793
Lоcаtion: Псков
Age: 43
Name: Сергей
Scatterbrain wrote:
lossless: iFolder l Narod l M-Cloud

Андрюх, там у тебя в архиве лог от компиляции какой-то что ли?..
Scatterbrain wrote:
Трек | Старт | Длительность | Начальный сектор | Конечный сектор
---------------------------------------------------------------------
1 | 0:00.00 | 3:25.42 | 0 | 15416
2 | 3:25.42 | 3:50.00 | 15417 | 32666
3 | 7:15.42 | 2:47.00 | 32667 | 45191
4 | 10:02.42 | 2:32.24 | 45192 | 56615
5 | 12:34.66 | 4:35.61 | 56616 | 77301
6 | 17:10.52 | 3:12.26 | 77302 | 91727
7 | 20:23.03 | 5:21.09 | 91728 | 115811
8 | 25:44.12 | 3:38.54 | 115812 | 132215
9 | 29:22.66 | 4:22.44 | 132216 | 151909
10 | 33:45.35 | 6:17.42 | 151910 | 180226

Вот только отсюда начинается Charon - Made in Aluminium 1986
11 | 40:03.02 | 3:43.62 | 180227 | 197013
12 | 43:46.64 | 3:09.00 | 197014 | 211188
13 | 46:55.64 | 3:42.33 | 211189 | 227871
14 | 50:38.22 | 3:47.15 | 227872 | 244911
15 | 54:25.37 | 4:55.15 | 244912 | 267051
16 | 59:20.52 | 4:35.25 | 267052 | 287701
17 | 63:56.02 | 3:36.00 | 287702 | 303901
18 | 67:32.02 | 3:24.00 | 303902 | 319201


Шо было в первых 10 треках?.. Признавайся... Может первый альбом в ремастированном виде на циде?.. Хотя по времени не сходится...
Scatterbrain wrote:
Charon - [Ger] - Discography [lossless]

Очень сомнительное название темы!.. Во-первых, покладена в мп3 запросах, во-вторых здесь нет первого альбома в лосе... По итогам дискографии не вышло... Может влить сюда Bulgarian Fuckin' Remaster 84 года и перенести куда нить?.. Или по крайней мере перименовать в mp3 & lossless ?

_________________
THRASH 'EM ALL


Top
 Profile E-mail  
 
 
PostPosted: 12 Dec 2015 
Я набрал 1000 сообщений!
User avatar
Joined: 21 Nov 2009
Posts: 1264
Lоcаtion: praga
Age: 47
Name: Сергей
Scatterbrain wrote:
lossless: iFolder l Narod l M-Cloud

Андрюх, там у тебя в архиве лог от компиляции какой-то что ли?..
Scatterbrain wrote:
Трек | Старт | Длительность | Начальный сектор | Конечный сектор
---------------------------------------------------------------------
1 | 0:00.00 | 3:25.42 | 0 | 15416
2 | 3:25.42 | 3:50.00 | 15417 | 32666
3 | 7:15.42 | 2:47.00 | 32667 | 45191
4 | 10:02.42 | 2:32.24 | 45192 | 56615
5 | 12:34.66 | 4:35.61 | 56616 | 77301
6 | 17:10.52 | 3:12.26 | 77302 | 91727
7 | 20:23.03 | 5:21.09 | 91728 | 115811
8 | 25:44.12 | 3:38.54 | 115812 | 132215
9 | 29:22.66 | 4:22.44 | 132216 | 151909
10 | 33:45.35 | 6:17.42 | 151910 | 180226

Вот только отсюда начинается Charon - Made in Aluminium 1986
11 | 40:03.02 | 3:43.62 | 180227 | 197013
12 | 43:46.64 | 3:09.00 | 197014 | 211188
13 | 46:55.64 | 3:42.33 | 211189 | 227871
14 | 50:38.22 | 3:47.15 | 227872 | 244911
15 | 54:25.37 | 4:55.15 | 244912 | 267051
16 | 59:20.52 | 4:35.25 | 267052 | 287701
17 | 63:56.02 | 3:36.00 | 287702 | 303901
18 | 67:32.02 | 3:24.00 | 303902 | 319201


Шо было в первых 10 треках?.. Признавайся... Может первый альбом в ремастированном виде на циде?.. Хотя по времени не сходится...
Scatterbrain wrote:
Charon - [Ger] - Discography [lossless]

Очень сомнительное название темы!.. Во-первых, покладена в мп3 запросах, во-вторых здесь нет первого альбома в лосе... По итогам дискографии не вышло... Может влить сюда Bulgarian Fuckin' Remaster 84 года и перенести куда нить?.. Или по крайней мере перименовать в mp3 & lossless ?

думаю: Bullet(ger)/Charon


Top
 Profile E-mail  
 
 
PostPosted: 12 Dec 2015 
Рарник и трушник
User avatar
Joined: 25 Dec 2009
Posts: 6544
Lоcаtion: Москва
Age: 52
Name: Виталий
А, чёт помню, была такая ператка вроде. Но я себе не брал. :(


Top
 Profile  
 
 
PostPosted: 12 Dec 2015 
Персональный статус
Joined: 05 Feb 2011
Posts: 305
Lоcаtion: Russia, Novosibirsk
Age: 43
Name: Андрей
А, чёт помню, была такая ператка вроде. Но я себе не брал. :(


Ага - в начале 2000-х покупал такую, вроде выкинул - не помню :benya:
http://www.ebay.com/itm/like/3219185824 ... rmvSB=true


Top
 Profile E-mail  
 
 
PostPosted: 12 Dec 2015 
консэрваторъ
Joined: 11 Aug 2007
Posts: 13793
Lоcаtion: Псков
Age: 43
Name: Сергей
Scatterbrain wrote:
lossless: iFolder l Narod l M-Cloud

Image Image

Без Bullet - No mercy цд-рип...

_________________
THRASH 'EM ALL


Top
 Profile E-mail  
 
 
PostPosted: 12 Dec 2015 
Анатолий
User avatar
Joined: 18 Oct 2008
Posts: 2671
Lоcаtion: Армавир
Age: 40
Name: Анатолий
У меня имеется такая в наличии.


Top
 Profile E-mail  
 
 
PostPosted: 12 Dec 2015 
Хиппей (support team)
User avatar
Joined: 30 Jul 2007
Posts: 93243
Lоcаtion: Киев (Kyiv, UA)
Age: 44
Name: Andrey
splatty wrote:
Без Bullet - No mercy цд-рип...

:thanx:

_________________


Top
 Profile E-mail  
 
 
PostPosted: 12 Dec 2015 
Хиппей (support team)
User avatar
Joined: 30 Jul 2007
Posts: 93243
Lоcаtion: Киев (Kyiv, UA)
Age: 44
Name: Andrey
splatty wrote:
Очень сомнительное название темы!.. Во-первых, покладена в мп3 запросах, во-вторых здесь нет первого альбома в лосе... По итогам дискографии не вышло... Может влить сюда Bulgarian Fuckin' Remaster 84 года и перенести куда нить?.. Или по крайней мере перименовать в mp3 & lossless ?

Серёг, я не знаю, как будет ли лучше, если сюда слепить тему с рипо-перезиливкой от Ника.
Просто дал на его тему ссылку. Дальше разберутся, кому нужно.
Лепи, если что, всё в ту тему, но выйдет фигня явною. Или в эту =) :vic:
А эту да, я ещё не спешил переносить в лослесс, так как задумался...

_________________


Top
 Profile E-mail  
 
 
PostPosted: 12 Dec 2015 
консэрваторъ
Joined: 11 Aug 2007
Posts: 13793
Lоcаtion: Псков
Age: 43
Name: Сергей
Scatterbrain wrote:
задумался...

И чего пришло на ум по итогам?..

_________________
THRASH 'EM ALL


Top
 Profile E-mail  
 
 
PostPosted: 13 Dec 2015 
Хиппей (support team)
User avatar
Joined: 30 Jul 2007
Posts: 93243
Lоcаtion: Киев (Kyiv, UA)
Age: 44
Name: Andrey
splatty wrote:
И чего пришло на ум по итогам?..

Scatterbrain wrote:
Лепи, если что, всё в ту тему

:thanx:

_________________


Top
 Profile E-mail  
 
 
PostPosted: 13 Dec 2015 
консэрваторъ
Joined: 11 Aug 2007
Posts: 13793
Lоcаtion: Псков
Age: 43
Name: Сергей
Scatterbrain wrote:
будет ли лучше, если сюда слепить тему с рипо-перезиливкой от Ника

Я как раз Колину тему и не хотел трогать то... Там чистый винильный релиз в правильном разделе!..
А вот булгарианфакинрип как раз можно замикшировать здесь, ляжет аккурат под этот пост viewtopic.php?p=140041#p140041
Делаю вообщем... :oops:

_________________
THRASH 'EM ALL


Top
 Profile E-mail  
 
Display posts from previous:  Sort by  
Post new topic Reply to topic  [ 56 posts ]  Go to page Previous  1, 2, 3

All times are UTC + 3 hours


Who is online

Users browsing this forum: No registered users and 1 guest


You cannot post new topics in this forum
You cannot reply to topics in this forum
You cannot edit your posts in this forum
You cannot delete your posts in this forum
You cannot post attachments in this forum

Search for:
Яндекс.Метрика
Powered by phpBB © 2000, 2002, 2005, 2007 phpBB Group