\m/ 80's metal \m/

Информационно-аналитический форум "80 см пыли" (In Search We Trust) "У нас никто никуда не спешит"
Железнодорожная биржа - RailAgent
It is currently 23 Aug 2017

All times are UTC + 3 hours

Spoiler
Chat - temporary registration for foreign users (please leave your application here)







Post new topic Reply to topic  [ 10 posts ] 
Author Message
 
PostPosted: 15 May 2014 
Partisanen - nicht kapitulieren!!
User avatar
Joined: 25 Dec 2011
Posts: 5470
Lоcаtion: партизанские леса
Age: 44
Name: Владимир
> Осталось найти: | Still looking:
Crown of Glory - 2001 - Destiny [Demo]


ищу
2005 - Spirit [EP]
Image
01. The Limit 03:55
02. Here We Are 06:55
03. Salvation 04:42
04. Art of Payback 04:24
05. Spirit 05:30
06. Keep the Flame 04:34 | +
phpBB [youtube]


унд
2001 - Destiny [Demo]
Image
01. Destiny 06:18
02. Crown of Glory 08:07
03. Crying Freeman 07:08
04. Don't Give Up 04:28
05. Immortal 08:06

Metal Archives

Spirit видел на бацбаце - только чойта у меня скачать не получилось :benya:

_________________
One more beer and Heavy Metal and I'm just fine!
старовер, куле... слово "блин" - до сих пор через Ъ говорю


Last edited by 32warlord1 on 15 May 2014, edited 1 time in total.

Top
 Profile E-mail  
 
 
PostPosted: 15 May 2014 
Персональный статус
User avatar
Joined: 28 Mar 2013
Posts: 415
Lоcаtion: Russia (Bryansk)
Age: 23
Name: Michael
Crown Of Glory - Spirit [EP] (2005)

У меня скачивает с батцбатца... :vic:

Зеркало: Cloud Mail


Top
 Profile E-mail  
 
 
PostPosted: 15 May 2014 
Partisanen - nicht kapitulieren!!
User avatar
Joined: 25 Dec 2011
Posts: 5470
Lоcаtion: партизанские леса
Age: 44
Name: Владимир
Liege Steel
Спасибо, земляк
а у меня чего-то не захотело... всё время ВИП втюхивает - куда тока не нажимал :vic:

_________________
One more beer and Heavy Metal and I'm just fine!
старовер, куле... слово "блин" - до сих пор через Ъ говорю


Top
 Profile E-mail  
 
 
PostPosted: 15 May 2014 
Partisanen - nicht kapitulieren!!
User avatar
Joined: 25 Dec 2011
Posts: 5470
Lоcаtion: партизанские леса
Age: 44
Name: Владимир
Crown Of Glory 2005 - Spirit [EP]
Image

Artist : Crown Of Glory
Album : Spirit [EP]
Genre : Melodic Heavy Metal
Site : http://www.crown-of-glory.ch/
Country : Switzerland
Year : 2005
Label : Self-released
Tracks : 6
Playtime : 00:30:02
Size : 69,35 MB
Codec : MPEG 1 Layer III/Lame 3.96/320 kbps

Tracklist :
01. The Limit (03:55)
02. Here We Are (06:55)
03. Salvation (04:42)
04. Art Of Payback (04:24)
05. Spirit (05:30)
06. Keep The Flame (04:34)
phpBB [youtube]


:arrow: mail.ru by Liege Steel
:arrow: mail.ru by 32warlord1

_________________
One more beer and Heavy Metal and I'm just fine!
старовер, куле... слово "блин" - до сих пор через Ъ говорю


Top
 Profile E-mail  
 
 
PostPosted: 15 May 2014 
Хиппей (support team)
User avatar
Joined: 30 Jul 2007
Posts: 92430
Lоcаtion: Киев (Kyiv, UA)
Age: 44
Name: Andrey
:thanx:

mirror: Narod l M-Cloud

_________________


Top
 Profile E-mail  
 
 
PostPosted: 20 May 2014 
Хиппей (support team)
User avatar
Joined: 30 Jul 2007
Posts: 92430
Lоcаtion: Киев (Kyiv, UA)
Age: 44
Name: Andrey
32warlord1 wrote:
Crown Of Glory 2005 - Spirit [EP]

Ну, так себе...
По мне, так очередная "Хэлловинщина" в духе начала 90-х, не заслуживающая особого внимания :pardon:

_________________


Top
 Profile E-mail  
 
 
PostPosted: 23 May 2014 
Power Metal Maniac
User avatar
Joined: 09 Aug 2008
Posts: 5555
Lоcаtion: Москва
Age: 39
Name: Егор
Любая хэлловинщина и Power Metal заслуживает внимания)) правда, данную группу еще не слушал.

_________________
Long Live Metal!


Top
 Profile  
 
 
PostPosted: 06 Sep 2015 
Хиппей (support team)
User avatar
Joined: 30 Jul 2007
Posts: 92430
Lоcаtion: Киев (Kyiv, UA)
Age: 44
Name: Andrey
Crown Of Glory - 2008 - A Deep Breath Of Life [VBR]

Image

mirror: iFolder l M-Cloud l Narod

Уже не хэлловинщина, а вполне себе современная, оригинальная и качественная павер-метол работа :meloman:

6+/10

_________________


Top
 Profile E-mail  
 
 
PostPosted: 07 Sep 2015 
Хиппей (support team)
User avatar
Joined: 30 Jul 2007
Posts: 92430
Lоcаtion: Киев (Kyiv, UA)
Age: 44
Name: Andrey
Crown Of Glory - 20014 - King For A Day [320]

Image

Снова так себе альбомчик....
Пару песен хитовые, остальное фигня :fingal:

mirror: iFolder l Narod l M-Cloud

_________________


Top
 Profile E-mail  
 
 
PostPosted: 08 Sep 2015 
Хиппей (support team)
User avatar
Joined: 30 Jul 2007
Posts: 92430
Lоcаtion: Киев (Kyiv, UA)
Age: 44
Name: Andrey
Crown Of Glory - 2007 - Breath Of Life [flac]

Image Image Image Image

mirror: iFolder l Narod l M-Cloud

Image Image Image Image Image Image Image Image

log
Exact Audio Copy V0.99 prebeta 1 from 25. May 2007

EAC extraction logfile from 7. February 2012, 8:15

Crown Of Glory / Breath Of Life

Used drive : Optiarc DVD RW AD-7201S Adapter: 1 ID: 1

Read mode : Secure
Utilize accurate stream : Yes
Defeat audio cache : Yes
Make use of C2 pointers : No

Read offset correction : 48
Overread into Lead-In and Lead-Out : No
Fill up missing offset samples with silence : Yes
Delete leading and trailing silent blocks : No
Used interface : Installed external ASPI interface

Used output format : Internal WAV Routines
Sample format : 44.100 Hz; 16 Bit; Stereo


TOC of the extracted CD

Track | Start | Length | Start sector | End sector
---------------------------------------------------------
1 | 0:00.00 | 5:01.43 | 0 | 22617
2 | 5:01.43 | 6:28.69 | 22618 | 51786
3 | 11:30.37 | 5:56.14 | 51787 | 78500
4 | 17:26.51 | 6:20.18 | 78501 | 107018
5 | 23:46.69 | 3:50.63 | 107019 | 124331
6 | 27:37.57 | 7:56.07 | 124332 | 160038
7 | 35:33.64 | 5:16.57 | 160039 | 183795
8 | 40:50.46 | 4:56.52 | 183796 | 206047
9 | 45:47.23 | 5:00.48 | 206048 | 228595
10 | 50:47.71 | 4:49.30 | 228596 | 250300
11 | 55:37.26 | 6:43.38 | 250301 | 280563


Range status and errors

Selected range

Filename E:\CUE\Crown Of Glory - Breath Of Life.wav

Peak level 69.3 %
Range quality 100.0 %
Copy CRC E1A18340
Copy OK

No errors occurred

End of status report

cue
REM GENRE "Melodic Metal"
REM DATE 2007
REM DISCID 9A0E9C0B
REM COMMENT "ExactAudioCopy v0.99pb1"
PERFORMER "Crown Of Glory"
TITLE "Breath Of Life"
FILE "Crown Of Glory - Breath Of Life.flac" WAVE
TRACK 01 AUDIO
TITLE "The Calling"
PERFORMER "Crown Of Glory"
INDEX 01 00:00:00
TRACK 02 AUDIO
TITLE "Pathfinder"
PERFORMER "Crown Of Glory"
INDEX 01 05:01:43
TRACK 03 AUDIO
TITLE "The Raven's Flight"
PERFORMER "Crown Of Glory"
INDEX 01 11:30:37
TRACK 04 AUDIO
TITLE "Inspiration"
PERFORMER "Crown Of Glory"
INDEX 01 17:26:51
TRACK 05 AUDIO
TITLE "The Prophecy"
PERFORMER "Crown Of Glory"
INDEX 01 23:46:69
TRACK 06 AUDIO
TITLE "Save Me"
PERFORMER "Crown Of Glory"
INDEX 01 27:37:57
TRACK 07 AUDIO
TITLE "Anthem Of The End"
PERFORMER "Crown Of Glory"
INDEX 01 35:33:64
TRACK 08 AUDIO
TITLE "Mirror Mirror"
PERFORMER "Crown Of Glory"
INDEX 01 40:50:46
TRACK 09 AUDIO
TITLE "Ikarus"
PERFORMER "Crown Of Glory"
INDEX 01 45:47:23
TRACK 10 AUDIO
TITLE "See You Rise"
PERFORMER "Crown Of Glory"
INDEX 01 50:47:71
TRACK 11 AUDIO
TITLE "The Lament Of The Wind"
PERFORMER "Crown Of Glory"
INDEX 01 55:37:26


В общем, и этот альбом не понравился. Слишком "сладостей" много. Так что пока 08-й самый лучший.
Но тоже не фонтан, если судить глобально, а не относительно одной взятой группки :pardon:

_________________


Top
 Profile E-mail  
 
Display posts from previous:  Sort by  
Post new topic Reply to topic  [ 10 posts ] 

All times are UTC + 3 hours


Who is online

Users browsing this forum: No registered users and 2 guests


You cannot post new topics in this forum
You cannot reply to topics in this forum
You cannot edit your posts in this forum
You cannot delete your posts in this forum
You cannot post attachments in this forum

Search for:
Яндекс.Метрика
Powered by phpBB © 2000, 2002, 2005, 2007 phpBB Group