\m/ 80's metal \m/

Информационно-аналитический форум "80 см пыли" (In Search We Trust) "У нас никто никуда не спешит"
Железнодорожная биржа - RailAgent
It is currently 22 Aug 2017

All times are UTC + 3 hours

Spoiler
Chat - temporary registration for foreign users (please leave your application here)







Post new topic Reply to topic  [ 22 posts ]  Go to page Previous  1, 2
Author Message
 
PostPosted: 27 Jul 2013 
Хиппей (support team)
User avatar
Joined: 30 Jul 2007
Posts: 92355
Lоcаtion: Киев (Kyiv, UA)
Age: 44
Name: Andrey
Короче. уснуть не получилось :esel:
Альбом вроде простой и понятный, но, цуко, странный какой-то. Вообще не цепляет, не злит и ну вот вообще какой-то... фригидный :shok:

3/10

_________________


Top
 Profile E-mail  
 
 
PostPosted: 01 Sep 2013 
Студентег
User avatar
Joined: 28 Aug 2007
Posts: 4913
Lоcаtion: г. Москва
Age: 28
Name: Дима
Image

Label: Self-Released
Genre: Heavy Metal
Country: Germany
Format: Flac + Log + Cue + Covers
Size: 407 Mb

Line-Up:
Ronny Henrich - Vocals, Flute
Patrick Dobener - Guitars, Vocals (backing)
Jens Schwehn - Guitars, Vocals (backing)
Florian Hudel - Bass
Alexander Weitzel - Keyboards
Kemal Hermanni - Drums


Tracklist:
1. Access 04:36
2. Just Tonight 07:37
3. Land of the Unknown 06:56
4. Sign of Victory 05:21
5. Love in My Heart 06:33
6. Feel the Fire 05:56
7. Run 05:19
8. Wheel in the Sky 04:28
9. Blackbird 03:08
10. Don't Leave Me Tonight 06:54

LOG
Exact Audio Copy V0.99 prebeta 5 from 4. May 2009

EAC extraction logfile from 1. September 2013, 19:17

Chateau Disaster / Access

Used drive : PIONEER DVD-RW DVR-116D Adapter: 0 ID: 0

Read mode : Secure
Utilize accurate stream : Yes
Defeat audio cache : Yes
Make use of C2 pointers : No

Read offset correction : 96
Overread into Lead-In and Lead-Out : No
Fill up missing offset samples with silence : Yes
Delete leading and trailing silent blocks : No
Null samples used in CRC calculations : Yes
Used interface : Native Win32 interface for Win NT & 2000

Used output format : User Defined Encoder
Selected bitrate : 32 kBit/s
Quality : High
Add ID3 tag : No
Command line compressor : C:\Program Files\Exact Audio Copy\Flac\flac.exe
Additional command line options : -6 -V %s


TOC of the extracted CD

Track | Start | Length | Start sector | End sector
---------------------------------------------------------
1 | 0:00.00 | 4:36.52 | 0 | 20751
2 | 4:36.52 | 7:37.70 | 20752 | 55096
3 | 12:14.47 | 6:56.45 | 55097 | 86341
4 | 19:11.17 | 5:21.45 | 86342 | 110461
5 | 24:32.62 | 6:33.33 | 110462 | 139969
6 | 31:06.20 | 5:56.52 | 139970 | 166721
7 | 37:02.72 | 5:19.20 | 166722 | 190666
8 | 42:22.17 | 4:28.28 | 190667 | 210794
9 | 46:50.45 | 3:08.60 | 210795 | 224954
10 | 49:59.30 | 6:54.35 | 224955 | 256039


Range status and errors

Selected range

Filename D:\Музыка\Lossless\Chateau Disaster - Access (1996) flac\Chateau Disaster - Access.wav

Peak level 99.0 %
Range quality 100.0 %
Copy CRC 40BEB56E
Copy OK

No errors occurred


AccurateRip summary

Track 1 not present in database
Track 2 not present in database
Track 3 not present in database
Track 4 not present in database
Track 5 not present in database
Track 6 not present in database
Track 7 not present in database
Track 8 not present in database
Track 9 not present in database
Track 10 not present in database

None of the tracks are present in the AccurateRip database

End of status report

CUE
REM GENRE "Heavy Metal"
REM DATE 1996
REM DISCID 7E0D550A
REM COMMENT "ExactAudioCopy v0.99pb5"
PERFORMER "Chateau Disaster"
TITLE "Access"
FILE "Chateau Disaster - Access.flac" WAVE
TRACK 01 AUDIO
TITLE "Access"
PERFORMER "Chateau Disaster"
INDEX 01 00:00:00
TRACK 02 AUDIO
TITLE "Just Tonight"
PERFORMER "Chateau Disaster"
INDEX 00 04:35:32
INDEX 01 04:36:52
TRACK 03 AUDIO
TITLE "Land Of The Unknown"
PERFORMER "Chateau Disaster"
INDEX 00 12:12:43
INDEX 01 12:14:47
TRACK 04 AUDIO
TITLE "Sign My Victory"
PERFORMER "Chateau Disaster"
INDEX 00 19:09:34
INDEX 01 19:11:17
TRACK 05 AUDIO
TITLE "Love In My Heart"
PERFORMER "Chateau Disaster"
INDEX 00 24:30:39
INDEX 01 24:32:62
TRACK 06 AUDIO
TITLE "Feel The Fire"
PERFORMER "Chateau Disaster"
INDEX 00 31:04:07
INDEX 01 31:06:20
TRACK 07 AUDIO
TITLE "Run"
PERFORMER "Chateau Disaster"
INDEX 00 37:00:59
INDEX 01 37:02:72
TRACK 08 AUDIO
TITLE "Wheel In The Sky"
PERFORMER "Chateau Disaster"
INDEX 00 42:20:59
INDEX 01 42:22:17
TRACK 09 AUDIO
TITLE "Blackbird"
PERFORMER "Chateau Disaster"
INDEX 00 46:48:57
INDEX 01 46:50:45
TRACK 10 AUDIO
TITLE "Dont't Leave Me Tonight"
PERFORMER "Chateau Disaster"
INDEX 01 49:59:30


Rusfolder

Собственно среднетемповые композиции с крепким вокалом, музыка такая довольно "воздушная", но в отличии от Андрюхи, мне альбом понравился, думаю своего слушателя он найдет) Хотя музыка двоична-третична.. Сашке спруту должно понравиться)


Top
 Profile E-mail  
 
Display posts from previous:  Sort by  
Post new topic Reply to topic  [ 22 posts ]  Go to page Previous  1, 2

All times are UTC + 3 hours


Who is online

Users browsing this forum: No registered users and 2 guests


You cannot post new topics in this forum
You cannot reply to topics in this forum
You cannot edit your posts in this forum
You cannot delete your posts in this forum
You cannot post attachments in this forum

Search for:
Яндекс.Метрика
Powered by phpBB © 2000, 2002, 2005, 2007 phpBB Group