\m/ 80's metal \m/

Информационно-аналитический форум "80 см пыли" (In Search We Trust) "У нас никто никуда не спешит"
Me For You - http://me-4u.com
It is currently 24 Jun 2019

All times are UTC + 3 hours

Spoiler
Chat - temporary registration for foreign users (please leave your application here)







Post new topic Reply to topic  [ 16 posts ] 
Author Message
 
PostPosted: 26 Aug 2010 
адын фелософъ прокметолу
User avatar
Joined: 22 Oct 2009
Posts: 2761
Lоcаtion: Сочи
Age: 42
Name: Сергей
в поиске

Black Rose (Gbr) - Black Rose (Demo) 1981

1. Alright on the night
2. Biker
3. Ready, Aim, Fire
4. Killer
5. Loveshock
6. Raising Hell

обложка отсутствует

Black Rose (Gbr) - Black Rose (Single) 1982

Image

1. No Point Runnin' 04:40
2. Sucker for Your Love 04:48

Black Rose (Gbr) - Nightmare (EP) 1985

Image

1. Nightmare 05:13
2. Need a lot of Lovin' 04:14
3. Rock Me Hard 03:43
4. Breakaway 03:39

Black Rose (Gbr) - Demo 1989

1. Walk Like a Woman
2. Come and Stay the Night
3. Go, Go, Go (Down to the City)

обложка отсутстует

сойдёт любой битреид
:thanx: :thanx: :thanx:

_________________
Я ненавижу гранж и альтернативную музыку


Top
 Profile E-mail  
 
 
PostPosted: 26 Aug 2010 
А может смените мне статус?..
User avatar
Joined: 28 Oct 2009
Posts: 662
Lоcаtion: Sweden
Age: 32
Name: Emil
Black Rose - No Point Runnin' [Single] (1982)
Image

192kbps: http://www.mediafire.com/?izzyozz2din
320kbps: http://www.4shared.com/file/TE43vz9p/320kbps.html
Password: strappado

Tracklist:
1. No Point Runnin'
2. Sucker for your Love

_________________
http://strappadometalblog.blogspot.com | http://heavymetalrarities.com/forum


Top
 Profile E-mail  
 
 
PostPosted: 26 Aug 2010 
адын фелософъ прокметолу
User avatar
Joined: 22 Oct 2009
Posts: 2761
Lоcаtion: Сочи
Age: 42
Name: Сергей
Thank You, Emil :thanx: :thanx: :thanx:

_________________
Я ненавижу гранж и альтернативную музыку


Top
 Profile E-mail  
 
 
PostPosted: 26 Aug 2010 
А может смените мне статус?..
User avatar
Joined: 30 Aug 2009
Posts: 824
Lоcаtion: Ачинск, Красноярский край
Age: 33
Name: Стас
Black Rose (Gbr) - Nightmare (EP) 1985 :umnik:
http://boundedbymetal.blogspot.com/2009 ... ingle.html


Top
 Profile E-mail  
 
 
PostPosted: 26 Aug 2010 
А может смените мне статус?..
User avatar
Joined: 28 Oct 2009
Posts: 662
Lоcаtion: Sweden
Age: 32
Name: Emil
Image

Mirror link for the Nightmare EP:
224kbps: http://www.4shared.com/file/sWTHm0N9/Bl ... __198.html

Tracklist:
1. Nightmare
2. Need a lot of Lovin'
3. Rock Me Hard
4. Breakaway

_________________
http://strappadometalblog.blogspot.com | http://heavymetalrarities.com/forum


Top
 Profile E-mail  
 
 
PostPosted: 26 Aug 2010 
А может смените мне статус?..
User avatar
Joined: 28 Oct 2009
Posts: 662
Lоcаtion: Sweden
Age: 32
Name: Emil
Image

128kbps: http://www.4shared.com/file/oXe5YOnh/Bl ... strap.html

"The demo was recorded at Impulse studios in Wallsend, Newcastle and the track listing for this demo was:
'Alright on the Night', 'Biker', 'Ready-Aim-Fire', 'Killer', 'Loveshock' and 'Raising Hell'"

It seems like the track "Killer" is missing on this rip, really sorry about that.. maybe someone have a better rip.

Tracklist:
1. Biker
2. Ready-Aim-Fire
3. Killer [Missing]
4. Loveshock
5. Raising Hell

_________________
http://strappadometalblog.blogspot.com | http://heavymetalrarities.com/forum


Top
 Profile E-mail  
 
 
PostPosted: 26 Aug 2010 
адын фелософъ прокметолу
User avatar
Joined: 22 Oct 2009
Posts: 2761
Lоcаtion: Сочи
Age: 42
Name: Сергей
Ух тыж на несколько часов в магазин за пивом отлучилсь а тут почти весь Black Rose залили.
Ну спасибо. Пью за вас ребята :drink:

_________________
Я ненавижу гранж и альтернативную музыку


Top
 Profile E-mail  
 
 
PostPosted: 28 Aug 2010 
Работнечег
User avatar
Joined: 28 Aug 2007
Posts: 5887
Lоcаtion: г. Москва
Age: 30
Name: Дима
Thanks, Emil! :thanx:
У группы кстати новый альбом вышел Cure For Your Disease (2010). Правда насколько я понял на диске его выпускать не планируется, так что только качать со всяких амазонов,ITunes и т.д. :(


Top
 Profile E-mail  
 
 
PostPosted: 02 Sep 2010 
А может смените мне статус?..
User avatar
Joined: 28 Oct 2009
Posts: 662
Lоcаtion: Sweden
Age: 32
Name: Emil
Black Rose - Bright Lights Burnin' - The Anthology [Compilation] (2005)
Image

Collection of remastered songs from the '82-'88 period.
Link (224kbps VBR): http://www.megaupload.com/?d=UDONM0XB

Tracklist:
1. No Point Runnin'
2. Sucker For Your Love
3. Red Light Lady
4. We're Gonna Rock You
5. Boys Will Be Boys
6. Stand Your Ground
7. Fun & Games
8. Baby Believe Me
9. Party Animal
10. California USA
11. E.Z.L.Y.
12. Walk It How You Talk It
13. Wanted
14. Bright Lights Burnin'
15. Want Your Love

_________________
http://strappadometalblog.blogspot.com | http://heavymetalrarities.com/forum


Top
 Profile E-mail  
 
 
PostPosted: 26 Mar 2019 
5-speed satisfactor
User avatar
Joined: 16 Feb 2009
Posts: 3737
Lоcаtion: New York, USA
Age: 41
Name: Leonid
Thanks, Emil! :thanx:
У группы кстати новый альбом вышел Cure For Your Disease (2010). Правда насколько я понял на диске его выпускать не планируется, так что только качать со всяких амазонов,ITunes и т.д. :(



Наконец-то добрался до альбома. Плююсь и блюю. Я такой музлон терпеть не могу. Какие-то рок'н'рольные однообразные риффы в среднем темпе, причем у всех подобных групп на одно лицо. 0/10.

_________________
Death rules! Metal to all who oppose!


Top
 Profile  
 
 
PostPosted: 26 Mar 2019 
Хиппей (support team)
User avatar
Joined: 30 Jul 2007
Posts: 113108
Lоcаtion: Киев (Kyiv, UA)
Age: 46
Name: Andrey
О, а я вообще к топику данному ещё не подошёл. Качну-с, хотя и помню, шо попсу играли :meloman:

:thanx: :thanx: :thanx:

_________________


Top
 Profile E-mail  
 
 
PostPosted: 26 Mar 2019 
Хиппей (support team)
User avatar
Joined: 30 Jul 2007
Posts: 113108
Lоcаtion: Киев (Kyiv, UA)
Age: 46
Name: Andrey
Мдя.. все ссылки дохлые здеся от Эмиля.
Качну это вот :arrow: https://rutracker.org/forum/viewtopic.php?t=4755567

_________________


Top
 Profile E-mail  
 
 
PostPosted: 26 Mar 2019 
5-speed satisfactor
User avatar
Joined: 16 Feb 2009
Posts: 3737
Lоcаtion: New York, USA
Age: 41
Name: Leonid
Какой нах это NWBHM? Глэм это. Волосатый рок!

_________________
Death rules! Metal to all who oppose!


Top
 Profile  
 
 
PostPosted: 27 Mar 2019 
Хиппей (support team)
User avatar
Joined: 30 Jul 2007
Posts: 113108
Lоcаtion: Киев (Kyiv, UA)
Age: 46
Name: Andrey
Главное, шоб не волосатый лоб(ок) :lloo:

_________________


Top
 Profile E-mail  
 
 
PostPosted: 01 Apr 2019 
Хиппей (support team)
User avatar
Joined: 30 Jul 2007
Posts: 113108
Lоcаtion: Киев (Kyiv, UA)
Age: 46
Name: Andrey
Какой нах это NWBHM? Глэм это. Волосатый рок!

Явно ты уже поздние альбомы слушал.

В общем, и я оценил вот этот:

Black Rose - 2010 - Cure For Your Disease [flac]

Image Image Image

mirror: Ur-Files l Uloz l Narod l M-Cloud

Ага, попсовенький мелодик хэви с парочкой хитовых вещей.
Ничего интересного, собственно :pardon:

5/10

Image Image

Image Image

log
Exact Audio Copy V1.0 beta 3 from 29. August 2011

EAC extraction logfile from 3. June 2014, 1:12

Black Rose / Cure For Your Disease

Used drive : hp DVDRAM GT30L Adapter: 0 ID: 0

Read mode : Secure
Utilize accurate stream : Yes
Defeat audio cache : Yes
Make use of C2 pointers : No

Read offset correction : 103
Overread into Lead-In and Lead-Out : No
Fill up missing offset samples with silence : Yes
Delete leading and trailing silent blocks : No
Null samples used in CRC calculations : Yes
Used interface : Native Win32 interface for Win NT & 2000

Used output format : User Defined Encoder
Selected bitrate : 128 kBit/s
Quality : High
Add ID3 tag : No
Command line compressor : C:\Program Files (x86)\Exact Audio Copy\FLAC\FLAC.EXE
Additional command line options : -V -8 -T "Date=%year%" -T "Genre=%genre%" -T"COMMENT=Ripped by korrOZZYya" -8 -V %source%


TOC of the extracted CD

Track | Start | Length | Start sector | End sector
---------------------------------------------------------
1 | 0:00.00 | 5:18.35 | 0 | 23884
2 | 5:18.35 | 3:43.10 | 23885 | 40619
3 | 9:01.45 | 4:50.19 | 40620 | 62388
4 | 13:51.64 | 3:30.48 | 62389 | 78186
5 | 17:22.37 | 3:32.07 | 78187 | 94093
6 | 20:54.44 | 4:53.18 | 94094 | 116086
7 | 25:47.62 | 3:31.26 | 116087 | 131937
8 | 29:19.13 | 4:20.15 | 131938 | 151452
9 | 33:39.28 | 3:39.54 | 151453 | 167931
10 | 37:19.07 | 4:26.05 | 167932 | 187886
11 | 41:45.12 | 4:58.37 | 187887 | 210273
12 | 46:43.49 | 4:49.27 | 210274 | 231975


Range status and errors

Selected range

Filename D:\Music\korrOZZYya\Black Rose - Cure For Your Disease - 2010\Black Rose - Cure For Your Disease.wav

Peak level 100.0 %
Extraction speed 2.1 X
Range quality 100.0 %
Test CRC 05E436D3
Copy CRC 05E436D3
Copy OK

No errors occurred


AccurateRip summary

Track 1 not present in database
Track 2 not present in database
Track 3 not present in database
Track 4 not present in database
Track 5 not present in database
Track 6 not present in database
Track 7 not present in database
Track 8 not present in database
Track 9 not present in database
Track 10 not present in database
Track 11 not present in database
Track 12 not present in database

None of the tracks are present in the AccurateRip database

End of status report

---- CUETools DB Plugin V2.1.3

[CTDB TOCID: NWUsx4p96HWZoEtEK7YPtOaWLaA-] found, Submit result: already submitted
[d105aa1e] (2/2) Accurately ripped


==== Log checksum 207AABEEC0FC7FB68A26B542D798EFC1196F47FBAA6F6639BC898EF5A2255FEA ====

cue
REM GENRE Rock
REM DISCID 850C150C
REM COMMENT "ExactAudioCopy v1.0b3"
PERFORMER "Black Rose"
TITLE "Cure For Your Disease"
FILE "Black Rose - Cure For Your Disease.flac" WAVE
TRACK 01 AUDIO
TITLE "Cure For Your Disease"
PERFORMER "Black Rose"
FLAGS DCP
INDEX 01 00:00:00
TRACK 02 AUDIO
TITLE "Sign Of The Times"
PERFORMER "Black Rose"
FLAGS DCP
INDEX 01 05:18:35
TRACK 03 AUDIO
TITLE "Twice Shy Once Bitten"
PERFORMER "Black Rose"
FLAGS DCP
INDEX 01 09:01:45
TRACK 04 AUDIO
TITLE "Fight For Your Life"
PERFORMER "Black Rose"
FLAGS DCP
INDEX 01 13:51:64
TRACK 05 AUDIO
TITLE "Doghouse"
PERFORMER "Black Rose"
FLAGS DCP
INDEX 01 17:22:37
TRACK 06 AUDIO
TITLE "Baby Believe Me"
PERFORMER "Black Rose"
FLAGS DCP
INDEX 01 20:54:44
TRACK 07 AUDIO
TITLE "Love Addiction"
PERFORMER "Black Rose"
FLAGS DCP
INDEX 01 25:47:62
TRACK 08 AUDIO
TITLE "Killing Yourself To Live"
PERFORMER "Black Rose"
FLAGS DCP
INDEX 01 29:19:13
TRACK 09 AUDIO
TITLE "Got Me Were You Want Me"
PERFORMER "Black Rose"
FLAGS DCP
INDEX 01 33:39:28
TRACK 10 AUDIO
TITLE "Rock Renegades"
PERFORMER "Black Rose"
FLAGS DCP
INDEX 01 37:19:07
TRACK 11 AUDIO
TITLE "Take It Easy"
PERFORMER "Black Rose"
FLAGS DCP
INDEX 01 41:45:12
TRACK 12 AUDIO
TITLE "So Predictable"
PERFORMER "Black Rose"
FLAGS DCP
INDEX 01 46:43:49

_________________


Top
 Profile E-mail  
 
 
PostPosted: 10 Apr 2019 
А может смените мне статус?..
Joined: 11 Sep 2010
Posts: 524
Lоcаtion: Тверь
Age: 46
Name: Сергей
:thanx:


Top
 Profile E-mail  
 
Display posts from previous:  Sort by  
Post new topic Reply to topic  [ 16 posts ] 

All times are UTC + 3 hours


Who is online

Users browsing this forum: No registered users and 2 guests


You cannot post new topics in this forum
You cannot reply to topics in this forum
You cannot edit your posts in this forum
You cannot delete your posts in this forum
You cannot post attachments in this forum

Search for:
Яндекс.Метрика
Powered by phpBB © 2000, 2002, 2005, 2007 phpBB Group