\m/ 80's metal \m/

Информационно-аналитический форум "80 см пыли" (In Search We Trust) "У нас никто никуда не спешит"
Me For You - http://me-4u.com
It is currently 16 Dec 2018

All times are UTC + 3 hours

Spoiler
Chat - temporary registration for foreign users (please leave your application here)







Post new topic Reply to topic  [ 23 posts ]  Go to page 1, 2  Next
Author Message
 
PostPosted: 27 Jul 2010 
10cm
Joined: 08 Jul 2010
Posts: 83
Lоcаtion: armenia
Name: Vahan
Ищу группу Bloodstone с альбомом 95 года Valley Of The Machines, в зарубежных торренттрекерах есть но никак не скачивается,нет сидеров.

Image

Трэклист
1. Oasis for the Blind 06:28
2. Fight for Jerusalem 05:42
3. Ziggy Stardust (David Bowie Cover) 02:58
4. Johnny´s Playground 04:23
5. Heart in Flames 05:33
6. Really There! 05:09
7. I Love it Wild 02:59
8. Dream Time 04:59
9. Prisoner of Hell 04:26
10. Right Train to Nowhere 08:40
11. Lost Horizons 03:37
12. We Will Be Strong 03:53


Top
 Profile E-mail  
 
 
PostPosted: 29 Jul 2010 
А может смените мне статус?..
Joined: 23 Feb 2008
Posts: 723
Lоcаtion: ленинградская обл
Age: 58
Name: олег
на металарее был но ссылка сдохла


Top
 Profile  
 
 
PostPosted: 29 Jul 2010 
Хиппей (support team)
User avatar
Joined: 30 Jul 2007
Posts: 108945
Lоcаtion: Киев (Kyiv, UA)
Age: 45
Name: Andrey
Да много где он был.
Хм, найдется позже сам по себе, как часто бывает.

_________________


Top
 Profile E-mail  
 
 
PostPosted: 29 Jul 2010 
10cm
Joined: 08 Jul 2010
Posts: 83
Lоcаtion: armenia
Name: Vahan
нашел ребята http://www.megaupload.com/?d=IN1HOGXG


Top
 Profile E-mail  
 
 
PostPosted: 29 Jul 2010 
Хиппей (support team)
User avatar
Joined: 30 Jul 2007
Posts: 108945
Lоcаtion: Киев (Kyiv, UA)
Age: 45
Name: Andrey
Ну вот :true:
А где именно нашёл?

_________________


Top
 Profile E-mail  
 
 
PostPosted: 29 Jul 2010 
10cm
Joined: 08 Jul 2010
Posts: 83
Lоcаtion: armenia
Name: Vahan
спасибо что просветил о сайте http://hardrockcity.b1.jcink.com/ , именно там и лежал :true:


Top
 Profile E-mail  
 
 
PostPosted: 29 Jul 2010 
Хиппей (support team)
User avatar
Joined: 30 Jul 2007
Posts: 108945
Lоcаtion: Киев (Kyiv, UA)
Age: 45
Name: Andrey
Угу, норм. В следующий раз указывай источник, откуда взял ссылку. Это неписанные правила вежливого поведения в Интернете :pardon:

_________________


Top
 Profile E-mail  
 
 
PostPosted: 29 Jul 2010 
10cm
Joined: 08 Jul 2010
Posts: 83
Lоcаtion: armenia
Name: Vahan
ok :true:


Top
 Profile E-mail  
 
 
PostPosted: 27 Nov 2018 
5cm
User avatar
Joined: 16 Apr 2010
Posts: 73
Lоcаtion: CZ
Age: 55
Name: komik363
EAC-flac image, all scans 300 dpi

Code:
http://www.mediafire.com/file/g8rgb8cc8fjbp7f/BVotM.zip/file


.


Top
 Profile E-mail  
 
 
PostPosted: 28 Nov 2018 
Хиппей (support team)
User avatar
Joined: 30 Jul 2007
Posts: 108945
Lоcаtion: Киев (Kyiv, UA)
Age: 45
Name: Andrey
:thanx:

Image Image Image Image Image

Image Image Image Image

Image Image Image

mirror: Uloz l Drop l Narod l M-Cloud

log
Exact Audio Copy V0.99 prebeta 4 from 23. January 2008

Zбznam extrakce EAC z 20. Listopad 2018, 8:48

Neznбmэ autor / Neznбmэ nбzev

Pouћitб mechanika : hp DVDRW DU8AESH Adapter: 1 ID: 0

Reћim иtenн : Bezpeиnэ
Pouћнt accurate stream : Ano
Obejнt zvukovou vyr. pamмќ : Ano
Pouћнt C2 ukazatele : Ne

Korekce vychэlenн иtenн : 6
Инst lead-in a lead-out : Ne
Nahradit chybмjнcн vzorky tichem : Ano
Smazat ticho na zaибtku a na konci stop : Ne
Pшi vэpoиtu CRC pouћity nulovй vzorky : Ne
Pouћitй rozhranн : Integrovanй Win32 rozhranн pro NT/2k/XP

Pouћitэ vэstupnн formбt : Uћivatelsky definovanэ encoder
Zvolenэ bitrate : 768 kBit/s
Kvalita : Vysokб
Pшidat ID3 tag : Ne
Komprimaиnн program pro pшнkazovэ шбdek : C:\Program Files\aaaPortable\Exact Audio Copy\FLAC\FLAC.EXE
Dodateиnй parametry : -6 -V -T "ARTIST=%a" -T "TITLE=%t" -T "ALBUM=%g" -T "DATE=%y" -T "TRACKNUMBER=%n" -T "GENRE=%m" -T "COMMENT=%e" %s -o %d


TOC extrahovanйho CD

Stopa | Poибtek | Dйlka | Poибteиnн sektor | Koncovэ sektor
-----------------------------------------------------------------
1 | 0:00.00 | 6:30.25 | 0 | 29274
2 | 6:30.25 | 5:45.30 | 29275 | 55179
3 | 12:15.55 | 2:59.05 | 55180 | 68609
4 | 15:14.60 | 4:23.35 | 68610 | 88369
5 | 19:38.20 | 5:33.34 | 88370 | 113378
6 | 25:11.54 | 5:11.36 | 113379 | 136739
7 | 30:23.15 | 3:01.27 | 136740 | 150341
8 | 33:24.42 | 5:02.50 | 150342 | 173041
9 | 38:27.17 | 4:28.73 | 173042 | 193214
10 | 42:56.15 | 8:42.22 | 193215 | 232386
11 | 51:38.37 | 3:39.15 | 232387 | 248826
12 | 55:17.52 | 3:53.40 | 248827 | 266341


Rozsah - stav a chyby

Vybranэ rozsah

nбzev souboru C:\adown\aadown\orbit\Neznбmэ autor - Neznбmэ nбzev.wav

љpiиkovб ъrovмт 100.0 %
kvalita rozsahu 100.0 %
CRC kopie 28F129DF
kopie OK

Nedoљlo k ћбdnэm chybбm


AccurateRip

Stopa 1 nebylo moћnй ovмшit jako pшesnй (spolehlivost 2) [526110D9], AccurateRip [FC2EDB7F]
Stopa 2 nebylo moћnй ovмшit jako pшesnй (spolehlivost 2) [7F7E8E27], AccurateRip [76FA58E8]
Stopa 3 nebylo moћnй ovмшit jako pшesnй (spolehlivost 2) [12731219], AccurateRip [111D9518]
Stopa 4 nebylo moћnй ovмшit jako pшesnй (spolehlivost 2) [A25E9DE0], AccurateRip [3A97AC67]
Stopa 5 nebylo moћnй ovмшit jako pшesnй (spolehlivost 2) [007891EA], AccurateRip [E429A980]
Stopa 6 nebylo moћnй ovмшit jako pшesnй (spolehlivost 2) [EDDBC8A0], AccurateRip [8B68B68F]
Stopa 7 nebylo moћnй ovмшit jako pшesnй (spolehlivost 2) [5754B401], AccurateRip [1F1CDEF3]
Stopa 8 nebylo moћnй ovмшit jako pшesnй (spolehlivost 2) [E17F96FC], AccurateRip [B26B6272]
Stopa 9 nebylo moћnй ovмшit jako pшesnй (spolehlivost 2) [B1E8233D], AccurateRip [C39E8FA7]
Stopa 10 nebylo moћnй ovмшit jako pшesnй (spolehlivost 2) [E79CD8A5], AccurateRip [8E1B4D89]
Stopa 11 nebylo moћnй ovмшit jako pшesnй (spolehlivost 2) [3EB5D020], AccurateRip [435DBC01]
Stopa 12 nebylo moћnй ovмшit jako pшesnй (spolehlivost 2) [99587B8C], AccurateRip [59D516EE]

Ћбdnй stopy nemohly bэt ovмшeny jako pшesnй
Mщћete mнt jinэ vэlisek neћ jsou ty kterй jsou jiћ v databбzi

Konec stavovйho hlбљenн

cue
REM DISCID 950DDF0C
REM COMMENT "ExactAudioCopy v0.99pb4"
PERFORMER "Neznбmэ autor"
TITLE "Neznбmэ nбzev"
FILE "Neznбmэ autor - Neznбmэ nбzev.flac" WAVE
TRACK 01 AUDIO
TITLE "Track01"
PERFORMER "Neznбmэ autor"
INDEX 01 00:00:00
TRACK 02 AUDIO
TITLE "Track02"
PERFORMER "Neznбmэ autor"
INDEX 00 06:28:62
INDEX 01 06:30:25
TRACK 03 AUDIO
TITLE "Track03"
PERFORMER "Neznбmэ autor"
INDEX 00 12:14:15
INDEX 01 12:15:55
TRACK 04 AUDIO
TITLE "Track04"
PERFORMER "Neznбmэ autor"
INDEX 01 15:14:60
TRACK 05 AUDIO
TITLE "Track05"
PERFORMER "Neznбmэ autor"
INDEX 00 19:36:07
INDEX 01 19:38:20
TRACK 06 AUDIO
TITLE "Track06"
PERFORMER "Neznбmэ autor"
INDEX 00 25:10:05
INDEX 01 25:11:54
TRACK 07 AUDIO
TITLE "Track07"
PERFORMER "Neznбmэ autor"
INDEX 00 30:22:05
INDEX 01 30:23:15
TRACK 08 AUDIO
TITLE "Track08"
PERFORMER "Neznбmэ autor"
INDEX 00 33:23:67
INDEX 01 33:24:42
TRACK 09 AUDIO
TITLE "Track09"
PERFORMER "Neznбmэ autor"
INDEX 00 38:25:38
INDEX 01 38:27:17
TRACK 10 AUDIO
TITLE "Track10"
PERFORMER "Neznбmэ autor"
INDEX 00 42:54:38
INDEX 01 42:56:15
TRACK 11 AUDIO
TITLE "Track11"
PERFORMER "Neznбmэ autor"
INDEX 00 51:37:23
INDEX 01 51:38:37
TRACK 12 AUDIO
TITLE "Track12"
PERFORMER "Neznбmэ autor"
INDEX 00 55:16:42
INDEX 01 55:17:52

_________________


Top
 Profile E-mail  
 
 
PostPosted: 29 Nov 2018 
Хиппей (support team)
User avatar
Joined: 30 Jul 2007
Posts: 108945
Lоcаtion: Киев (Kyiv, UA)
Age: 45
Name: Andrey
Ночью начал слушать альбом - понравился и саунд и нарочито прикалывающаяяся манера пения вокалиста и ещё много чего, но.. уснул.
Сейчас заново буду оценивать работу эту. Благо есть время на внимательное прослушивание :meloman:

_________________


Top
 Profile E-mail  
 
 
PostPosted: 29 Nov 2018 
Хиппей (support team)
User avatar
Joined: 30 Jul 2007
Posts: 108945
Lоcаtion: Киев (Kyiv, UA)
Age: 45
Name: Andrey
Ну чего, отпадный альбом :true: :true: :true:
На М-А почему-то указан стили как Melodic Power Metal.
Ну.. частично так и есть, в самом финале альбоме парочка мелочных песен затесалась, но не сопливых. А так альбом выдержан очень даже в духе качественного европейского павера + американского, но не жёсткого..
Вокалист вообще умиляет своим мурлыканием и умением менять втемно диапазаоны пения :meloman: :meloman:
Представьте себе, хотя бы, Себастьяна Баха из Скид Роу, поющего в манере.. Мастэйна. Ну и голос у вокалиста очень мощный. Жаль, дальше он где-то (вокалист) затерялся.

7+/10

Альбом уже забираю в топы, ибо после недели сплошного "сушняка" такая музыка воспринимается как бальзам на сбитые об "умные альбомы" коленки.

_________________


Top
 Profile E-mail  
 
 
PostPosted: 29 Nov 2018 
Power Metal Maniac
User avatar
Joined: 09 Aug 2008
Posts: 6434
Lоcаtion: Москва
Age: 40
Name: Егор
не забыть скачать :thanx:

_________________
Long Live Metal!


Top
 Profile  
 
 
PostPosted: 29 Nov 2018 
Хиппей (support team)
User avatar
Joined: 30 Jul 2007
Posts: 108945
Lоcаtion: Киев (Kyiv, UA)
Age: 45
Name: Andrey
И послушать.
100%тов твоя музыка :meloman: :meloman: :meloman:

_________________


Top
 Profile E-mail  
 
 
PostPosted: 29 Nov 2018 
Хиппей (support team)
User avatar
Joined: 30 Jul 2007
Posts: 108945
Lоcаtion: Киев (Kyiv, UA)
Age: 45
Name: Andrey
Хотя.. а скоростных то композиций и нету :scratch: :scratch: :scratch:

_________________


Top
 Profile E-mail  
 
 
PostPosted: 29 Nov 2018 
Power Metal Maniac
User avatar
Joined: 09 Aug 2008
Posts: 6434
Lоcаtion: Москва
Age: 40
Name: Егор
Scatterbrain wrote:
Хотя.. а скоростных то композиций и нету

Тогда это не Павер :pardon:

_________________
Long Live Metal!


Top
 Profile  
 
 
PostPosted: 29 Nov 2018 
Хиппей (support team)
User avatar
Joined: 30 Jul 2007
Posts: 108945
Lоcаtion: Киев (Kyiv, UA)
Age: 45
Name: Andrey
Вот это именно пауэр настоящий, а не споли какие-то или тупо шинковка гитарная скоростная. Очень живая музыка здесь представлена.
Хоть альбом и выглядит нецелостным. То есть, половина песен выполнена чуть ли не в пародийной, юмористической манере (это я понял по музыке, чутка по лирике и интонациями вокалиста), а вторая боле серьёзная.
Поэтому и стилистику я указан в имени топка вот такую вот :pardon:

_________________


Top
 Profile E-mail  
 
 
PostPosted: 29 Nov 2018 
Я набрал 1000 сообщений!
User avatar
Joined: 04 Jul 2009
Posts: 1167
Age: 45
Name: dima
Добавил тэги и отредактировал сканы


Top
 Profile E-mail  
 
 
PostPosted: 29 Nov 2018 
Рарник и трушник
User avatar
Joined: 25 Dec 2009
Posts: 8481
Lоcаtion: Москва
Age: 53
Name: Виталий
:thanx: :thanx: :thanx: :lob:


Top
 Profile  
 
 
PostPosted: 29 Nov 2018 
Прокъмитолист
User avatar
Joined: 12 Aug 2007
Posts: 6514
Lоcаtion: Санктъ-Петербуркъ
Age: 51
Name: Олекъ
всем спасибо :thanx:

_________________
прокъметол - это музыко, от которово есть прок (ы)


Top
 Profile  
 
Display posts from previous:  Sort by  
Post new topic Reply to topic  [ 23 posts ]  Go to page 1, 2  Next

All times are UTC + 3 hours


Who is online

Users browsing this forum: No registered users and 2 guests


You cannot post new topics in this forum
You cannot reply to topics in this forum
You cannot edit your posts in this forum
You cannot delete your posts in this forum
You cannot post attachments in this forum

Search for:
Яндекс.Метрика
cron
Powered by phpBB © 2000, 2002, 2005, 2007 phpBB Group