\m/ 80's metal \m/

Информационно-аналитический форум "80 см пыли" (In Search We Trust) "У нас никто никуда не спешит"
Me For You - http://me-4u.com
It is currently 12 Jul 2020

All times are UTC + 3 hours

Spoiler
Chat - temporary registration for foreign users (please leave your application here)







Post new topic Reply to topic  [ 20 posts ] 
Author Message
 
PostPosted: 07 Jan 2010 
хард н хэвщик (support team)
User avatar
Joined: 02 Jun 2008
Posts: 16881
Lоcаtion: Н.Новгород
Age: 33
Name: Артем
Image

BLACK FOREST - 1993 - Tales...

1. Up In The Sky
2. In My Dreams
3. Superficial Ecstacy
4. Hold On To You
5. Out In The Distance
6. Along The Road
7. Lovin Cup
8. Siren
9. Tonight She Cries
10. Hands Of Man
11. Winter Tears
12. Hot Woman Blues
13. I Don`t Know
14. Falling Stars

Quote:
A very rare AOR gem. These guys rock. Pretty tough cd to find. If you haven`t heard them you are missin` out. Released in 1993 these guys are from Spokane Washington. A killer band!


Top
 Profile  
 
 
PostPosted: 05 Apr 2012 
спирт 100%
User avatar
Joined: 22 Sep 2008
Posts: 4571
Age: 48
Name: Саня
Походу ихний сайт
http://www.cyrus.com/cyrus/blackfor/blackfor.html


Top
 Profile  
 
 
PostPosted: 10 Apr 2012 
Хиппей (support team)
User avatar
Joined: 30 Jul 2007
Posts: 118961
Lоcаtion: Киев (Kyiv, UA)
Age: 47
Name: Andrey
Ага, очень даже их сайт :thanx:

Image

phpBB [youtube]

_________________


Top
 Profile E-mail  
 
 
PostPosted: 25 Jan 2017 
Rara avis
User avatar
Joined: 27 Jan 2009
Posts: 5653
Name: .
Предлагаю - сброситься на CD :oops:
Есть желающие?


Top
 Profile E-mail  
 
 
PostPosted: 26 Jan 2017 
Работнечег
User avatar
Joined: 28 Aug 2007
Posts: 6325
Lоcаtion: г. Москва
Age: 31
Name: Дима
цена в 12 долларов + 3 доллара пересылка?


Top
 Profile E-mail  
 
 
PostPosted: 26 Jan 2017 
Rara avis
User avatar
Joined: 27 Jan 2009
Posts: 5653
Name: .
Не знаю сколько доставка будет :oops:


Top
 Profile E-mail  
 
 
PostPosted: 28 Jan 2017 
Работнечег
User avatar
Joined: 28 Aug 2007
Posts: 6325
Lоcаtion: г. Москва
Age: 31
Name: Дима
Пока что написал на мыло, подождем ответа, но раньше 10 февраля я не готов скидываться точно.


Top
 Profile E-mail  
 
 
PostPosted: 28 Jan 2017 
Rara avis
User avatar
Joined: 27 Jan 2009
Posts: 5653
Name: .
Спасибо, подождем...


Top
 Profile E-mail  
 
 
PostPosted: 29 Jan 2017 
Работнечег
User avatar
Joined: 28 Aug 2007
Posts: 6325
Lоcаtion: г. Москва
Age: 31
Name: Дима
Диски закончились, спросил про кассеты..


Top
 Profile E-mail  
 
 
PostPosted: 29 Jan 2017 
Rara avis
User avatar
Joined: 27 Jan 2009
Posts: 5653
Name: .
Плохо, но лучше уж кассеты...


Top
 Profile E-mail  
 
 
PostPosted: 11 Feb 2017 
Работнечег
User avatar
Joined: 28 Aug 2007
Posts: 6325
Lоcаtion: г. Москва
Age: 31
Name: Дима
Извиняюсь за поздний ответ, но кассет тоже нет, а на вопрос о высылке мп3 или CDr или т.п. ответа не получено :pardon:


Top
 Profile E-mail  
 
 
PostPosted: 11 Feb 2017 
Rara avis
User avatar
Joined: 27 Jan 2009
Posts: 5653
Name: .
Очень жаль. На просторах интернета даже следов этого альбома не было замечено. Будем надеяться, что хоть мп3 вышлют. Готова выслать пару долларов.


Top
 Profile E-mail  
 
 
PostPosted: 12 Feb 2017 
Работнечег
User avatar
Joined: 28 Aug 2007
Posts: 6325
Lоcаtion: г. Москва
Age: 31
Name: Дима
Написал еще раз, но думаю, что ответа не будет, а там поглядим


Top
 Profile E-mail  
 
 
PostPosted: 31 May 2019 
Rara avis
User avatar
Joined: 27 Jan 2009
Posts: 5653
Name: .


https://www.discogs.com/sell/release/11268183?ev=rb


Top
 Profile E-mail  
 
 
PostPosted: 21 May 2020 
Работнечег
User avatar
Joined: 28 Aug 2007
Posts: 6325
Lоcаtion: г. Москва
Age: 31
Name: Дима
Image

Label: Dragon Fire Records
Genre: AOR
Country: USA
Format: Flac + Log + Cue + Covers
Size: 390 Mb

Line-Up:
Travis Wade - Vocals, Guitar
Cyrus Azar - Drums, Vocals
Art Donnelly - Bass, Vocals
Dave Cooney - Guitars, Vocals, Keyboards


Tracklist:
1. Up In The Sky
2. In My Dreams
3. Superficial Ecstacy
4. Hold On To You
5. Out In The Distance
6. Along The Road
7. Lovin Cup
8. Siren
9. Tonight She Cries
10. Hands Of Man
11. Winter Tears
12. Hot Woman Blues
13. I Don`t Know
14. Falling Stars

LOG
Exact Audio Copy V1.3 from 2. September 2016

EAC extraction logfile from 13. October 2019, 20:35

Black Forest / Tales...

Used drive : PIONEER DVD-RW DVR-221 Adapter: 1 ID: 0

Read mode : Secure
Utilize accurate stream : Yes
Defeat audio cache : Yes
Make use of C2 pointers : No

Read offset correction : 6
Overread into Lead-In and Lead-Out : No
Fill up missing offset samples with silence : Yes
Delete leading and trailing silent blocks : No
Null samples used in CRC calculations : Yes
Used interface : Native Win32 interface for Win NT & 2000

Used output format : User Defined Encoder
Selected bitrate : 768 kBit/s
Quality : High
Add ID3 tag : No
Command line compressor : C:\Program Files (x86)\Exact Audio Copy\FLAC\FLAC.EXE
Additional command line options : -6 -V -T "ARTIST=%artist%" -T "TITLE=%title%" -T "ALBUM=%albumtitle%" -T "DATE=%year%" -T "TRACKNUMBER=%tracknr%" -T "GENRE=%genre%" -T "COMMENT=%comment%" -T "BAND=%albuminterpret%" -T "ALBUMARTIST=%albuminterpret%" -T "COMPOSER=%composer%" %haslyrics%--tag-from-file=LYRICS="%lyricsfile%"%haslyrics% -T "DISCNUMBER=%cdnumber%" -T "TOTALDISCS=%totalcds%" -T "TOTALTRACKS=%numtracks%" %hascover%--picture="%coverfile%"%hascover% %source% -o %dest%


TOC of the extracted CD

Track | Start | Length | Start sector | End sector
---------------------------------------------------------
1 | 0:00.30 | 2:54.74 | 30 | 13153
2 | 2:55.29 | 3:08.72 | 13154 | 27325
3 | 6:04.26 | 3:48.43 | 27326 | 44468
4 | 9:52.69 | 3:25.33 | 44469 | 59876
5 | 13:18.27 | 4:59.68 | 59877 | 82369
6 | 18:18.20 | 4:23.10 | 82370 | 102104
7 | 22:41.30 | 3:16.07 | 102105 | 116811
8 | 25:57.37 | 3:42.69 | 116812 | 133530
9 | 29:40.31 | 3:47.04 | 133531 | 150559
10 | 33:27.35 | 4:46.73 | 150560 | 172082
11 | 38:14.33 | 4:13.68 | 172083 | 191125
12 | 42:28.26 | 3:34.69 | 191126 | 207244
13 | 46:03.20 | 4:25.64 | 207245 | 227183
14 | 50:29.09 | 7:26.42 | 227184 | 260675


Range status and errors

Selected range

Filename D:\Музыка\Lossless\Black Forest - Tales... (1994)\Black Forest - Tales....wav

Peak level 100.0 %
Extraction speed 5.8 X
Range quality 99.9 %
Copy CRC 9BB51FD8
Copy OK

No errors occurred


AccurateRip summary

Track 1 not present in database
Track 2 not present in database
Track 3 not present in database
Track 4 not present in database
Track 5 not present in database
Track 6 not present in database
Track 7 not present in database
Track 8 not present in database
Track 9 not present in database
Track 10 not present in database
Track 11 not present in database
Track 12 not present in database
Track 13 not present in database
Track 14 not present in database

None of the tracks are present in the AccurateRip database

End of status report

---- CUETools DB Plugin V2.1.6

[CTDB TOCID: XPTbpcTzoQ0.I.mNSF_KfqudvDQ-] database access error: Невозможно разрешить удаленное имя: 'db.cuetools.net'

CUE
REM GENRE "Heavy Metal"
REM DATE 1994
REM DISCID B40D930E
REM COMMENT "ExactAudioCopy v1.3"
PERFORMER "Black Forest"
TITLE "Tales..."
REM COMPOSER ""
FILE "Black Forest - Tales....flac" WAVE
TRACK 01 AUDIO
TITLE "Up In The Sky"
PERFORMER "Black Forest"
REM COMPOSER ""
INDEX 00 00:00:00
INDEX 01 00:00:30
TRACK 02 AUDIO
TITLE "In My Dreams"
PERFORMER "Black Forest"
REM COMPOSER ""
INDEX 01 02:55:29
TRACK 03 AUDIO
TITLE "Superficial Ecstasy"
PERFORMER "Black Forest"
REM COMPOSER ""
INDEX 01 06:04:26
TRACK 04 AUDIO
TITLE "Hold On To You"
PERFORMER "Black Forest"
REM COMPOSER ""
INDEX 01 09:52:69
TRACK 05 AUDIO
TITLE "Out In The Distance"
PERFORMER "Black Forest"
REM COMPOSER ""
INDEX 01 13:18:27
TRACK 06 AUDIO
TITLE "Along The Road"
PERFORMER "Black Forest"
REM COMPOSER ""
INDEX 01 18:18:20
TRACK 07 AUDIO
TITLE "Lovin' Cup"
PERFORMER "Black Forest"
REM COMPOSER ""
INDEX 01 22:41:30
TRACK 08 AUDIO
TITLE "Siren"
PERFORMER "Black Forest"
REM COMPOSER ""
INDEX 01 25:57:37
TRACK 09 AUDIO
TITLE "Tonight She Cries"
PERFORMER "Black Forest"
REM COMPOSER ""
INDEX 01 29:40:31
TRACK 10 AUDIO
TITLE "Hands Of Man"
PERFORMER "Black Forest"
REM COMPOSER ""
INDEX 01 33:27:35
TRACK 11 AUDIO
TITLE "Winter Tears"
PERFORMER "Black Forest"
REM COMPOSER ""
INDEX 01 38:14:33
TRACK 12 AUDIO
TITLE "Hot Woman Blues"
PERFORMER "Black Forest"
REM COMPOSER ""
INDEX 01 42:28:26
TRACK 13 AUDIO
TITLE "I Don't Know"
PERFORMER "Black Forest"
REM COMPOSER ""
INDEX 01 46:03:20
TRACK 14 AUDIO
TITLE "Falling Stars"
PERFORMER "Black Forest"
REM COMPOSER ""
INDEX 01 50:29:09


Yadi

В целом хороший AOR, хотя я думал будет пободрее немного


Top
 Profile E-mail  
 
 
PostPosted: 22 May 2020 
А может смените мне статус?..
Joined: 11 Sep 2010
Posts: 596
Lоcаtion: Тверь
Age: 47
Name: Сергей
:true: :thanx:


Top
 Profile E-mail  
 
 
PostPosted: 22 May 2020 
Хиппей (support team)
User avatar
Joined: 30 Jul 2007
Posts: 118961
Lоcаtion: Киев (Kyiv, UA)
Age: 47
Name: Andrey
:thanx:

_________________


Top
 Profile E-mail  
 
 
PostPosted: 23 May 2020 
спирт 100%
User avatar
Joined: 22 Sep 2008
Posts: 4571
Age: 48
Name: Саня
:thanx: Спасибо!


Top
 Profile  
 
 
PostPosted: 26 May 2020 
Хиппей (support team)
User avatar
Joined: 30 Jul 2007
Posts: 118961
Lоcаtion: Киев (Kyiv, UA)
Age: 47
Name: Andrey
В общем, ни хрена это не AOR, а бард-рок, скажем так.
Но музычка всё же хорошая. Но неформат и переносится из запросов в неформатный раздел, и даже в "Бухту", ибо лосик :pardon:

_________________


Top
 Profile E-mail  
 
 
PostPosted: 27 May 2020 
Я набрал 1000 сообщений!
Joined: 24 Oct 2009
Posts: 2371
Lоcаtion: Оренбург
Age: 56
Name: Юра
:thanx:

_________________
:dash: I am happy!


Top
 Profile E-mail  
 
Display posts from previous:  Sort by  
Post new topic Reply to topic  [ 20 posts ] 

All times are UTC + 3 hours


Who is online

Users browsing this forum: No registered users and 2 guests


You cannot post new topics in this forum
You cannot reply to topics in this forum
You cannot edit your posts in this forum
You cannot delete your posts in this forum
You cannot post attachments in this forum

Search for:
Яндекс.Метрика
Powered by phpBB © 2000, 2002, 2005, 2007 phpBB Group