\m/ 80's metal \m/

Информационно-аналитический форум "80 см пыли" (In Search We Trust) "У нас никто никуда не спешит"
Me For You - http://me-4u.com
It is currently 22 Sep 2020

All times are UTC + 3 hours

Spoiler
Chat - temporary registration for foreign users (please leave your application here)







Post new topic Reply to topic  [ 9 posts ] 
Author Message
 
PostPosted: 02 Dec 2009 
Просто волшебник
User avatar
Joined: 01 Mar 2008
Posts: 1244
Name: Андрей
Buckshot - Damn Straight (2001)

Image

Tracklist

1. Like It Or Not
2. Money Back Guarantee
3. Rock 'n' Roll Won't Do It
4. Outcast Boogie
5. Bad Little Woman
6. My Good Times
7. Sailing Down
8. Another Song About Girls
9. She's Hot
10. Hey Little Girl
11. What Do You Do
12. Like A Rabbit


http://www.heavyharmonies.com/cgi-bin/g ... n+Straight


Top
 Profile  
 
 
PostPosted: 02 Dec 2009 
Персональный статус
User avatar
Joined: 30 May 2009
Posts: 453
Age: 67
Name: mihail
Андрей! Ты такие группы выдаёшь,что я думаю и в гугле о них не слышали.У тебя наверное какая то своя поисковая сеть.Так что лучше будет если ты сам их и найдёшь. А я думаю, что через некоторое время ты их и выложишь,так в основном и было.С большим уважением к тебе ''советский меломан''.


Top
 Profile E-mail  
 
 
PostPosted: 02 Dec 2009 
Просто волшебник
User avatar
Joined: 01 Mar 2008
Posts: 1244
Name: Андрей
mihgus wrote:
Андрей! Ты такие группы выдаёшь, что лучше будет если ты сам их и найдёшь.


Ну спасибо :thanx: , то есть запросы можно делать всем, кроме меня. А мне только нужно выполнять, выполнять и выполнять ваши запросы.

mihgus wrote:
Андрей! Ты такие группы выдаёшь,что я думаю и в гугле о них не слышали.


А вот теперь услышат и я думаю эти запросы привлекут сюда путёвых юзеров, которые смогут хоть что-то редкое иногда сюда выкладывать.


Top
 Profile  
 
 
PostPosted: 02 Dec 2009 
хард н хэвщик (support team)
User avatar
Joined: 02 Jun 2008
Posts: 16881
Lоcаtion: Н.Новгород
Age: 33
Name: Артем
Rolf_63 wrote:
А мне только нужно выполнять, выполнять и выполнять ваши запросы.
но ведь кто-то должен взять на себя обязанности Деда Мороза - Санта Клауса :pardon:


Top
 Profile  
 
 
PostPosted: 02 Dec 2009 
Персональный статус
User avatar
Joined: 30 May 2009
Posts: 453
Age: 67
Name: mihail
Андрей извини. Обидеть точно тебя не хотел.А если придут новые свежие,то это только на пользу дела.Еще раз извини.


Top
 Profile E-mail  
 
 
PostPosted: 11 Dec 2009 
хард н хэвщик (support team)
User avatar
Joined: 02 Jun 2008
Posts: 16881
Lоcаtion: Н.Новгород
Age: 33
Name: Артем
Rolf_63 wrote:
А вот теперь услышат и я думаю эти запросы привлекут сюда путёвых юзеров, которые смогут хоть что-то редкое иногда сюда выкладывать.
хм, Андрей напророчил.... :scratch: :arrow:


Top
 Profile  
 
 
PostPosted: 13 Jul 2012 
Rara avis
User avatar
Joined: 27 Jan 2009
Posts: 5692
Name: .
Sami Huohvanainen (Guitars) - http://www.facebook.com/sami.huohvanainen
и его друг Pekka Kastari (Bass) - http://www.facebook.com/pekka.kastari.5


Top
 Profile E-mail  
 
 
PostPosted: 24 Aug 2019 
Rara avis
User avatar
Joined: 27 Jan 2009
Posts: 5692
Name: .
Совсем недорогой - https://www.discogs.com/sell/release/8250310?ev=rb


Top
 Profile E-mail  
 
 
PostPosted: 21 May 2020 
Работнечег
User avatar
Joined: 28 Aug 2007
Posts: 6363
Lоcаtion: г. Москва
Age: 31
Name: Дима
Image

Label: Kaktus Records
Genre: Hard Rock, Blues Rock
Country: Finland
Format: Flac + Log + Cue + Covers
Size: 306 Mb

Line-Up:
Pikku-Jukka - Vocals
Ape Jokinen - Guitars
Sami Huohvanainen - Guitars
Pekka Kastari - Bass
Timo Honkanen - Drums



Tracklist:
1. Like It Or Not
2. Money Back Guarantee
3. Rock 'n' Roll Won't Do It
4. Outcast Boogie
5. Bad Little Woman
6. My Good Times
7. Sailing Down
8. Another Song About Girls
9. She's Hot
10. Hey Little Girl
11. What Do You Do
12. Like A Rabbit

LOG
Exact Audio Copy V1.3 from 2. September 2016

EAC extraction logfile from 13. October 2019, 21:05

Buckshot / Damn Straight

Used drive : PIONEER DVD-RW DVR-221 Adapter: 1 ID: 0

Read mode : Secure
Utilize accurate stream : Yes
Defeat audio cache : Yes
Make use of C2 pointers : No

Read offset correction : 6
Overread into Lead-In and Lead-Out : No
Fill up missing offset samples with silence : Yes
Delete leading and trailing silent blocks : No
Null samples used in CRC calculations : Yes
Used interface : Native Win32 interface for Win NT & 2000

Used output format : User Defined Encoder
Selected bitrate : 768 kBit/s
Quality : High
Add ID3 tag : No
Command line compressor : C:\Program Files (x86)\Exact Audio Copy\FLAC\FLAC.EXE
Additional command line options : -6 -V -T "ARTIST=%artist%" -T "TITLE=%title%" -T "ALBUM=%albumtitle%" -T "DATE=%year%" -T "TRACKNUMBER=%tracknr%" -T "GENRE=%genre%" -T "COMMENT=%comment%" -T "BAND=%albuminterpret%" -T "ALBUMARTIST=%albuminterpret%" -T "COMPOSER=%composer%" %haslyrics%--tag-from-file=LYRICS="%lyricsfile%"%haslyrics% -T "DISCNUMBER=%cdnumber%" -T "TOTALDISCS=%totalcds%" -T "TOTALTRACKS=%numtracks%" %hascover%--picture="%coverfile%"%hascover% %source% -o %dest%


TOC of the extracted CD

Track | Start | Length | Start sector | End sector
---------------------------------------------------------
1 | 0:00.00 | 3:34.05 | 0 | 16054
2 | 3:34.05 | 3:16.08 | 16055 | 30762
3 | 6:50.13 | 4:03.07 | 30763 | 48994
4 | 10:53.20 | 3:02.06 | 48995 | 62650
5 | 13:55.26 | 3:17.42 | 62651 | 77467
6 | 17:12.68 | 2:26.06 | 77468 | 88423
7 | 19:38.74 | 2:42.04 | 88424 | 100577
8 | 22:21.03 | 3:55.37 | 100578 | 118239
9 | 26:16.40 | 2:50.05 | 118240 | 130994
10 | 29:06.45 | 2:40.47 | 130995 | 143041
11 | 31:47.17 | 3:53.73 | 143042 | 160589
12 | 35:41.15 | 2:06.08 | 160590 | 170047


Range status and errors

Selected range

Filename D:\Музыка\Lossless\Buckshot - Damn Straight (2001\Buckshot - Damn Straight.wav

Peak level 99.9 %
Extraction speed 3.7 X
Range quality 100.0 %
Copy CRC 9E076614
Copy OK

No errors occurred


AccurateRip summary

Track 1 not present in database
Track 2 not present in database
Track 3 not present in database
Track 4 not present in database
Track 5 not present in database
Track 6 not present in database
Track 7 not present in database
Track 8 not present in database
Track 9 not present in database
Track 10 not present in database
Track 11 not present in database
Track 12 not present in database

None of the tracks are present in the AccurateRip database

End of status report

CUE
REM GENRE "Hard Rock"
REM DATE 2001
REM DISCID 9708DB0C
REM COMMENT "ExactAudioCopy v1.3"
PERFORMER "Buckshot"
TITLE "Damn Straight"
REM COMPOSER ""
FILE "Buckshot - Damn Straight.flac" WAVE
TRACK 01 AUDIO
TITLE "Like It Or Not"
PERFORMER "Buckshot"
REM COMPOSER ""
FLAGS DCP
INDEX 01 00:00:00
TRACK 02 AUDIO
TITLE "Money Back Quarantee"
PERFORMER "Buckshot"
REM COMPOSER ""
FLAGS DCP
INDEX 01 03:34:05
TRACK 03 AUDIO
TITLE "Rock 'N' Roll Won't Do It"
PERFORMER "Buckshot"
REM COMPOSER ""
FLAGS DCP
INDEX 01 06:50:13
TRACK 04 AUDIO
TITLE "Outcast Boogie"
PERFORMER "Buckshot"
REM COMPOSER ""
FLAGS DCP
INDEX 01 10:53:20
TRACK 05 AUDIO
TITLE "Red Little Woman"
PERFORMER "Buckshot"
REM COMPOSER ""
FLAGS DCP
INDEX 01 13:55:26
TRACK 06 AUDIO
TITLE "My Good Times"
PERFORMER "Buckshot"
REM COMPOSER ""
FLAGS DCP
INDEX 01 17:12:68
TRACK 07 AUDIO
TITLE "Sailing Down"
PERFORMER "Buckshot"
REM COMPOSER ""
FLAGS DCP
INDEX 01 19:38:74
TRACK 08 AUDIO
TITLE "Another Song About Girls"
PERFORMER "Buckshot"
REM COMPOSER ""
FLAGS DCP
INDEX 01 22:21:03
TRACK 09 AUDIO
TITLE "She's Hot"
PERFORMER "Buckshot"
REM COMPOSER ""
FLAGS DCP
INDEX 01 26:16:40
TRACK 10 AUDIO
TITLE "Hey Little Girl"
PERFORMER "Buckshot"
REM COMPOSER ""
FLAGS DCP
INDEX 01 29:06:45
TRACK 11 AUDIO
TITLE "What Do You Do"
PERFORMER "Buckshot"
REM COMPOSER ""
FLAGS DCP
INDEX 01 31:47:17
TRACK 12 AUDIO
TITLE "Like A Rabbit"
PERFORMER "Buckshot"
REM COMPOSER ""
FLAGS DCP
INDEX 01 35:41:15


Yadi

Спасибо Даше за участие в покупке. Есть неплохие песенки, пока один раз послушал.


Top
 Profile E-mail  
 
Display posts from previous:  Sort by  
Post new topic Reply to topic  [ 9 posts ] 

All times are UTC + 3 hours


Who is online

Users browsing this forum: No registered users and 1 guest


You cannot post new topics in this forum
You cannot reply to topics in this forum
You cannot edit your posts in this forum
You cannot delete your posts in this forum
You cannot post attachments in this forum

Search for:
Яндекс.Метрика
Powered by phpBB © 2000, 2002, 2005, 2007 phpBB Group