\m/ 80's metal \m/

Информационно-аналитический форум "80 см пыли" (In Search We Trust) "У нас никто никуда не спешит"
Me For You - http://me-4u.com
It is currently 12 Dec 2018

All times are UTC + 3 hours

Spoiler
Chat - temporary registration for foreign users (please leave your application here)







Post new topic Reply to topic  [ 161 posts ]  Go to page Previous  1 ... 5, 6, 7, 8, 9  Next
Author Message
 
PostPosted: 26 Oct 2009 
А может смените мне статус?..
User avatar
Joined: 30 Aug 2009
Posts: 824
Lоcаtion: Ачинск, Красноярский край
Age: 32
Name: Стас
> Осталось найти: | Still looking:
Bernie Torme - Live (1983)(Reissued In 2000) +3 bonus


Ищу дскографию этого исплнителя :umnik:
Подробная информация здесь: http://www.bernietorme.com/
http://en.wikipedia.org/wiki/Bernie_Torme
http://nwobhm.info/nwobhm/index.php?opt ... &Itemid=42
http://www.nestor.minsk.by/mg/2000/31/mg03110.html

Кое-что перезалил, надеюсь удастся оживить и собрать в кучу все ссылки с этого топика, а то небольшой бардак уже есть. Здесь то, что удалось скачать. Если у кого-то есть релизы на которые нет ссылок, просьба выложить :thanx:

Bernie Tormé

1980 - The Beat [EP] - 320
Yadi
1981 - Turn Out The Lights (Vinyl Version) - 320
Yadi
1983 - Live In Sheffield - 320
Yadi
1984 - My Baby Loves A Vampire [EP] - VBR
Yadi
1985 - Live at Marquee Club (14-01-1985) -128
Yadi
1985 - Live at Marquee Club, London (16-03-1985) - 320
Yadi
1991 - Are We There Yet (Compilation) - FLAC
Yadi
1993 - Demolition Ball (14 tracks version, 1994) - 320
Yadi спасибо Роману 8848
1993 - Demolition Ball (Reissued In 2003) + 2 bonus FLAC
Yadi
1996 - Turn Out The Lights (CD Version Remastered + 3 Bonus Tracks) - 128
Yadi
1997 - Wild Irish - FLAC
Yadi
1999 - White Trash Guitar - 192
Yadi
2001 - Scorched Earth Live FLAC
Yadi

Bernie Tormé Band

1978 - I'm Not Ready 7'' - 192
Yadi
1979 - Weekend 7'' = 4 track EP with Phil Spalding + Mark Harrison - WAV
Yadi
1998 - Punk Or What (Unreleased 1977-79) - 160
Yadi

The Electric Gypsies

1982 - Shoorah Shoorah 7'' - 160
Yadi
1982 - Shoorah Shoorah 7'' + I Can't Control Myself 7''
Yadi Thanks Vitaly65
1983 - Electric Gypsies (Vinyl Version) - 320
Yadi
1996 - Electric Gypsies (CD version) (5 Bonus) - FLAC
Yadi

Tormé

1985 - All Around The World 7" - 160
Yadi
1986 - Back to Babylon (CD version, 11 tracks) - 192
Yadi
1986 - Back To Babylon (Reissued In 2004) FLAC
Yadi
1987 - Die Pretty Die Young - 192
Yadi
1987 - Official Bootleg (Reissued in 1997 on CD + 3 bonus tracks) - 192
Yadi


Top
 Profile E-mail  
 
 
PostPosted: 03 Oct 2018 
спирт 100%
User avatar
Joined: 22 Sep 2008
Posts: 4323
Age: 47
Name: Саня
:thanx:


Top
 Profile  
 
 
PostPosted: 09 Oct 2018 
Хиппей (support team)
User avatar
Joined: 30 Jul 2007
Posts: 108837
Lоcаtion: Киев (Kyiv, UA)
Age: 45
Name: Andrey
phantom2003 wrote:
Bernie Torme – Flowers & Dirt (2CD)(2014)

Первый диск представляет собой музыку в духе альтернативного хард-рока, второй - акустические и блюзовые версии песен всяких :meloman:

6/10 оценка оптом

_________________


Top
 Profile E-mail  
 
 
PostPosted: 10 Oct 2018 
Хиппей (support team)
User avatar
Joined: 30 Jul 2007
Posts: 108837
Lоcаtion: Киев (Kyiv, UA)
Age: 45
Name: Andrey
Scatterbrain wrote:
второй - акустические и блюзовые версии песен всяких

А хрен там. Упс, второй диск такой же равно-альтернативный хард-рок.
Это я слушал вместе с другим альбомом этот.. :oops:

_________________


Top
 Profile E-mail  
 
 
PostPosted: 10 Oct 2018 
Хиппей (support team)
User avatar
Joined: 30 Jul 2007
Posts: 108837
Lоcаtion: Киев (Kyiv, UA)
Age: 45
Name: Andrey
phantom2003 wrote:
Bernie Torme - Blackheart (2015)

Примерно такой же альбом, как и предыдущий. Но здесь сразу в ухо влипла песня "Miles to Babylon" :meloman:

6/10

_________________


Top
 Profile E-mail  
 
 
PostPosted: 13 Oct 2018 
Пионэръ
Joined: 29 Nov 2009
Posts: 15
Lоcаtion: Москва
Name: Александр
Bernie Torme – Dublin Cowboy (3CD) (2017)


Image

Label: Retrowrek Records
Format: FLAC
Size: 304 Mb + 273 Mb + 257 mB

Tracklist:

CD1 (Studio)
1.Dublin Cowboy
2.Hair Of The Dog
3.Power Of The Blues
4.Back 2 U
5.Time (Has Taken Its Toll)
6.Skangers Delight
7.Little Brother
8.In The Groove
9.Way It Rolls
10.Janus (Pt. 1 & 2)
11.Already Gone

CD2 (Acoustic)
1.Shine
2.Morning Raga
3.Wolfgirl
4.Lethe
5.All My Demons
6.Lady November
7.Cirkus
8.Death Of Dreams

CD3 (Live recorded Jan 29th 2016, South Shields, UK)
1.Wild West
2.Bullet In The Brain
3.Blood Run Cold
4.Turn Out The Lights
5.Pain Song
6.Star
7.Stoneship
8.Rocky Road (From Dublin)

CD1
CD2
CD3


Top
 Profile E-mail  
 
 
PostPosted: 13 Oct 2018 
Хиппей (support team)
User avatar
Joined: 30 Jul 2007
Posts: 108837
Lоcаtion: Киев (Kyiv, UA)
Age: 45
Name: Andrey
phantom2003 wrote:
Bernie Torme – Dublin Cowboy (3CD) (2017)

:thanx:

CD1
mirror: Uloz l Drop l Narod l M-Cloud
CD2
mirror: Uloz l Drop l Narod l M-Cloud
CD3
mirror: Uloz l Drop l Narod l M-Cloud

_________________


Top
 Profile E-mail  
 
 
PostPosted: 13 Oct 2018 
Хиппей (support team)
User avatar
Joined: 30 Jul 2007
Posts: 108837
Lоcаtion: Киев (Kyiv, UA)
Age: 45
Name: Andrey
Явно следующий альбом будет состоять из 5 дисков :kro:

_________________


Top
 Profile E-mail  
 
 
PostPosted: 14 Oct 2018 
Хиппей (support team)
User avatar
Joined: 30 Jul 2007
Posts: 108837
Lоcаtion: Киев (Kyiv, UA)
Age: 45
Name: Andrey
Хорошая работа. Причём все три альбома-диска :meloman: :meloman: :true: :true: :true:
Слушается гармонично, прикольно и разнообразно, что немного странно =)

7/10

_________________


Top
 Profile E-mail  
 
 
PostPosted: 27 Oct 2018 
Пионэръ
Joined: 29 Nov 2009
Posts: 15
Lоcаtion: Москва
Name: Александр
Bernie Torme – Turn Out The Lights (RETRK101) (1982)


Image

Label: Retrowrek Records
Format: FLAC + Log + Cue + Covers
Size: 454 Mb

Tracklist:
01.America
02.Painter Man
03.Turn Out The Lights
04.Chelsea Girls
05.India
06.Oh No!
07.Lies
08.No Reply
09.Getting There
10.Possession
11.Try And Stop Me
12.Whats Next
13.Back With The Boys

LOG
Exact Audio Copy V0.99 prebeta 4 from 23. January 2008

EAC extraction logfile from 19. September 2018, 3:00

Bernie Torme / Turn Out The Lights

Used drive : ASUS DRW-0804P Adapter: 1 ID: 1

Read mode : Secure
Utilize accurate stream : Yes
Defeat audio cache : Yes
Make use of C2 pointers : No

Read offset correction : 48
Overread into Lead-In and Lead-Out : No
Fill up missing offset samples with silence : Yes
Delete leading and trailing silent blocks : No
Null samples used in CRC calculations : No
Used interface : Native Win32 interface for Win NT & 2000

Used output format : Internal WAV Routines
Sample format : 44.100 Hz; 16 Bit; Stereo

TOC of the extracted CD

Track | Start | Length | Start sector | End sector
---------------------------------------------------------
1 | 0:00.00 | 2:46.40 | 0 | 12489
2 | 2:46.40 | 2:56.72 | 12490 | 25761
3 | 5:43.37 | 3:29.13 | 25762 | 41449
4 | 9:12.50 | 4:11.40 | 41450 | 60314
5 | 13:24.15 | 2:20.35 | 60315 | 70849
6 | 15:44.50 | 4:45.07 | 70850 | 92231
7 | 20:29.57 | 3:19.00 | 92232 | 107156
8 | 23:48.57 | 4:39.05 | 107157 | 128086
9 | 28:27.62 | 5:42.25 | 128087 | 153761
10 | 34:10.12 | 3:58.48 | 153762 | 171659
11 | 38:08.60 | 3:03.12 | 171660 | 185396
12 | 41:11.72 | 3:33.63 | 185397 | 201434
13 | 44:45.60 | 5:08.12 | 201435 | 224546

Range status and errors

Selected range

Filename D:\Новая папка\Bernie Torme - Turn Out The Lights\Bernie Torme - Turn Out The Lights.wav

Peak level 96.6 %
Range quality 100.0 %
Copy CRC 5FA30C64
Copy OK

No errors occurred

End of status report

CUE
REM GENRE "Hard Rock"
REM DATE 1982
REM DISCID A90BB10D
REM COMMENT "ExactAudioCopy v0.99pb4"
PERFORMER "Bernie Torme"
TITLE "Turn Out The Lights"
FILE "Bernie Torme - Turn Out The Lights.wav" WAVE
TRACK 01 AUDIO
TITLE "America"
PERFORMER "Bernie Torme"
INDEX 01 00:00:00
TRACK 02 AUDIO
TITLE "Painter Man"
PERFORMER "Bernie Torme"
INDEX 00 02:45:27
INDEX 01 02:46:40
TRACK 03 AUDIO
TITLE "Turn Out The Lights"
PERFORMER "Bernie Torme"
INDEX 00 05:41:62
INDEX 01 05:43:37
TRACK 04 AUDIO
TITLE "Chelsea Girls"
PERFORMER "Bernie Torme"
INDEX 00 09:09:02
INDEX 01 09:12:50
TRACK 05 AUDIO
TITLE "India"
PERFORMER "Bernie Torme"
INDEX 01 13:24:15
TRACK 06 AUDIO
TITLE "Oh No!"
PERFORMER "Bernie Torme"
INDEX 00 15:42:37
INDEX 01 15:44:50
TRACK 07 AUDIO
TITLE "Lies"
PERFORMER "Bernie Torme"
INDEX 00 20:28:10
INDEX 01 20:29:57
TRACK 08 AUDIO
TITLE "No Reply"
PERFORMER "Bernie Torme"
INDEX 00 23:48:10
INDEX 01 23:48:57
TRACK 09 AUDIO
TITLE "Getting There"
PERFORMER "Bernie Torme"
INDEX 00 28:23:17
INDEX 01 28:27:62
TRACK 10 AUDIO
TITLE "Possession"
PERFORMER "Bernie Torme"
INDEX 00 34:08:40
INDEX 01 34:10:12
TRACK 11 AUDIO
TITLE "Try And Stop Me"
PERFORMER "Bernie Torme"
INDEX 00 38:05:10
INDEX 01 38:08:60
TRACK 12 AUDIO
TITLE "What's Next"
PERFORMER "Bernie Torme"
INDEX 00 41:10:30
INDEX 01 41:11:72
TRACK 13 AUDIO
TITLE "Back With The Boys"
PERFORMER "Bernie Torme"
INDEX 00 44:42:45
INDEX 01 44:45:60

Состав
Bernie Torme (Gillan, Desperado, Atomic Rooster, GMT) - Vocals, Guitar, Harmonica, Chinese Flute, Percussion
Phil Spalding (GTR, Michael Oldfield, Elton John) - Bass Guitar, Backing Vocals
Colin Towns (Gillan) – Keyboards, Flute
Nigel Glockler (Saxon, Asia, Steve Howe) - Drums

yadi


Top
 Profile E-mail  
 
 
PostPosted: 27 Oct 2018 
Хиппей (support team)
User avatar
Joined: 30 Jul 2007
Posts: 108837
Lоcаtion: Киев (Kyiv, UA)
Age: 45
Name: Andrey
:thanx:

mirror: Uloz l Drop l Narod l M-Cloud

_________________


Top
 Profile E-mail  
 
 
PostPosted: 12 Nov 2018 
Работнечег
User avatar
Joined: 28 Aug 2007
Posts: 5599
Lоcаtion: г. Москва
Age: 29
Name: Дима
:thanx:


Top
 Profile E-mail  
 
 
PostPosted: 17 Nov 2018 
Пионэръ
Joined: 29 Nov 2009
Posts: 15
Lоcаtion: Москва
Name: Александр
Bernie Torme – Punk Or What (2CD) (1998)


Image

Label: Retrowrek Records
Format: FLAC + Log + Cue + Covers
Size: 574 Mb

Tracklist:
CD1
01.Anyway, Anyhow, Anywhere
02.Don't Look Back
03.One Night Stands
04.Secret Service
05.It's Alright
06.Rebel
07.City's Falling
08.Tear It Down
09.Instant Impact
10.Weekend
11.Dance
12.All Nite
13.Trying Again
14.I'm Not Ready
15.Instant Impact
CD2
01.Looking For Action
02.Don’t Look Back
03.I’m Not Ready
04.Anyway, Anywhere, Anyhow

LOG CD1
Exact Audio Copy V0.99 prebeta 4 from 23. January 2008

EAC extraction logfile from 20. September 2018, 4:33

Bernie Torme / Punk Or What (CD1)

Used drive : ASUS DRW-0804P Adapter: 1 ID: 1

Read mode : Secure
Utilize accurate stream : Yes
Defeat audio cache : Yes
Make use of C2 pointers : No

Read offset correction : 48
Overread into Lead-In and Lead-Out : No
Fill up missing offset samples with silence : Yes
Delete leading and trailing silent blocks : No
Null samples used in CRC calculations : No
Used interface : Native Win32 interface for Win NT & 2000

Used output format : Internal WAV Routines
Sample format : 44.100 Hz; 16 Bit; Stereo


TOC of the extracted CD

Track | Start | Length | Start sector | End sector
---------------------------------------------------------
1 | 0:00.00 | 5:12.08 | 0 | 23407
2 | 5:12.08 | 3:45.28 | 23408 | 40310
3 | 8:57.36 | 2:56.49 | 40311 | 53559
4 | 11:54.10 | 3:18.10 | 53560 | 68419
5 | 15:12.20 | 5:10.51 | 68420 | 91720
6 | 20:22.71 | 3:30.63 | 91721 | 107533
7 | 23:53.59 | 1:53.02 | 107534 | 116010
8 | 25:46.61 | 2:39.10 | 116011 | 127945
9 | 28:25.71 | 3:51.50 | 127946 | 145320
10 | 32:17.46 | 3:42.66 | 145321 | 162036
11 | 36:00.37 | 3:14.67 | 162037 | 176653
12 | 39:15.29 | 3:42.50 | 176654 | 193353
13 | 42:58.04 | 2:58.56 | 193354 | 206759
14 | 45:56.60 | 3:02.47 | 206760 | 220456
15 | 48:59.32 | 3:01.00 | 220457 | 234031


Range status and errors

Selected range

Filename D:\Новая папка\Bernie Torme - Punk Or What\CD1\Bernie Torme - Punk Or What (CD1).wav

Peak level 98.8 %
Range quality 99.9 %
Test CRC 97D7AC79
Copy CRC 97D7AC79
Copy OK

No errors occurred

LOG CD2
Exact Audio Copy V0.99 prebeta 4 from 23. January 2008

EAC extraction logfile from 20. September 2018, 2:53

Bernie Torme / Punk Or What (CD2)

Used drive : ASUS DRW-0804P Adapter: 1 ID: 1

Read mode : Secure
Utilize accurate stream : Yes
Defeat audio cache : Yes
Make use of C2 pointers : No

Read offset correction : 48
Overread into Lead-In and Lead-Out : No
Fill up missing offset samples with silence : Yes
Delete leading and trailing silent blocks : No
Null samples used in CRC calculations : No
Used interface : Native Win32 interface for Win NT & 2000

Used output format : Internal WAV Routines
Sample format : 44.100 Hz; 16 Bit; Stereo


TOC of the extracted CD

Track | Start | Length | Start sector | End sector
---------------------------------------------------------
1 | 0:00.00 | 3:03.53 | 0 | 13777
2 | 3:03.53 | 4:19.62 | 13778 | 33264
3 | 7:23.40 | 3:06.66 | 33265 | 47280
4 | 10:30.31 | 3:54.61 | 47281 | 64891


Range status and errors

Selected range

Filename D:\Новая папка\Bernie Torme - Punk Or What\CD2\Bernie Torme - Punk Or What (CD2).wav

Peak level 98.8 %
Range quality 100.0 %
Copy CRC 384D3E12
Copy OK

No errors occurred

CUE CD1
REM GENRE "Hard Rock"
REM DATE 1998
REM DISCID D50C300F
REM COMMENT "ExactAudioCopy v0.99pb4"
PERFORMER "Bernie Torme"
TITLE "Punk Or What (CD1)"
FILE "Bernie Torme - Punk Or What (CD1).wav" WAVE
TRACK 01 AUDIO
TITLE "Anyway, Anyhow, Anywhere"
PERFORMER "Bernie Torme"
FLAGS DCP
INDEX 01 00:00:00
TRACK 02 AUDIO
TITLE "Don't Look Bacck"
PERFORMER "Bernie Torme"
FLAGS DCP
INDEX 00 05:10:38
INDEX 01 05:12:08
TRACK 03 AUDIO
TITLE "One Night Stands"
PERFORMER "Bernie Torme"
FLAGS DCP
INDEX 00 08:54:66
INDEX 01 08:57:36
TRACK 04 AUDIO
TITLE "Secret Service"
PERFORMER "Bernie Torme"
FLAGS DCP
INDEX 00 11:50:40
INDEX 01 11:54:10
TRACK 05 AUDIO
TITLE "It's Alright"
PERFORMER "Bernie Torme"
FLAGS DCP
INDEX 00 15:08:50
INDEX 01 15:12:20
TRACK 06 AUDIO
TITLE "Rebel"
PERFORMER "Bernie Torme"
FLAGS DCP
INDEX 00 20:21:26
INDEX 01 20:22:71
TRACK 07 AUDIO
TITLE "City's Falling"
PERFORMER "Bernie Torme"
FLAGS DCP
INDEX 00 23:52:14
INDEX 01 23:53:59
TRACK 08 AUDIO
TITLE "Tear It Down"
PERFORMER "Bernie Torme"
FLAGS DCP
INDEX 00 25:45:16
INDEX 01 25:46:61
TRACK 09 AUDIO
TITLE "Instant Impact"
PERFORMER "Bernie Torme"
FLAGS DCP
INDEX 00 28:22:26
INDEX 01 28:25:71
TRACK 10 AUDIO
TITLE "(Just Another) Weekend"
PERFORMER "Bernie Torme"
FLAGS DCP
INDEX 00 32:15:01
INDEX 01 32:17:46
TRACK 11 AUDIO
TITLE "Dance"
PERFORMER "Bernie Torme"
FLAGS DCP
INDEX 00 35:55:67
INDEX 01 36:00:37
TRACK 12 AUDIO
TITLE "All Nite"
PERFORMER "Bernie Torme"
FLAGS DCP
INDEX 00 39:11:59
INDEX 01 39:15:29
TRACK 13 AUDIO
TITLE "Trying Again"
PERFORMER "Bernie Torme"
FLAGS DCP
INDEX 00 42:54:34
INDEX 01 42:58:04
TRACK 14 AUDIO
TITLE "I'm Not Ready"
PERFORMER "Bernie Torme"
FLAGS DCP
INDEX 00 45:49:16
INDEX 01 45:56:60
TRACK 15 AUDIO
TITLE "Instant Impact"
PERFORMER "Bernie Torme"
FLAGS DCP
INDEX 00 48:57:62
INDEX 01 48:59:32

CUE CD2
REM GENRE "Hard Rock"
REM DATE 1998
REM DISCID 28036104
REM COMMENT "ExactAudioCopy v0.99pb4"
PERFORMER "Bernie Torme"
TITLE "Punk Or What (CD2)"
FILE "Bernie Torme - Punk Or What (CD2).wav" WAVE
TRACK 01 AUDIO
TITLE "Looking For Action"
PERFORMER "Bernie Torme"
FLAGS DCP
INDEX 01 00:00:00
TRACK 02 AUDIO
TITLE "Don't Look Back"
PERFORMER "Bernie Torme"
FLAGS DCP
INDEX 00 03:02:06
INDEX 01 03:03:53
TRACK 03 AUDIO
TITLE "I'm Not Ready"
PERFORMER "Bernie Torme"
FLAGS DCP
INDEX 00 07:19:68
INDEX 01 07:23:40
TRACK 04 AUDIO
TITLE "Anyway, Anywhere, Anyhow"
PERFORMER "Bernie Torme"
FLAGS DCP
INDEX 00 10:27:59
INDEX 01 10:30:31

Состав
Bernie Torme (Gillan, Desperado, Atomic Rooster, GMT) - Vocals, Guitars
Phil Spalding (GTR, Michael Oldfield, Elton John) - Bass, Backing Vocals
Mark Harrison (Dirty Strangers) – Drums, Backing Vocals

yadi


Last edited by phantom2003 on 17 Nov 2018, edited 1 time in total.

Top
 Profile E-mail  
 
 
PostPosted: 17 Nov 2018 
Rara avis
User avatar
Joined: 27 Jan 2009
Posts: 4707
Name: .
GMT - Cannonball EP (2006)

Кто может достать?
https://open.spotify.com/album/1SeIxUZTipZc11VHQfwfON


Top
 Profile E-mail  
 
 
PostPosted: 17 Nov 2018 
спирт 100%
User avatar
Joined: 22 Sep 2008
Posts: 4323
Age: 47
Name: Саня
:vic: давно пробовал,так и не получилось,


Top
 Profile  
 
 
PostPosted: 18 Nov 2018 
Хиппей (support team)
User avatar
Joined: 30 Jul 2007
Posts: 108837
Lоcаtion: Киев (Kyiv, UA)
Age: 45
Name: Andrey
phantom2003 wrote:
Bernie Torme – Punk Or What (2CD) (1998)

:thanx:

mirror: Uloz l Drop l Narod l M-Cloud

_________________


Top
 Profile E-mail  
 
 
PostPosted: 18 Nov 2018 
Хиппей (support team)
User avatar
Joined: 30 Jul 2007
Posts: 108837
Lоcаtion: Киев (Kyiv, UA)
Age: 45
Name: Andrey
GMT - Cannonball EP (2006)

Кто может достать?
https://open.spotify.com/album/1SeIxUZTipZc11VHQfwfON

Даш, завтра Пашка достанет. У него там аккаунт есть :kro:
Главное шоб я с утра ему напомнил :lloo:

_________________


Top
 Profile E-mail  
 
 
PostPosted: 18 Nov 2018 
Хиппей (support team)
User avatar
Joined: 30 Jul 2007
Posts: 108837
Lоcаtion: Киев (Kyiv, UA)
Age: 45
Name: Andrey
Достал сегодня - и.. там в mp3@VBR~320

Лью к нам. :pardon:

_________________


Top
 Profile E-mail  
 
 
PostPosted: 18 Nov 2018 
Хиппей (support team)
User avatar
Joined: 30 Jul 2007
Posts: 108837
Lоcаtion: Киев (Kyiv, UA)
Age: 45
Name: Andrey
phantom2003 wrote:
Bernie Torme – Punk Or What (2CD) (1998)

О как. Оказалось, Берни и олдовый британский панк-рок играть умеет :true: :true: :true:

7/10

_________________


Top
 Profile E-mail  
 
 
PostPosted: 18 Nov 2018 
Хиппей (support team)
User avatar
Joined: 30 Jul 2007
Posts: 108837
Lоcаtion: Киев (Kyiv, UA)
Age: 45
Name: Andrey
GMT - Cannonball EP (2006)

Кто может достать?
https://open.spotify.com/album/1SeIxUZTipZc11VHQfwfON


Image

mirror: Uloz l Drop l Narod l M-Cloud

На миник представлен надрывный концертный.. херд-рокЪ :meloman:

_________________


Top
 Profile E-mail  
 
 
PostPosted: 01 Dec 2018 
Пионэръ
Joined: 29 Nov 2009
Posts: 15
Lоcаtion: Москва
Name: Александр
Guy McCoy Tormé - Bitter & Twisted (2006)


Image

Label: Retrowrek Records
Format: APE + Log + Cue
Size: 361 MB

Tracklist:
01.Cannonball
02.Rocky Road (from Dublin)
03.Bitter & Twisted
04.Can’t Beat Rock 'N' Roll
05.Down To Here
06.No Justice
07.Miss The Buzz
08.Longer Than Tomorrow
09.Summerland
10.Deireadh An Samhradh (Summer's End)
11.Vincenzo (della Grande Pumpo del' Amore)

LOG
EAC extraction logfile from 11. June 2007, 11:28 for CD
Guy, McCoy, Tormй / Bitter & Twisted

Used drive : TEAC CD-532E Adapter: 0 ID: 0
Read mode : Secure with NO C2, accurate stream, NO disable cache
Read offset correction : 0
Overread into Lead-In and Lead-Out : No

Used output format : Internal WAV Routines
44.100 Hz; 16 Bit; Stereo

Other options :
Fill up missing offset samples with silence : Yes
Delete leading and trailing silent blocks : No
Native Win32 interface for Win NT & 2000


Range status and errors
Selected range
Filename D:\Guy, McCoy, Tormй - Bitter & Twisted.wav

Peak level 100.0 %
Range quality 100.0 %
CRC A3650FC7
Copy OK

No errors occured

End of status report

CUE
REM GENRE "Hard Rock"
REM DATE 2006
REM DISCID 8B0B8E0B
REM COMMENT "ExactAudioCopy v0.95b4"
PERFORMER "Guy, McCoy, Tormй"
TITLE "Bitter & Twisted"
FILE "Guy, McCoy, Tormй - Bitter & Twisted.wav" WAVE
TRACK 01 AUDIO
TITLE "CANNONBALL"
PERFORMER "Guy, McCoy, Tormй"
INDEX 01 00:00:00
TRACK 02 AUDIO
TITLE "ROCKY ROAD (from Dublin)"
PERFORMER "Guy, McCoy, Tormй"
INDEX 01 03:25:70
TRACK 03 AUDIO
TITLE "BITTER & TWISTED"
PERFORMER "Guy, McCoy, Tormй"
INDEX 01 06:54:52
TRACK 04 AUDIO
TITLE "CAN'T BEAT ROCK'N'ROLL"
PERFORMER "Guy, McCoy, Tormй"
INDEX 01 11:43:65
TRACK 05 AUDIO
TITLE "DOWN TO HERE"
PERFORMER "Guy, McCoy, Tormй"
INDEX 01 15:06:43
TRACK 06 AUDIO
TITLE "NO JUSTICE"
PERFORMER "Guy, McCoy, Tormй"
INDEX 01 20:53:54
TRACK 07 AUDIO
TITLE "MISS THE BUZZ"
PERFORMER "Guy, McCoy, Tormй"
INDEX 01 24:22:20
TRACK 08 AUDIO
TITLE "LONGER THAN TOMORROW"
PERFORMER "Guy, McCoy, Tormй"
INDEX 01 28:16:62
TRACK 09 AUDIO
TITLE "SUMMERLAND"
PERFORMER "Guy, McCoy, Tormй"
INDEX 01 33:28:48
TRACK 10 AUDIO
TITLE "DEIREADH AN SAMHRADH (Summer's End)"
PERFORMER "Guy, McCoy, Tormй"
INDEX 01 41:46:24
TRACK 11 AUDIO
TITLE "VINCENZO (della Grande Pumpo del' Amore)"
PERFORMER "Guy, McCoy, Tormй"
INDEX 01 45:07:66

Состав
Bernie Torme (Gillan, Desperado, Atomic Rooster) – Guitars & Vocals
John McCoy (Gillan, Mammoth) - Bass
Robin Guy (Rachel Stamp) – Drums

yadi


Last edited by phantom2003 on 01 Dec 2018, edited 1 time in total.

Top
 Profile E-mail  
 
Display posts from previous:  Sort by  
Post new topic Reply to topic  [ 161 posts ]  Go to page Previous  1 ... 5, 6, 7, 8, 9  Next

All times are UTC + 3 hours


Who is online

Users browsing this forum: No registered users and 2 guests


You cannot post new topics in this forum
You cannot reply to topics in this forum
You cannot edit your posts in this forum
You cannot delete your posts in this forum
You cannot post attachments in this forum

Search for:
Яндекс.Метрика
Powered by phpBB © 2000, 2002, 2005, 2007 phpBB Group